osu file format v14

[General]
AudioFilename: audio.ogg
AudioLeadIn: 0
PreviewTime: 55857
Countdown: 0
SampleSet: Soft
StackLeniency: 0.7
Mode: 3
LetterboxInBreaks: 0
SpecialStyle: 0
WidescreenStoryboard: 0

[Editor]
DistanceSpacing: 0.8
BeatDivisor: 4
GridSize: 32
TimelineZoom: 1

[Metadata]
Title:Hologram (TV Size)
TitleUnicode:ホログラム (TV Size)
Artist:NICO Touches the Walls
ArtistUnicode:NICO Touches the Walls
Creator:Arzenvald
Version:4K Insane
Source:鋼の錬金術師 FULLMETAL ALCHEMIST
Tags:hagane no renkinjutsushi brotherhood edward alphonse elric square enix Anime Japanese JRock J-Rock Rock Guitar Opening OP 2 Two Aurora Ki/oon Records ExUsagi ajeemaniz
BeatmapID:3885405
BeatmapSetID:365702

[Difficulty]
HPDrainRate:8
CircleSize:4
OverallDifficulty:8
ApproachRate:5
SliderMultiplier:1.4
SliderTickRate:1

[Events]
//Background and Video events
0,0,"BG.jpg",0,0
Video,-350,"FMA.mp4"
//Break Periods
//Storyboard Layer 0 (Background)
//Storyboard Layer 1 (Fail)
//Storyboard Layer 2 (Pass)
//Storyboard Layer 3 (Foreground)
//Storyboard Layer 4 (Overlay)
//Storyboard Sound Samples
Sample,80262,0,"drum-hitfinish.wav",50

[TimingPoints]
708,384.319754,4,2,1,69,1,0

[HitObjects]
448,192,708,128,0,1092:0:0:0:0:
64,192,1092,128,0,1284:0:0:0:0:
448,192,1284,128,0,1668:0:0:0:0:
192,192,1668,128,0,2053:0:0:0:0:
320,192,1860,128,0,2053:0:0:0:0:
448,192,2053,128,0,2437:0:0:0:0:
192,192,2437,128,0,2821:0:0:0:0:
320,192,2629,128,0,2821:0:0:0:0:
448,192,2821,128,0,3206:0:0:0:0:
64,192,3206,128,0,3590:0:0:0:0:
192,192,3398,128,0,3590:0:0:0:0:
448,192,3590,128,0,3782:0:0:0:0:
192,192,3782,128,0,4166:0:0:0:0:
64,192,4166,128,0,4359:0:0:0:0:
448,192,4359,128,0,4743:0:0:0:0:
64,192,4743,128,0,5127:0:0:0:0:
192,192,4935,128,0,5127:0:0:0:0:
448,192,5127,128,0,5511:0:0:0:0:
64,192,5511,128,0,5896:0:0:0:0:
192,192,5704,128,0,5896:0:0:0:0:
448,192,5896,128,0,6280:0:0:0:0:
192,192,6280,1,2,0:0:0:0:
64,192,6472,1,4,0:0:0:0:
320,192,6472,1,8,0:0:0:0:
448,192,6472,1,0,0:0:0:0:
64,192,6857,1,2,0:0:0:0:
192,192,6857,128,4,8298:0:0:0:0:
448,192,6857,128,0,8298:0:0:0:0:
64,192,8394,1,2,0:0:0:0:
320,192,8394,128,4,9835:0:0:0:0:
448,192,8394,128,0,9835:0:0:0:0:
64,192,9355,1,2,0:0:0:0:
64,192,9547,1,4,0:0:0:0:
192,192,9547,1,8,0:0:0:0:
192,192,9931,1,4,0:0:0:0:
320,192,9931,128,8,10315:0:0:0:0:
448,192,9931,1,0,0:0:0:0:
448,192,10123,1,2,0:0:0:0:
192,192,10315,128,2,10508:0:0:0:0:
64,192,10508,1,4,0:0:0:0:
320,192,10508,1,8,0:0:0:0:
448,192,10508,128,0,10892:0:0:0:0:
320,192,10700,1,2,0:0:0:0:
64,192,10892,128,2,11084:0:0:0:0:
192,192,11084,1,4,0:0:0:0:
320,192,11084,128,8,11468:0:0:0:0:
448,192,11084,1,0,0:0:0:0:
448,192,11276,1,2,0:0:0:0:
192,192,11468,128,2,11661:0:0:0:0:
64,192,11661,1,4,0:0:0:0:
320,192,11661,1,8,0:0:0:0:
448,192,11661,128,0,12045:0:0:0:0:
320,192,11853,1,2,0:0:0:0:
64,192,12045,128,2,12237:0:0:0:0:
320,192,12237,1,2,0:0:0:0:
448,192,12237,1,8,0:0:0:0:
192,192,12333,1,8,0:0:0:0:
64,192,12429,1,8,0:0:0:0:
320,192,12525,1,8,0:0:0:0:
64,192,12621,1,2,0:0:0:0:
448,192,12621,1,8,0:0:0:0:
320,192,12717,1,8,0:0:0:0:
192,192,12814,1,8,0:0:0:0:
64,192,12910,1,8,0:0:0:0:
320,192,13006,1,2,0:0:0:0:
448,192,13006,128,4,13198:0:0:0:0:
192,192,13198,128,0,13390:0:0:0:0:
64,192,13390,1,8,0:0:0:0:
448,192,13390,128,0,13582:0:0:0:0:
192,192,13582,1,2,0:0:0:0:
320,192,13582,128,0,13774:0:0:0:0:
448,192,13774,128,0,13967:0:0:0:60:drum-hitclap.wav
64,192,13967,1,2,0:0:0:0:
192,192,13967,128,0,14159:0:0:0:0:
64,192,14159,1,8,0:0:0:0:
448,192,14159,128,0,14351:0:0:0:0:
192,192,14351,1,2,0:0:0:0:
320,192,14351,128,0,14543:0:0:0:0:
448,192,14543,128,0,14735:0:0:0:60:drum-hitclap.wav
64,192,14735,1,2,0:0:0:0:
192,192,14735,128,0,14927:0:0:0:0:
320,192,14927,128,8,15119:0:0:0:0:
448,192,14927,1,0,0:0:0:0:
192,192,15119,128,0,15312:0:0:0:0:
64,192,15312,1,2,0:0:0:0:
448,192,15312,128,0,15504:0:0:0:0:
64,192,15504,1,2,0:0:0:0:
320,192,15504,128,0,15696:0:0:0:0:
192,192,15696,128,8,15888:0:0:0:0:
448,192,15696,1,0,0:0:0:0:
64,192,15888,128,0,16080:0:0:0:0:
192,192,16080,128,2,16272:0:0:0:0:
320,192,16080,1,4,0:0:0:0:
448,192,16080,1,0,0:0:0:0:
320,192,16272,128,0,16465:0:0:0:0:
64,192,16465,1,8,0:0:0:0:
448,192,16465,128,0,16657:0:0:0:0:
64,192,16657,1,2,0:0:0:0:
192,192,16657,1,4,0:0:0:0:
320,192,16657,128,0,17233:0:0:0:0:
448,192,17041,1,2,0:0:0:0:
64,192,17233,1,8,0:0:0:0:
192,192,17233,1,0,0:0:0:0:
64,192,17425,1,2,0:0:0:0:
192,192,17425,128,4,18386:0:0:0:0:
448,192,17425,1,0,0:0:0:0:
448,192,17810,1,8,0:0:0:0:
448,192,18002,1,8,0:0:0:0:
448,192,18194,1,8,0:0:0:0:
64,192,18386,1,2,0:0:0:0:
320,192,18386,1,8,0:0:0:0:
64,192,18578,1,2,0:0:0:0:
192,192,18578,128,8,18771:0:0:0:0:
320,192,18771,128,8,18963:0:0:0:0:
448,192,18771,1,0,0:0:0:0:
64,192,18867,1,8,0:0:0:0:
192,192,18963,1,8,0:0:0:0:
448,192,18963,128,0,22037:0:0:0:0:
320,192,19059,1,0,0:0:0:0:
64,192,19155,1,2,0:0:0:0:
192,192,19155,1,4,0:0:0:0:
192,192,19539,1,8,0:0:0:0:
320,192,19539,1,0,0:0:0:0:
64,192,19731,1,2,0:0:0:0:
192,192,19923,1,0,0:0:0:60:drum-hitclap.wav
64,192,20116,1,2,0:0:0:0:
192,192,20308,1,8,0:0:0:0:
320,192,20308,1,0,0:0:0:0:
64,192,20500,1,2,0:0:0:0:
192,192,20692,1,0,0:0:0:60:drum-hitclap.wav
64,192,20884,1,2,0:0:0:0:
192,192,21076,1,8,0:0:0:0:
320,192,21076,1,0,0:0:0:0:
64,192,21461,1,2,0:0:0:0:
64,192,21653,1,2,0:0:0:0:
192,192,21845,1,8,0:0:0:0:
320,192,21845,1,0,0:0:0:0:
64,192,22037,128,0,22229:0:0:0:75:drum-hitwhistle.wav
192,192,22037,128,0,22614:0:0:0:0:
64,192,22422,1,2,0:0:0:0:
320,192,22614,1,8,0:0:0:0:
448,192,22614,1,0,0:0:0:0:
64,192,22806,1,2,0:0:0:0:
320,192,22806,128,0,23382:0:0:0:0:
448,192,22998,1,0,0:0:0:60:drum-hitclap.wav
64,192,23190,1,2,0:0:0:0:
192,192,23382,1,8,0:0:0:0:
448,192,23382,1,0,0:0:0:0:
64,192,23575,1,2,0:0:0:0:
192,192,23575,128,0,24920:0:0:0:0:
448,192,23767,1,0,0:0:0:60:drum-hitclap.wav
64,192,23959,1,2,0:0:0:0:
320,192,24151,1,8,0:0:0:0:
448,192,24151,1,0,0:0:0:0:
64,192,24535,1,2,0:0:0:0:
64,192,24727,1,2,0:0:0:0:
320,192,24920,1,8,0:0:0:0:
448,192,24920,1,0,0:0:0:0:
64,192,25304,128,2,25688:0:0:0:0:
192,192,25304,1,0,0:0:0:0:
192,192,25688,1,8,0:0:0:0:
320,192,25688,128,0,25880:0:0:0:0:
64,192,25880,1,2,0:0:0:0:
192,192,25880,128,0,26649:0:0:0:0:
448,192,26073,1,0,0:0:0:60:drum-hitclap.wav
64,192,26265,1,2,0:0:0:0:
320,192,26457,1,8,0:0:0:0:
448,192,26457,1,0,0:0:0:0:
64,192,26649,1,2,0:0:0:0:
320,192,26649,128,0,28186:0:0:0:0:
448,192,26841,1,0,0:0:0:60:drum-hitclap.wav
64,192,27033,1,2,0:0:0:0:
192,192,27226,1,8,0:0:0:0:
448,192,27226,1,0,0:0:0:0:
64,192,27610,1,2,0:0:0:0:
64,192,27802,1,2,0:0:0:0:
192,192,27994,1,8,0:0:0:0:
448,192,27994,1,0,0:0:0:0:
64,192,28186,128,0,29724:0:0:0:75:drum-hitwhistle.wav
448,192,28186,128,0,28379:0:0:0:0:
192,192,28571,1,2,0:0:0:0:
192,192,28763,1,8,0:0:0:0:
448,192,28763,1,0,0:0:0:0:
448,192,28955,1,2,0:0:0:0:
320,192,29147,1,0,0:0:0:60:drum-hitclap.wav
192,192,29339,1,2,0:0:0:0:
192,192,29531,1,8,0:0:0:0:
320,192,29531,1,0,0:0:0:0:
320,192,29724,128,2,30684:0:0:0:0:
448,192,29916,1,0,0:0:0:60:drum-hitclap.wav
64,192,30108,1,2,0:0:0:0:
64,192,30300,1,8,0:0:0:0:
448,192,30300,1,0,0:0:0:0:
64,192,30684,1,2,0:0:0:0:
192,192,30684,1,8,0:0:0:0:
448,192,30684,1,0,0:0:0:0:
448,192,30877,1,2,0:0:0:0:
64,192,31069,1,2,0:0:0:0:
192,192,31069,1,8,0:0:0:0:
448,192,31069,1,0,0:0:0:0:
192,192,31261,1,2,0:0:0:0:
320,192,31261,1,0,0:0:0:0:
64,192,31453,128,2,31645:0:0:0:0:
320,192,31453,1,4,0:0:0:0:
448,192,31453,1,0,0:0:0:0:
192,192,31645,128,0,31837:0:0:0:0:
320,192,31837,128,8,32030:0:0:0:0:
448,192,31837,1,0,0:0:0:0:
64,192,32030,1,2,0:0:0:0:
192,192,32030,128,0,32798:0:0:0:0:
448,192,32222,1,0,0:0:0:60:drum-hitclap.wav
320,192,32414,1,2,0:0:0:0:
320,192,32606,1,8,0:0:0:0:
448,192,32606,1,0,0:0:0:0:
64,192,32798,128,2,34143:0:0:0:0:
448,192,32798,1,0,0:0:0:0:
192,192,32990,1,0,0:0:0:60:drum-hitclap.wav
320,192,33183,1,2,0:0:0:0:
192,192,33375,1,8,0:0:0:0:
320,192,33375,1,0,0:0:0:0:
448,192,33567,1,0,0:0:0:0:
192,192,33759,1,2,0:0:0:0:
192,192,33951,1,2,0:0:0:0:
320,192,34143,1,8,0:0:0:0:
448,192,34143,1,0,0:0:0:0:
64,192,34335,128,0,34528:0:0:0:75:drum-hitwhistle.wav
448,192,34335,128,0,34528:0:0:0:0:
320,192,34720,128,2,34912:0:0:0:0:
192,192,34912,1,8,0:0:0:0:
448,192,34912,128,0,35104:0:0:0:0:
64,192,35104,128,2,35296:0:0:0:0:
320,192,35296,128,0,35488:0:0:0:60:drum-hitclap.wav
192,192,35488,128,2,35681:0:0:0:0:
64,192,35681,128,8,37218:0:0:0:0:
448,192,35681,1,0,0:0:0:0:
320,192,35873,128,2,37218:0:0:0:0:
448,192,36065,1,0,0:0:0:60:drum-hitclap.wav
192,192,36257,1,2,0:0:0:0:
192,192,36449,1,8,0:0:0:0:
448,192,36449,1,0,0:0:0:0:
448,192,36834,1,2,0:0:0:0:
448,192,37026,1,2,0:0:0:0:
192,192,37218,1,8,0:0:0:0:
448,192,37218,128,0,37602:0:0:0:0:
192,192,37602,128,2,37794:0:0:0:0:
320,192,37794,128,0,37987:0:0:0:0:
64,192,37987,1,8,0:0:0:0:
448,192,37987,128,0,38179:0:0:0:0:
192,192,38179,1,2,0:0:0:0:
320,192,38179,128,0,38947:0:0:0:0:
64,192,38371,1,0,0:0:0:60:drum-hitclap.wav
192,192,38563,1,2,0:0:0:0:
64,192,38755,1,8,0:0:0:0:
448,192,38755,1,0,0:0:0:0:
192,192,38947,128,2,40677:0:0:0:0:
320,192,39139,1,0,0:0:0:60:drum-hitclap.wav
64,192,39332,1,2,0:0:0:0:
320,192,39524,1,8,0:0:0:0:
448,192,39524,1,0,0:0:0:0:
64,192,39908,1,2,0:0:0:0:
64,192,40100,1,2,0:0:0:0:
320,192,40292,1,8,0:0:0:0:
448,192,40292,1,0,0:0:0:0:
64,192,40485,128,2,40677:0:0:0:0:
448,192,40485,128,0,40677:0:0:0:75:drum-hitwhistle.wav
320,192,40869,128,2,41061:0:0:0:0:
64,192,41061,1,8,0:0:0:0:
192,192,41061,128,0,41445:0:0:0:0:
64,192,41253,128,2,41445:0:0:0:0:
448,192,41253,128,0,41445:0:0:0:75:drum-hitwhistle.wav
192,192,41638,128,2,41830:0:0:0:0:
64,192,41830,128,8,42406:0:0:0:0:
448,192,41830,1,0,0:0:0:0:
192,192,42022,1,2,0:0:0:0:
320,192,42022,1,4,0:0:0:0:
448,192,42022,128,0,42406:0:0:0:0:
192,192,42406,1,2,0:0:0:0:
64,192,42598,1,8,0:0:0:0:
448,192,42598,128,0,42791:0:0:0:0:
320,192,42791,128,0,42983:0:0:0:0:
192,192,42983,128,2,43367:0:0:0:0:
320,192,43175,1,8,0:0:0:0:
448,192,43175,1,0,0:0:0:0:
320,192,43367,1,2,0:0:0:0:
448,192,43367,1,8,0:0:0:0:
192,192,43559,1,0,0:0:0:0:
320,192,43655,1,8,0:0:0:0:
448,192,43655,1,0,0:0:0:0:
64,192,43751,1,2,0:0:0:0:
192,192,43751,1,4,0:0:0:0:
320,192,43751,128,0,44520:0:0:0:75:drum-hitwhistle.wav
64,192,44136,128,0,44328:0:0:0:75:drum-hitwhistle.wav
448,192,44328,128,0,44520:0:0:0:0:
64,192,44520,1,8,0:0:0:0:
192,192,44520,128,0,45289:0:0:0:75:drum-hitwhistle.wav
64,192,44904,128,0,45096:0:0:0:75:drum-hitwhistle.wav
448,192,45096,128,0,45289:0:0:0:0:
64,192,45289,1,0,0:0:0:75:drum-hitwhistle.wav
320,192,45289,128,0,45673:0:0:0:0:
192,192,45481,128,8,45673:0:0:0:0:
448,192,45481,1,0,0:0:0:0:
64,192,45673,128,0,46057:0:0:0:75:drum-hitwhistle.wav
448,192,45865,128,0,46057:0:0:0:0:
192,192,46057,128,8,46634:0:0:0:0:
320,192,46057,1,0,0:0:0:75:drum-hitwhistle.wav
64,192,46442,128,0,46634:0:0:0:75:drum-hitwhistle.wav
320,192,46442,1,0,0:0:0:0:
320,192,46634,128,8,46826:0:0:0:0:
448,192,46634,1,0,0:0:0:0:
64,192,46826,1,2,0:0:0:0:
192,192,46826,1,4,0:0:0:0:
448,192,46826,128,0,47402:0:0:0:75:drum-hitwhistle.wav
64,192,47210,128,0,47402:0:0:0:75:drum-hitwhistle.wav
320,192,47210,1,0,0:0:0:0:
320,192,47402,128,0,47979:0:0:0:0:
64,192,47595,1,8,0:0:0:0:
448,192,47595,1,0,0:0:0:75:drum-hitwhistle.wav
64,192,47979,1,0,0:0:0:75:drum-hitwhistle.wav
448,192,47979,128,0,48171:0:0:0:0:
320,192,48171,128,0,48555:0:0:0:0:
64,192,48363,128,0,48555:0:0:0:75:drum-hitwhistle.wav
192,192,48555,1,8,0:0:0:0:
448,192,48555,128,0,48747:0:0:0:0:
64,192,48747,1,0,0:0:0:75:drum-hitwhistle.wav
320,192,48747,128,0,49516:0:0:0:0:
448,192,48940,128,0,49516:0:0:0:0:
64,192,49132,1,8,0:0:0:0:
192,192,49132,1,0,0:0:0:75:drum-hitwhistle.wav
64,192,49324,1,8,0:0:0:0:
192,192,49324,1,0,0:0:0:0:
64,192,49516,1,0,0:0:0:75:drum-hitwhistle.wav
192,192,49708,1,8,0:0:0:0:
448,192,49708,1,0,0:0:0:0:
64,192,49900,128,2,50477:0:0:0:0:
320,192,49900,1,4,0:0:0:0:
448,192,49900,1,0,0:0:0:75:drum-hitwhistle.wav
320,192,50285,128,0,50477:0:0:0:75:drum-hitwhistle.wav
448,192,50285,1,0,0:0:0:0:
192,192,50477,128,0,50669:0:0:0:0:
64,192,50669,128,8,51246:0:0:0:0:
320,192,50669,1,0,0:0:0:75:drum-hitwhistle.wav
320,192,51053,128,0,51246:0:0:0:75:drum-hitwhistle.wav
448,192,51053,1,0,0:0:0:0:
192,192,51246,128,0,51438:0:0:0:0:
64,192,51438,128,0,51630:0:0:0:75:drum-hitwhistle.wav
448,192,51438,1,0,0:0:0:0:
192,192,51630,1,8,0:0:0:0:
320,192,51630,128,0,52014:0:0:0:0:
64,192,51822,128,0,52399:0:0:0:75:drum-hitwhistle.wav
448,192,51822,1,0,0:0:0:0:
192,192,52206,1,8,0:0:0:0:
320,192,52206,128,0,52591:0:0:0:75:drum-hitwhistle.wav
64,192,52591,128,0,52975:0:0:0:75:drum-hitwhistle.wav
448,192,52591,1,0,0:0:0:0:
192,192,52975,1,4,0:0:0:0:
320,192,52975,1,8,0:0:0:0:
448,192,52975,128,0,53359:0:0:0:0:
64,192,53167,1,2,0:0:0:0:
64,192,53359,1,2,0:0:0:0:
64,192,53551,1,4,0:0:0:0:
192,192,53551,128,8,53936:0:0:0:0:
320,192,53551,1,0,0:0:0:0:
448,192,53744,1,2,0:0:0:0:
448,192,53936,1,2,0:0:0:0:
64,192,54128,1,8,0:0:0:0:
192,192,54128,1,0,0:0:0:0:
448,192,54128,128,0,54608:0:0:0:0:
64,192,54320,1,2,0:0:0:0:
320,192,54320,128,0,54801:0:0:0:0:
192,192,54416,1,2,0:0:0:0:
64,192,54512,1,2,0:0:0:0:
192,192,54704,1,0,0:0:0:50:drum-hitfinish.wav
448,192,54704,128,0,54993:0:0:0:0:
64,192,54897,1,0,0:0:0:50:drum-hitfinish.wav
320,192,54897,128,0,55185:0:0:0:0:
192,192,55089,1,0,0:0:0:50:drum-hitfinish.wav
448,192,55089,128,0,55473:0:0:0:0:
64,192,55281,1,8,0:0:0:0:
320,192,55281,128,0,55473:0:0:0:0:
192,192,55665,128,0,56050:0:0:0:0:
64,192,56050,1,2,0:0:0:0:
320,192,56050,1,4,0:0:0:0:
448,192,56050,128,0,56434:0:0:0:0:
64,192,56434,1,8,0:0:0:0:
192,192,56434,1,0,0:0:0:0:
320,192,56434,128,0,57010:0:0:0:0:
64,192,56626,1,2,0:0:0:0:
192,192,56626,128,0,57010:0:0:0:0:
448,192,56818,1,0,0:0:0:60:drum-hitclap.wav
64,192,57010,128,2,57587:0:0:0:0:
192,192,57203,1,8,0:0:0:0:
320,192,57203,1,0,0:0:0:0:
448,192,57203,1,0,0:0:0:0:
320,192,57395,128,2,57779:0:0:0:0:
448,192,57395,1,0,0:0:0:0:
192,192,57587,1,0,0:0:0:60:drum-hitclap.wav
64,192,57779,128,2,57971:0:0:0:0:
192,192,57971,1,8,0:0:0:0:
320,192,57971,128,0,58259:0:0:0:0:
448,192,57971,1,0,0:0:0:0:
64,192,58163,128,0,58355:0:0:0:0:
320,192,58355,1,2,0:0:0:0:
448,192,58355,128,0,58644:0:0:0:0:
64,192,58548,1,2,0:0:0:0:
192,192,58548,128,0,58740:0:0:0:0:
64,192,58740,128,8,59124:0:0:0:0:
320,192,58740,1,0,0:0:0:0:
448,192,58740,1,0,0:0:0:0:
320,192,59124,128,2,59508:0:0:0:0:
448,192,59124,1,0,0:0:0:0:
64,192,59508,1,8,0:0:0:0:
192,192,59508,128,0,60085:0:0:0:0:
448,192,59508,1,0,0:0:0:0:
64,192,59701,1,2,0:0:0:0:
320,192,59701,128,0,60085:0:0:0:0:
448,192,59893,1,0,0:0:0:60:drum-hitclap.wav
64,192,60085,128,2,60469:0:0:0:0:
192,192,60277,1,8,0:0:0:0:
320,192,60277,1,0,0:0:0:0:
448,192,60277,1,0,0:0:0:0:
320,192,60469,1,2,0:0:0:0:
448,192,60469,128,0,60854:0:0:0:0:
64,192,60661,128,0,60854:0:0:0:60:drum-hitclap.wav
320,192,60854,128,2,61046:0:0:0:0:
64,192,61046,128,8,61334:0:0:0:0:
192,192,61046,1,0,0:0:0:0:
448,192,61046,1,0,0:0:0:0:
320,192,61238,128,0,61430:0:0:0:0:
64,192,61430,1,2,0:0:0:0:
448,192,61430,128,0,61718:0:0:0:0:
192,192,61622,128,2,62007:0:0:0:0:
320,192,61622,1,0,0:0:0:0:
64,192,61814,1,8,0:0:0:0:
320,192,61814,128,0,62007:0:0:0:0:
448,192,61814,1,0,0:0:0:0:
64,192,62199,1,2,0:0:0:0:
320,192,62199,1,4,0:0:0:0:
448,192,62199,128,0,62583:0:0:0:0:
64,192,62583,1,8,0:0:0:0:
192,192,62583,1,0,0:0:0:0:
320,192,62583,128,0,63159:0:0:0:0:
64,192,62775,1,2,0:0:0:0:
192,192,62775,128,0,63159:0:0:0:0:
448,192,62967,1,0,0:0:0:60:drum-hitclap.wav
64,192,63159,128,2,63736:0:0:0:0:
192,192,63352,1,8,0:0:0:0:
320,192,63352,1,0,0:0:0:0:
448,192,63352,1,0,0:0:0:0:
320,192,63544,128,2,63928:0:0:0:0:
448,192,63544,1,0,0:0:0:0:
192,192,63736,1,0,0:0:0:60:drum-hitclap.wav
64,192,63928,128,2,64120:0:0:0:0:
192,192,64120,128,8,64408:0:0:0:0:
320,192,64120,1,0,0:0:0:0:
448,192,64120,1,0,0:0:0:0:
64,192,64312,128,0,64505:0:0:0:0:
192,192,64505,1,2,0:0:0:0:
448,192,64505,128,0,64793:0:0:0:0:
64,192,64697,1,2,0:0:0:0:
320,192,64697,128,0,64889:0:0:0:0:
64,192,64889,1,8,0:0:0:0:
192,192,64889,128,0,65273:0:0:0:0:
448,192,64889,1,0,0:0:0:0:
64,192,65273,128,2,65658:0:0:0:0:
320,192,65273,1,4,0:0:0:0:
448,192,65273,1,0,0:0:0:0:
320,192,65465,1,0,0:0:0:0:
192,192,65658,1,8,0:0:0:0:
320,192,65658,128,0,65850:0:0:0:0:
448,192,65658,1,0,0:0:0:0:
64,192,65850,1,2,0:0:0:0:
448,192,65850,128,0,66234:0:0:0:0:
320,192,66042,1,0,0:0:0:60:drum-hitclap.wav
64,192,66234,1,2,0:0:0:0:
192,192,66234,128,0,66426:0:0:0:0:
64,192,66426,128,8,66907:0:0:0:0:
320,192,66426,1,0,0:0:0:0:
448,192,66426,1,0,0:0:0:0:
192,192,66618,1,2,0:0:0:0:
320,192,66618,1,4,0:0:0:0:
448,192,66618,128,0,66907:0:0:0:0:
64,192,67003,1,4,0:0:0:0:
320,192,67003,1,8,0:0:0:0:
448,192,67003,1,0,0:0:0:0:
64,192,67195,1,4,0:0:0:0:
320,192,67195,1,8,0:0:0:0:
448,192,67195,1,0,0:0:0:0:
192,192,67387,1,2,0:0:0:0:
64,192,67579,1,8,0:0:0:0:
448,192,67579,1,0,0:0:0:0:
192,192,67675,1,8,0:0:0:0:
320,192,67675,1,0,0:0:0:0:
64,192,67771,1,2,0:0:0:0:
320,192,67867,1,2,0:0:0:0:
64,192,67963,1,4,0:0:0:0:
192,192,67963,1,8,0:0:0:0:
448,192,67963,1,0,0:0:0:0:
64,192,68348,1,2,0:0:0:0:
192,192,68348,1,4,0:0:0:0:
320,192,68348,1,0,0:0:0:0:
448,192,68348,128,0,68732:0:0:0:0:
64,192,68732,1,8,0:0:0:0:
192,192,68732,1,0,0:0:0:75:drum-hitwhistle.wav
320,192,68732,1,0,0:0:0:0:
192,192,68924,128,2,69309:0:0:0:0:
64,192,69116,1,8,0:0:0:0:
320,192,69116,1,0,0:0:0:75:drum-hitwhistle.wav
448,192,69116,1,0,0:0:0:0:
320,192,69309,1,2,0:0:0:0:
448,192,69309,1,0,0:0:0:0:
64,192,69501,1,8,0:0:0:0:
192,192,69501,1,0,0:0:0:75:drum-hitwhistle.wav
448,192,69501,1,0,0:0:0:0:
64,192,69693,1,2,0:0:0:0:
192,192,69693,128,0,70077:0:0:0:0:
320,192,69885,1,8,0:0:0:0:
448,192,69885,1,0,0:0:0:75:drum-hitwhistle.wav
64,192,70077,128,0,70365:0:0:0:0:
192,192,70269,128,8,70365:0:0:0:0:
320,192,70269,1,0,0:0:0:75:drum-hitwhistle.wav
448,192,70269,1,0,0:0:0:0:
64,192,70462,128,2,70558:0:0:0:0:
192,192,70462,1,0,0:0:0:0:
192,192,70654,1,8,0:0:0:0:
320,192,70654,1,0,0:0:0:75:drum-hitwhistle.wav
448,192,70654,128,0,71038:0:0:0:0:
64,192,70846,1,2,0:0:0:0:
192,192,70846,1,0,0:0:0:0:
64,192,71038,1,8,0:0:0:0:
192,192,71038,1,0,0:0:0:75:drum-hitwhistle.wav
320,192,71038,128,0,71230:0:0:0:0:
64,192,71230,1,2,0:0:0:0:
448,192,71230,1,0,0:0:0:0:
192,192,71422,1,8,0:0:0:0:
320,192,71422,1,0,0:0:0:75:drum-hitwhistle.wav
448,192,71422,128,0,71807:0:0:0:0:
64,192,71614,1,0,0:0:0:0:
64,192,71807,1,8,0:0:0:0:
192,192,71807,1,0,0:0:0:75:drum-hitwhistle.wav
320,192,71807,1,0,0:0:0:0:
64,192,71999,128,2,72383:0:0:0:0:
320,192,71999,1,0,0:0:0:0:
192,192,72191,1,8,0:0:0:0:
320,192,72191,1,0,0:0:0:75:drum-hitwhistle.wav
448,192,72191,1,0,0:0:0:0:
192,192,72383,1,2,0:0:0:0:
448,192,72383,1,0,0:0:0:0:
64,192,72575,1,8,0:0:0:0:
192,192,72575,1,0,0:0:0:75:drum-hitwhistle.wav
320,192,72575,1,0,0:0:0:0:
320,192,72767,1,2,0:0:0:0:
448,192,72767,128,0,73152:0:0:0:0:
192,192,72960,1,8,0:0:0:0:
320,192,72960,1,0,0:0:0:75:drum-hitwhistle.wav
64,192,73152,128,0,73440:0:0:0:0:
192,192,73344,1,8,0:0:0:0:
320,192,73344,1,0,0:0:0:75:drum-hitwhistle.wav
448,192,73344,128,0,73440:0:0:0:0:
64,192,73536,1,2,0:0:0:0:
320,192,73536,128,0,73632:0:0:0:0:
64,192,73728,1,8,0:0:0:0:
320,192,73728,1,0,0:0:0:75:drum-hitwhistle.wav
448,192,73728,128,0,74016:0:0:0:0:
192,192,73920,1,2,0:0:0:0:
320,192,73920,128,0,74305:0:0:0:0:
64,192,74113,1,8,0:0:0:0:
192,192,74113,128,0,74305:0:0:0:75:drum-hitwhistle.wav
448,192,74113,1,0,0:0:0:0:
64,192,74305,1,2,0:0:0:0:
64,192,74497,1,2,0:0:0:0:
192,192,74497,1,4,0:0:0:0:
320,192,74497,128,8,75073:0:0:0:0:
448,192,74497,1,0,0:0:0:75:drum-hitwhistle.wav
64,192,74881,128,8,75073:0:0:0:0:
192,192,74881,1,0,0:0:0:75:drum-hitwhistle.wav
448,192,74881,1,0,0:0:0:0:
448,192,75073,128,2,75458:0:0:0:0:
64,192,75266,1,8,0:0:0:0:
192,192,75266,1,0,0:0:0:75:drum-hitwhistle.wav
320,192,75266,1,0,0:0:0:0:
64,192,75458,128,2,75554:0:0:0:0:
192,192,75458,1,0,0:0:0:0:
64,192,75650,128,8,75938:0:0:0:0:
320,192,75650,1,0,0:0:0:75:drum-hitwhistle.wav
448,192,75650,1,0,0:0:0:0:
192,192,75842,128,2,75938:0:0:0:0:
448,192,75842,1,0,0:0:0:0:
192,192,76034,128,8,76611:0:0:0:0:
320,192,76034,1,0,0:0:0:75:drum-hitwhistle.wav
448,192,76034,1,0,0:0:0:0:
64,192,76418,128,8,76611:0:0:0:0:
320,192,76418,1,0,0:0:0:75:drum-hitwhistle.wav
448,192,76418,1,0,0:0:0:0:
320,192,76611,128,2,76995:0:0:0:0:
448,192,76611,1,0,0:0:0:0:
64,192,76803,1,8,0:0:0:0:
192,192,76803,1,0,0:0:0:75:drum-hitwhistle.wav
448,192,76803,1,0,0:0:0:0:
64,192,76995,1,2,0:0:0:0:
192,192,76995,128,0,77091:0:0:0:0:
192,192,77187,128,8,77475:0:0:0:0:
320,192,77187,1,0,0:0:0:75:drum-hitwhistle.wav
448,192,77187,1,0,0:0:0:0:
64,192,77379,1,2,0:0:0:0:
448,192,77379,128,0,77475:0:0:0:0:
64,192,77571,1,2,0:0:0:0:
192,192,77571,1,4,0:0:0:0:
320,192,77571,1,8,0:0:0:0:
448,192,77571,128,0,78148:0:0:0:75:drum-hitwhistle.wav
64,192,77956,1,8,0:0:0:0:
192,192,77956,128,0,78148:0:0:0:75:drum-hitwhistle.wav
320,192,77956,1,0,0:0:0:0:
320,192,78148,128,2,78532:0:0:0:0:
64,192,78340,1,8,0:0:0:0:
192,192,78340,1,0,0:0:0:75:drum-hitwhistle.wav
448,192,78340,1,0,0:0:0:0:
64,192,78532,1,2,0:0:0:0:
192,192,78532,128,0,78628:0:0:0:0:
192,192,78724,128,8,78917:0:0:0:0:
320,192,78724,1,0,0:0:0:75:drum-hitwhistle.wav
448,192,78724,1,0,0:0:0:0:
64,192,78917,128,2,79013:0:0:0:0:
320,192,78917,1,0,0:0:0:0:
64,192,79109,128,2,79685:0:0:0:0:
192,192,79109,1,4,0:0:0:0:
320,192,79109,1,8,0:0:0:0:
448,192,79109,1,0,0:0:0:75:drum-hitwhistle.wav
192,192,79493,1,8,0:0:0:0:
320,192,79493,128,0,79685:0:0:0:75:drum-hitwhistle.wav
448,192,79493,1,0,0:0:0:0:
448,192,79685,128,2,80550:0:0:0:0:
64,192,79877,1,8,0:0:0:0:
192,192,79877,1,0,0:0:0:75:drum-hitwhistle.wav
320,192,79877,1,0,0:0:0:0:
64,192,80070,1,2,0:0:0:0:
192,192,80070,128,0,80166:0:0:0:50:drum-hitfinish.wav
64,192,80262,128,2,80550:0:0:0:0:
192,192,80454,128,0,80550:0:0:0:0:
64,192,80646,128,2,82087:0:0:0:0:
192,192,80646,128,4,82087:0:0:0:0:
320,192,80646,1,0,0:0:0:0:
448,192,80646,1,0,0:0:0:0:
64,192,82183,1,2,0:0:0:0:
192,192,82183,1,4,0:0:0:0:
320,192,82183,128,0,82952:0:0:0:0:
448,192,82183,128,0,82952:0:0:0:0:
64,192,82568,1,0,0:0:0:75:drum-hitwhistle.wav
64,192,82952,1,0,0:0:0:50:drum-hitfinish.wav
192,192,82952,1,0,0:0:0:0:
192,192,83144,1,2,0:0:0:0:
64,192,83240,1,8,0:0:0:0:
320,192,83240,1,0,0:0:0:0:
192,192,83336,1,8,0:0:0:0:
448,192,83336,1,0,0:0:0:0:
320,192,83528,1,8,0:0:0:0:
448,192,83528,1,0,0:0:0:0:
64,192,83624,1,8,0:0:0:0:
192,192,83624,1,0,0:0:0:0:
320,192,83721,1,2,0:0:0:0:
448,192,83721,128,4,83913:0:0:0:0:
192,192,83913,128,0,84105:0:0:0:0:
64,192,84105,1,8,0:0:0:0:
448,192,84105,128,0,84297:0:0:0:0:
192,192,84297,1,2,0:0:0:0:
320,192,84297,128,0,84489:0:0:0:0:
64,192,84489,128,0,84681:0:0:0:60:drum-hitclap.wav
192,192,84681,1,2,0:0:0:0:
320,192,84681,128,0,84874:0:0:0:0:
64,192,84874,1,8,0:0:0:0:
448,192,84874,128,0,85066:0:0:0:0:
192,192,85066,128,2,85258:0:0:0:0:
320,192,85066,1,0,0:0:0:0:
448,192,85258,128,0,85450:0:0:0:60:drum-hitclap.wav
64,192,85450,128,2,85642:0:0:0:0:
192,192,85450,1,0,0:0:0:0:
320,192,85642,1,8,0:0:0:0:
448,192,85642,128,0,85834:0:0:0:0:
192,192,85834,128,0,86026:0:0:0:0:
64,192,86026,1,2,0:0:0:0:
320,192,86026,1,4,0:0:0:0:
448,192,86026,128,0,86315:0:0:0:0:
64,192,86219,128,2,86603:0:0:0:0:
320,192,86315,1,2,0:0:0:0:
192,192,86411,1,8,0:0:0:0:
448,192,86411,128,0,86699:0:0:0:0:
320,192,86507,1,8,0:0:0:0:
192,192,86603,128,8,86699:0:0:0:0:
64,192,86699,1,8,0:0:0:0:
192,192,86795,1,2,0:0:0:0:
320,192,86795,1,4,0:0:0:0:
448,192,86795,128,0,86987:0:0:0:0:
192,192,86987,128,2,87179:0:0:0:0:
320,192,87179,128,8,87372:0:0:0:0:
448,192,87179,1,0,0:0:0:0:
64,192,87372,1,8,0:0:0:0:
448,192,87372,128,0,87948:0:0:0:0:
320,192,87468,1,8,0:0:0:0:
64,192,87564,1,8,0:0:0:0:
192,192,87564,1,0,0:0:0:0:
192,192,87756,1,0,0:0:0:50:drum-hitfinish.wav
320,192,87756,1,0,0:0:0:0:
64,192,87948,1,0,0:0:0:50:drum-hitfinish.wav
192,192,87948,1,0,0:0:0:0:
64,192,88140,128,2,89870:0:0:0:0:
320,192,88140,1,4,0:0:0:0:
448,192,88140,1,0,0:0:0:0:
