osu file format v14

[General]
AudioFilename: audio.ogg
AudioLeadIn: 0
PreviewTime: 55857
Countdown: 0
SampleSet: Soft
StackLeniency: 0.7
Mode: 3
LetterboxInBreaks: 0
SpecialStyle: 0
WidescreenStoryboard: 0

[Editor]
DistanceSpacing: 0.8
BeatDivisor: 4
GridSize: 32
TimelineZoom: 1

[Metadata]
Title:Hologram (TV Size)
TitleUnicode:ホログラム (TV Size)
Artist:NICO Touches the Walls
ArtistUnicode:NICO Touches the Walls
Creator:Arzenvald
Version:4K Hard
Source:鋼の錬金術師 FULLMETAL ALCHEMIST
Tags:hagane no renkinjutsushi brotherhood edward alphonse elric square enix Anime Japanese JRock J-Rock Rock Guitar Opening OP 2 Two Aurora Ki/oon Records ExUsagi ajeemaniz
BeatmapID:3885404
BeatmapSetID:365702

[Difficulty]
HPDrainRate:7.5
CircleSize:4
OverallDifficulty:7.5
ApproachRate:5
SliderMultiplier:1.4
SliderTickRate:1

[Events]
//Background and Video events
0,0,"BG.jpg",0,0
Video,-350,"FMA.mp4"
//Break Periods
//Storyboard Layer 0 (Background)
//Storyboard Layer 1 (Fail)
//Storyboard Layer 2 (Pass)
//Storyboard Layer 3 (Foreground)
//Storyboard Layer 4 (Overlay)
//Storyboard Sound Samples

[TimingPoints]
708,384.319754,4,2,1,69,1,0

[HitObjects]
448,192,708,128,0,1092:0:0:0:0:
320,192,1092,128,0,1284:0:0:0:0:
192,192,1284,128,0,1668:0:0:0:0:
320,192,1668,128,0,2053:0:0:0:0:
448,192,2053,128,0,2437:0:0:0:0:
320,192,2437,128,0,2821:0:0:0:0:
192,192,2821,128,0,3206:0:0:0:0:
320,192,3206,128,0,3590:0:0:0:0:
64,192,3398,128,0,3590:0:0:0:0:
448,192,3590,128,0,3782:0:0:0:0:
192,192,3782,128,0,4166:0:0:0:0:
64,192,4166,128,0,4359:0:0:0:0:
320,192,4359,128,0,4743:0:0:0:0:
192,192,4743,128,0,5127:0:0:0:0:
448,192,4935,128,0,5127:0:0:0:0:
320,192,5127,128,0,5511:0:0:0:0:
192,192,5511,128,0,5896:0:0:0:0:
448,192,5704,128,0,5896:0:0:0:0:
320,192,5896,128,0,6280:0:0:0:0:
64,192,6280,1,2,0:0:0:0:
64,192,6472,1,4,0:0:0:0:
320,192,6472,1,8,0:0:0:0:
448,192,6472,1,0,0:0:0:0:
64,192,6857,128,2,8394:0:0:0:0:
192,192,6857,1,4,0:0:0:0:
448,192,6857,1,0,0:0:0:0:
192,192,8394,128,2,9931:0:0:0:0:
320,192,8394,1,4,0:0:0:0:
448,192,8394,1,0,0:0:0:0:
320,192,9355,1,2,0:0:0:0:
64,192,9547,1,4,0:0:0:0:
448,192,9547,1,8,0:0:0:0:
64,192,9931,1,4,0:0:0:0:
320,192,9931,1,8,0:0:0:0:
448,192,9931,1,0,0:0:0:0:
192,192,10123,1,2,0:0:0:0:
64,192,10315,1,2,0:0:0:0:
192,192,10508,1,4,0:0:0:0:
320,192,10508,1,8,0:0:0:0:
448,192,10508,1,0,0:0:0:0:
64,192,10700,1,2,0:0:0:0:
448,192,10892,1,2,0:0:0:0:
64,192,11084,1,4,0:0:0:0:
192,192,11084,1,8,0:0:0:0:
320,192,11084,1,0,0:0:0:0:
448,192,11276,1,2,0:0:0:0:
64,192,11468,1,2,0:0:0:0:
192,192,11661,1,4,0:0:0:0:
320,192,11661,1,8,0:0:0:0:
448,192,11661,1,0,0:0:0:0:
64,192,11853,1,2,0:0:0:0:
192,192,12045,1,2,0:0:0:0:
64,192,12237,1,2,0:0:0:0:
448,192,12237,1,8,0:0:0:0:
320,192,12333,1,8,0:0:0:0:
192,192,12429,1,8,0:0:0:0:
320,192,12525,1,8,0:0:0:0:
448,192,12621,1,10,0:0:0:0:
64,192,12717,1,8,0:0:0:0:
192,192,12814,1,8,0:0:0:0:
320,192,12910,1,8,0:0:0:0:
64,192,13006,1,2,0:0:0:0:
448,192,13006,1,4,0:0:0:0:
320,192,13198,1,0,0:0:0:0:
64,192,13390,1,8,0:0:0:0:
448,192,13390,1,0,0:0:0:0:
192,192,13582,1,2,0:0:0:0:
320,192,13582,1,0,0:0:0:0:
448,192,13774,1,0,0:0:0:60:drum-hitclap.wav
64,192,13967,1,2,0:0:0:0:
192,192,13967,1,0,0:0:0:0:
320,192,14159,1,8,0:0:0:0:
448,192,14159,1,0,0:0:0:0:
64,192,14351,1,2,0:0:0:0:
192,192,14351,1,0,0:0:0:0:
448,192,14543,1,0,0:0:0:60:drum-hitclap.wav
192,192,14735,1,2,0:0:0:0:
320,192,14735,1,0,0:0:0:0:
64,192,14927,1,8,0:0:0:0:
448,192,14927,1,0,0:0:0:0:
320,192,15119,1,0,0:0:0:0:
64,192,15312,1,2,0:0:0:0:
448,192,15312,1,0,0:0:0:0:
64,192,15504,1,2,0:0:0:0:
320,192,15504,1,0,0:0:0:0:
192,192,15696,1,8,0:0:0:0:
448,192,15696,1,0,0:0:0:0:
64,192,15888,1,0,0:0:0:0:
64,192,16080,128,2,16272:0:0:0:0:
320,192,16080,1,4,0:0:0:0:
448,192,16080,1,0,0:0:0:0:
192,192,16272,128,0,16465:0:0:0:0:
320,192,16465,128,8,16657:0:0:0:0:
64,192,16657,1,2,0:0:0:0:
192,192,16657,1,4,0:0:0:0:
448,192,16657,128,0,16849:0:0:0:0:
448,192,17041,128,2,17233:0:0:0:0:
192,192,17233,1,8,0:0:0:0:
320,192,17233,1,0,0:0:0:0:
64,192,17425,128,2,18386:0:0:0:0:
192,192,17425,1,4,0:0:0:0:
448,192,17425,1,0,0:0:0:0:
320,192,17810,1,8,0:0:0:0:
320,192,18002,1,8,0:0:0:0:
320,192,18194,1,8,0:0:0:0:
192,192,18386,1,2,0:0:0:0:
448,192,18386,1,8,0:0:0:0:
64,192,18578,1,2,0:0:0:0:
320,192,18578,1,8,0:0:0:0:
320,192,18771,1,8,0:0:0:0:
192,192,18867,1,8,0:0:0:0:
448,192,18963,1,8,0:0:0:0:
192,192,19059,1,0,0:0:0:0:
64,192,19155,1,2,0:0:0:0:
448,192,19155,1,4,0:0:0:0:
192,192,19539,1,8,0:0:0:0:
448,192,19539,1,0,0:0:0:0:
64,192,19731,1,2,0:0:0:0:
320,192,19923,1,0,0:0:0:60:drum-hitclap.wav
64,192,20116,1,2,0:0:0:0:
192,192,20308,1,8,0:0:0:0:
448,192,20308,1,0,0:0:0:0:
64,192,20500,1,2,0:0:0:0:
320,192,20692,1,0,0:0:0:60:drum-hitclap.wav
64,192,20884,1,2,0:0:0:0:
192,192,21076,1,8,0:0:0:0:
448,192,21076,1,0,0:0:0:0:
64,192,21461,1,2,0:0:0:0:
64,192,21653,1,2,0:0:0:0:
192,192,21845,1,8,0:0:0:0:
448,192,21845,1,0,0:0:0:0:
64,192,22037,128,0,22229:0:0:0:75:drum-hitwhistle.wav
192,192,22037,1,0,0:0:0:0:
64,192,22422,1,2,0:0:0:0:
192,192,22614,1,8,0:0:0:0:
448,192,22614,1,0,0:0:0:0:
64,192,22806,1,2,0:0:0:0:
448,192,22806,128,0,22998:0:0:0:0:
320,192,22998,1,0,0:0:0:60:drum-hitclap.wav
64,192,23190,1,2,0:0:0:0:
192,192,23382,1,8,0:0:0:0:
448,192,23382,1,0,0:0:0:0:
64,192,23575,128,2,23767:0:0:0:0:
192,192,23575,1,0,0:0:0:0:
320,192,23767,1,0,0:0:0:60:drum-hitclap.wav
64,192,23959,1,2,0:0:0:0:
192,192,24151,1,8,0:0:0:0:
448,192,24151,1,0,0:0:0:0:
64,192,24535,1,2,0:0:0:0:
64,192,24727,1,2,0:0:0:0:
192,192,24920,1,8,0:0:0:0:
448,192,24920,1,0,0:0:0:0:
64,192,25304,1,2,0:0:0:0:
192,192,25304,128,0,25496:0:0:0:0:
320,192,25688,1,8,0:0:0:0:
448,192,25688,1,0,0:0:0:0:
64,192,25880,128,2,26073:0:0:0:0:
320,192,25880,1,0,0:0:0:0:
448,192,26073,1,0,0:0:0:60:drum-hitclap.wav
64,192,26265,1,2,0:0:0:0:
192,192,26457,1,8,0:0:0:0:
448,192,26457,1,0,0:0:0:0:
64,192,26649,128,2,26841:0:0:0:0:
192,192,26649,1,0,0:0:0:0:
320,192,26841,1,0,0:0:0:60:drum-hitclap.wav
64,192,27033,1,2,0:0:0:0:
192,192,27226,1,8,0:0:0:0:
448,192,27226,1,0,0:0:0:0:
64,192,27610,1,2,0:0:0:0:
64,192,27802,1,2,0:0:0:0:
192,192,27994,1,8,0:0:0:0:
448,192,27994,1,0,0:0:0:0:
64,192,28186,1,0,0:0:0:75:drum-hitwhistle.wav
192,192,28186,128,0,28379:0:0:0:0:
192,192,28571,1,2,0:0:0:0:
64,192,28763,1,8,0:0:0:0:
448,192,28763,1,0,0:0:0:0:
192,192,28955,1,2,0:0:0:0:
320,192,29147,1,0,0:0:0:60:drum-hitclap.wav
192,192,29339,1,2,0:0:0:0:
64,192,29531,1,8,0:0:0:0:
448,192,29531,1,0,0:0:0:0:
192,192,29724,1,2,0:0:0:0:
448,192,29724,128,0,29916:0:0:0:0:
320,192,29916,1,0,0:0:0:60:drum-hitclap.wav
192,192,30108,1,2,0:0:0:0:
64,192,30300,1,8,0:0:0:0:
448,192,30300,1,0,0:0:0:0:
192,192,30684,1,2,0:0:0:0:
320,192,30684,1,8,0:0:0:0:
448,192,30684,1,0,0:0:0:0:
64,192,31069,1,2,0:0:0:0:
192,192,31069,1,8,0:0:0:0:
320,192,31069,1,0,0:0:0:0:
192,192,31261,1,2,0:0:0:0:
64,192,31453,1,2,0:0:0:0:
320,192,31453,1,4,0:0:0:0:
448,192,31453,1,0,0:0:0:0:
192,192,31645,1,0,0:0:0:0:
320,192,31837,1,8,0:0:0:0:
448,192,31837,1,0,0:0:0:0:
192,192,32030,1,2,0:0:0:0:
448,192,32030,128,0,32222:0:0:0:0:
64,192,32222,1,0,0:0:0:60:drum-hitclap.wav
192,192,32414,1,2,0:0:0:0:
448,192,32414,1,0,0:0:0:0:
64,192,32606,1,8,0:0:0:0:
192,192,32606,1,0,0:0:0:0:
64,192,32798,128,2,32990:0:0:0:0:
320,192,32798,1,0,0:0:0:0:
448,192,32990,1,0,0:0:0:60:drum-hitclap.wav
320,192,33183,1,2,0:0:0:0:
64,192,33375,1,8,0:0:0:0:
448,192,33375,1,0,0:0:0:0:
192,192,33759,1,2,0:0:0:0:
192,192,33951,1,2,0:0:0:0:
64,192,34143,1,8,0:0:0:0:
448,192,34143,1,0,0:0:0:0:
192,192,34335,128,0,34528:0:0:0:75:drum-hitwhistle.wav
320,192,34335,1,0,0:0:0:0:
64,192,34720,1,2,0:0:0:0:
320,192,34720,1,0,0:0:0:0:
64,192,34912,1,8,0:0:0:0:
448,192,34912,1,0,0:0:0:0:
320,192,35104,1,2,0:0:0:0:
448,192,35104,1,0,0:0:0:0:
64,192,35296,1,0,0:0:0:60:drum-hitclap.wav
192,192,35296,1,0,0:0:0:0:
64,192,35488,1,2,0:0:0:0:
320,192,35488,1,0,0:0:0:0:
192,192,35681,1,8,0:0:0:0:
320,192,35681,1,0,0:0:0:0:
192,192,35873,1,2,0:0:0:0:
448,192,35873,128,0,36065:0:0:0:0:
64,192,36065,1,0,0:0:0:60:drum-hitclap.wav
448,192,36257,1,2,0:0:0:0:
320,192,36449,1,8,0:0:0:0:
448,192,36449,1,0,0:0:0:0:
64,192,36834,1,2,0:0:0:0:
64,192,37026,1,2,0:0:0:0:
192,192,37218,1,8,0:0:0:0:
448,192,37218,128,0,37602:0:0:0:0:
64,192,37602,1,2,0:0:0:0:
192,192,37602,1,0,0:0:0:0:
64,192,37794,1,0,0:0:0:0:
192,192,37987,1,8,0:0:0:0:
448,192,37987,1,0,0:0:0:0:
320,192,38179,1,2,0:0:0:0:
448,192,38179,128,0,38371:0:0:0:0:
64,192,38371,1,0,0:0:0:60:drum-hitclap.wav
192,192,38563,1,2,0:0:0:0:
320,192,38563,1,0,0:0:0:0:
64,192,38755,1,8,0:0:0:0:
448,192,38755,1,0,0:0:0:0:
64,192,38947,128,2,39139:0:0:0:0:
192,192,38947,1,0,0:0:0:0:
320,192,39139,1,0,0:0:0:60:drum-hitclap.wav
64,192,39332,1,2,0:0:0:0:
192,192,39524,1,8,0:0:0:0:
448,192,39524,1,0,0:0:0:0:
64,192,39908,1,2,0:0:0:0:
64,192,40100,1,2,0:0:0:0:
192,192,40292,1,8,0:0:0:0:
448,192,40292,1,0,0:0:0:0:
64,192,40485,1,2,0:0:0:0:
320,192,40485,128,0,40677:0:0:0:75:drum-hitwhistle.wav
192,192,40869,1,2,0:0:0:0:
448,192,40869,1,0,0:0:0:0:
64,192,41061,1,8,0:0:0:0:
448,192,41061,1,0,0:0:0:0:
64,192,41253,1,2,0:0:0:0:
192,192,41253,128,0,41445:0:0:0:75:drum-hitwhistle.wav
320,192,41638,1,2,0:0:0:0:
448,192,41638,1,0,0:0:0:0:
64,192,41830,1,8,0:0:0:0:
192,192,41830,1,0,0:0:0:0:
192,192,42022,1,2,0:0:0:0:
320,192,42022,1,4,0:0:0:0:
448,192,42022,128,0,42406:0:0:0:0:
64,192,42406,1,2,0:0:0:0:
192,192,42598,1,8,0:0:0:0:
448,192,42598,128,0,42791:0:0:0:0:
320,192,42791,128,0,42983:0:0:0:0:
64,192,42983,1,2,0:0:0:0:
192,192,42983,128,0,43367:0:0:0:0:
320,192,43175,1,8,0:0:0:0:
448,192,43175,1,0,0:0:0:0:
320,192,43367,1,2,0:0:0:0:
448,192,43367,1,8,0:0:0:0:
64,192,43559,1,0,0:0:0:0:
320,192,43655,1,8,0:0:0:0:
64,192,43751,1,2,0:0:0:0:
192,192,43751,1,4,0:0:0:0:
448,192,43751,1,0,0:0:0:75:drum-hitwhistle.wav
64,192,44136,1,0,0:0:0:75:drum-hitwhistle.wav
320,192,44136,1,0,0:0:0:0:
64,192,44520,1,8,0:0:0:0:
192,192,44520,1,0,0:0:0:75:drum-hitwhistle.wav
448,192,44520,1,0,0:0:0:0:
64,192,44904,1,0,0:0:0:75:drum-hitwhistle.wav
320,192,44904,1,0,0:0:0:0:
64,192,45289,1,0,0:0:0:75:drum-hitwhistle.wav
192,192,45481,1,8,0:0:0:0:
320,192,45481,1,0,0:0:0:0:
448,192,45481,1,0,0:0:0:0:
64,192,45673,1,0,0:0:0:75:drum-hitwhistle.wav
320,192,45673,1,0,0:0:0:0:
64,192,46057,1,8,0:0:0:0:
320,192,46057,1,0,0:0:0:75:drum-hitwhistle.wav
64,192,46442,1,0,0:0:0:75:drum-hitwhistle.wav
192,192,46634,1,8,0:0:0:0:
448,192,46634,1,0,0:0:0:0:
64,192,46826,1,2,0:0:0:0:
320,192,46826,1,4,0:0:0:0:
448,192,46826,1,0,0:0:0:75:drum-hitwhistle.wav
64,192,47210,1,0,0:0:0:75:drum-hitwhistle.wav
448,192,47210,1,0,0:0:0:0:
64,192,47595,1,8,0:0:0:0:
192,192,47595,1,0,0:0:0:75:drum-hitwhistle.wav
448,192,47595,1,0,0:0:0:0:
64,192,47979,1,0,0:0:0:75:drum-hitwhistle.wav
320,192,47979,1,0,0:0:0:0:
64,192,48363,1,0,0:0:0:75:drum-hitwhistle.wav
192,192,48555,1,8,0:0:0:0:
320,192,48555,1,0,0:0:0:0:
448,192,48555,1,0,0:0:0:0:
64,192,48747,1,0,0:0:0:75:drum-hitwhistle.wav
320,192,48747,1,0,0:0:0:0:
64,192,49132,1,8,0:0:0:0:
192,192,49132,1,0,0:0:0:75:drum-hitwhistle.wav
448,192,49132,1,0,0:0:0:0:
320,192,49324,1,8,0:0:0:0:
448,192,49324,1,0,0:0:0:0:
64,192,49516,1,0,0:0:0:75:drum-hitwhistle.wav
192,192,49708,1,8,0:0:0:0:
448,192,49708,1,0,0:0:0:0:
64,192,49900,1,2,0:0:0:0:
320,192,49900,1,4,0:0:0:0:
448,192,49900,1,0,0:0:0:75:drum-hitwhistle.wav
192,192,50285,1,0,0:0:0:75:drum-hitwhistle.wav
448,192,50285,1,0,0:0:0:0:
64,192,50669,1,8,0:0:0:0:
320,192,50669,1,0,0:0:0:75:drum-hitwhistle.wav
448,192,50669,1,0,0:0:0:0:
320,192,51053,1,0,0:0:0:75:drum-hitwhistle.wav
448,192,51053,1,0,0:0:0:0:
448,192,51438,1,0,0:0:0:75:drum-hitwhistle.wav
64,192,51630,1,8,0:0:0:0:
192,192,51630,1,0,0:0:0:0:
320,192,51630,1,0,0:0:0:0:
64,192,51822,1,0,0:0:0:75:drum-hitwhistle.wav
448,192,51822,1,0,0:0:0:0:
192,192,52206,1,8,0:0:0:0:
320,192,52206,1,0,0:0:0:75:drum-hitwhistle.wav
448,192,52206,1,0,0:0:0:0:
64,192,52591,1,0,0:0:0:75:drum-hitwhistle.wav
448,192,52591,1,0,0:0:0:0:
64,192,52975,1,4,0:0:0:0:
320,192,52975,1,8,0:0:0:0:
448,192,52975,1,0,0:0:0:0:
192,192,53167,1,2,0:0:0:0:
320,192,53167,1,0,0:0:0:0:
192,192,53359,1,2,0:0:0:0:
64,192,53551,1,4,0:0:0:0:
320,192,53551,1,8,0:0:0:0:
448,192,53551,1,0,0:0:0:0:
192,192,53744,1,2,0:0:0:0:
320,192,53744,1,0,0:0:0:0:
192,192,53936,1,2,0:0:0:0:
320,192,54128,1,8,0:0:0:0:
448,192,54128,1,0,0:0:0:0:
64,192,54320,1,2,0:0:0:0:
192,192,54416,1,2,0:0:0:0:
64,192,54512,1,2,0:0:0:0:
64,192,54704,1,0,0:0:0:50:drum-hitfinish.wav
192,192,54704,1,0,0:0:0:0:
320,192,54897,1,0,0:0:0:50:drum-hitfinish.wav
448,192,54897,1,0,0:0:0:0:
320,192,55089,1,0,0:0:0:50:drum-hitfinish.wav
448,192,55089,1,0,0:0:0:0:
64,192,55281,1,8,0:0:0:0:
192,192,55281,128,0,56050:0:0:0:0:
448,192,55281,1,0,0:0:0:0:
320,192,55665,128,0,56050:0:0:0:0:
64,192,56050,1,2,0:0:0:0:
448,192,56050,128,4,56434:0:0:0:0:
64,192,56434,1,8,0:0:0:0:
192,192,56434,1,0,0:0:0:0:
320,192,56626,128,2,57010:0:0:0:0:
192,192,56818,1,0,0:0:0:60:drum-hitclap.wav
64,192,57010,1,2,0:0:0:0:
64,192,57203,1,8,0:0:0:0:
448,192,57203,1,0,0:0:0:0:
320,192,57395,128,2,57779:0:0:0:0:
192,192,57587,1,0,0:0:0:60:drum-hitclap.wav
64,192,57779,1,2,0:0:0:0:
320,192,57971,128,8,58163:0:0:0:0:
448,192,57971,1,0,0:0:0:0:
192,192,58163,128,0,58355:0:0:0:0:
64,192,58355,1,2,0:0:0:0:
448,192,58355,128,0,58740:0:0:0:0:
64,192,58548,1,2,0:0:0:0:
192,192,58740,128,8,59124:0:0:0:0:
320,192,58740,1,0,0:0:0:0:
64,192,59124,1,2,0:0:0:0:
320,192,59124,128,0,59508:0:0:0:0:
64,192,59508,1,8,0:0:0:0:
448,192,59508,1,0,0:0:0:0:
192,192,59701,128,2,60085:0:0:0:0:
320,192,59893,1,0,0:0:0:60:drum-hitclap.wav
448,192,60085,1,2,0:0:0:0:
64,192,60277,1,8,0:0:0:0:
448,192,60277,1,0,0:0:0:0:
320,192,60469,128,2,60661:0:0:0:0:
192,192,60661,128,0,60854:0:0:0:60:drum-hitclap.wav
64,192,60854,128,2,61046:0:0:0:0:
448,192,61046,1,8,0:0:0:0:
320,192,61046,128,0,61238:0:0:0:0:
192,192,61238,128,0,61430:0:0:0:0:
448,192,61430,128,2,61622:0:0:0:0:
64,192,61430,1,0,0:0:0:0:
320,192,61622,128,2,61814:0:0:0:0:
64,192,61622,1,0,0:0:0:0:
448,192,61814,1,8,0:0:0:0:
192,192,61814,128,0,62007:0:0:0:0:
64,192,62199,1,2,0:0:0:0:
320,192,62199,1,4,0:0:0:0:
448,192,62199,128,0,62583:0:0:0:0:
64,192,62583,1,8,0:0:0:0:
192,192,62583,1,0,0:0:0:0:
192,192,62775,128,2,63159:0:0:0:0:
320,192,62967,1,0,0:0:0:60:drum-hitclap.wav
64,192,63159,128,2,63544:0:0:0:0:
320,192,63352,1,8,0:0:0:0:
448,192,63352,1,0,0:0:0:0:
320,192,63544,128,2,63928:0:0:0:0:
192,192,63736,1,0,0:0:0:60:drum-hitclap.wav
64,192,63928,128,2,64120:0:0:0:0:
192,192,64120,1,8,0:0:0:0:
320,192,64120,128,0,64312:0:0:0:0:
64,192,64312,128,0,64505:0:0:0:0:
192,192,64505,1,2,0:0:0:0:
448,192,64505,128,0,64889:0:0:0:0:
192,192,64697,1,2,0:0:0:0:
64,192,64889,128,8,65273:0:0:0:0:
320,192,64889,1,0,0:0:0:0:
192,192,65273,1,2,0:0:0:0:
320,192,65273,1,4,0:0:0:0:
448,192,65273,1,0,0:0:0:0:
64,192,65465,1,0,0:0:0:0:
192,192,65658,1,8,0:0:0:0:
448,192,65658,1,0,0:0:0:0:
64,192,65850,1,2,0:0:0:0:
192,192,65850,1,0,0:0:0:0:
64,192,66234,1,2,0:0:0:0:
320,192,66234,1,0,0:0:0:0:
320,192,66426,1,8,0:0:0:0:
448,192,66426,1,0,0:0:0:0:
64,192,66618,1,2,0:0:0:0:
192,192,66618,1,4,0:0:0:0:
448,192,66618,1,0,0:0:0:0:
192,192,67003,1,4,0:0:0:0:
448,192,67003,1,8,0:0:0:0:
192,192,67195,1,4,0:0:0:0:
448,192,67195,1,8,0:0:0:0:
64,192,67387,1,2,0:0:0:0:
320,192,67579,1,8,0:0:0:0:
192,192,67675,1,8,0:0:0:0:
448,192,67771,1,2,0:0:0:0:
192,192,67867,1,2,0:0:0:0:
64,192,67963,1,4,0:0:0:0:
320,192,67963,1,8,0:0:0:0:
448,192,67963,1,0,0:0:0:0:
64,192,68348,1,2,0:0:0:0:
320,192,68348,1,4,0:0:0:0:
448,192,68348,1,0,0:0:0:0:
64,192,68732,1,8,0:0:0:0:
192,192,68732,1,0,0:0:0:75:drum-hitwhistle.wav
320,192,68732,1,0,0:0:0:0:
448,192,68924,1,2,0:0:0:0:
64,192,69116,1,8,0:0:0:0:
192,192,69116,1,0,0:0:0:75:drum-hitwhistle.wav
448,192,69116,1,0,0:0:0:0:
320,192,69309,1,2,0:0:0:0:
64,192,69501,1,8,0:0:0:0:
192,192,69501,1,0,0:0:0:75:drum-hitwhistle.wav
320,192,69501,1,0,0:0:0:0:
448,192,69693,1,2,0:0:0:0:
64,192,69885,1,8,0:0:0:0:
192,192,69885,1,0,0:0:0:75:drum-hitwhistle.wav
448,192,69885,1,0,0:0:0:0:
192,192,70269,1,8,0:0:0:0:
320,192,70269,1,0,0:0:0:75:drum-hitwhistle.wav
448,192,70269,1,0,0:0:0:0:
64,192,70462,1,2,0:0:0:0:
64,192,70654,1,8,0:0:0:0:
320,192,70654,1,0,0:0:0:75:drum-hitwhistle.wav
448,192,70654,1,0,0:0:0:0:
192,192,70846,1,2,0:0:0:0:
192,192,71038,1,8,0:0:0:0:
320,192,71038,1,0,0:0:0:75:drum-hitwhistle.wav
448,192,71038,1,0,0:0:0:0:
64,192,71230,1,2,0:0:0:0:
64,192,71422,1,8,0:0:0:0:
320,192,71422,1,0,0:0:0:75:drum-hitwhistle.wav
448,192,71422,1,0,0:0:0:0:
64,192,71807,1,8,0:0:0:0:
192,192,71807,1,0,0:0:0:75:drum-hitwhistle.wav
448,192,71807,1,0,0:0:0:0:
64,192,71999,1,2,0:0:0:0:
192,192,72191,1,8,0:0:0:0:
320,192,72191,1,0,0:0:0:75:drum-hitwhistle.wav
448,192,72191,1,0,0:0:0:0:
64,192,72383,1,2,0:0:0:0:
64,192,72575,1,8,0:0:0:0:
192,192,72575,1,0,0:0:0:75:drum-hitwhistle.wav
320,192,72575,1,0,0:0:0:0:
448,192,72767,1,2,0:0:0:0:
192,192,72960,1,8,0:0:0:0:
320,192,72960,1,0,0:0:0:75:drum-hitwhistle.wav
448,192,72960,1,0,0:0:0:0:
64,192,73344,1,8,0:0:0:0:
192,192,73344,1,0,0:0:0:75:drum-hitwhistle.wav
448,192,73344,1,0,0:0:0:0:
448,192,73536,1,2,0:0:0:0:
64,192,73728,1,8,0:0:0:0:
192,192,73728,1,0,0:0:0:75:drum-hitwhistle.wav
320,192,73728,1,0,0:0:0:0:
448,192,73920,1,2,0:0:0:0:
192,192,74113,1,8,0:0:0:0:
320,192,74113,1,0,0:0:0:75:drum-hitwhistle.wav
448,192,74113,1,0,0:0:0:0:
64,192,74305,1,2,0:0:0:0:
64,192,74497,128,14,74881:0:0:0:0:
192,192,74497,1,0,0:0:0:75:drum-hitwhistle.wav
448,192,74497,1,0,0:0:0:0:
192,192,74881,1,8,0:0:0:0:
320,192,74881,1,0,0:0:0:75:drum-hitwhistle.wav
448,192,74881,1,0,0:0:0:0:
64,192,75266,1,8,0:0:0:0:
320,192,75266,1,0,0:0:0:75:drum-hitwhistle.wav
448,192,75266,1,0,0:0:0:0:
320,192,75458,1,2,0:0:0:0:
64,192,75650,1,8,0:0:0:0:
192,192,75650,1,0,0:0:0:75:drum-hitwhistle.wav
448,192,75650,1,0,0:0:0:0:
192,192,75842,1,2,0:0:0:0:
64,192,76034,1,8,0:0:0:0:
320,192,76034,1,0,0:0:0:75:drum-hitwhistle.wav
448,192,76034,1,0,0:0:0:0:
64,192,76418,1,8,0:0:0:0:
192,192,76418,1,0,0:0:0:75:drum-hitwhistle.wav
320,192,76418,1,0,0:0:0:0:
320,192,76611,1,2,0:0:0:0:
64,192,76803,1,8,0:0:0:0:
192,192,76803,1,0,0:0:0:75:drum-hitwhistle.wav
448,192,76803,1,0,0:0:0:0:
64,192,76995,1,2,0:0:0:0:
192,192,77187,1,8,0:0:0:0:
320,192,77187,1,0,0:0:0:75:drum-hitwhistle.wav
448,192,77187,1,0,0:0:0:0:
448,192,77379,1,2,0:0:0:0:
64,192,77571,128,14,77956:0:0:0:0:
320,192,77571,1,0,0:0:0:75:drum-hitwhistle.wav
192,192,77571,1,0,0:0:0:0:
192,192,77956,1,8,0:0:0:0:
320,192,77956,1,0,0:0:0:75:drum-hitwhistle.wav
448,192,77956,1,0,0:0:0:0:
64,192,78148,1,2,0:0:0:0:
64,192,78340,1,8,0:0:0:0:
320,192,78340,1,0,0:0:0:75:drum-hitwhistle.wav
448,192,78340,1,0,0:0:0:0:
448,192,78532,1,2,0:0:0:0:
64,192,78724,1,8,0:0:0:0:
192,192,78724,1,0,0:0:0:75:drum-hitwhistle.wav
320,192,78724,1,0,0:0:0:0:
192,192,78917,1,2,0:0:0:0:
64,192,79109,128,14,79493:0:0:0:0:
320,192,79109,1,0,0:0:0:75:drum-hitwhistle.wav
448,192,79109,1,0,0:0:0:0:
192,192,79493,1,8,0:0:0:0:
320,192,79493,1,0,0:0:0:75:drum-hitwhistle.wav
448,192,79493,1,0,0:0:0:0:
64,192,79685,1,2,0:0:0:0:
192,192,79877,1,8,0:0:0:0:
320,192,79877,1,0,0:0:0:75:drum-hitwhistle.wav
448,192,79877,1,0,0:0:0:0:
64,192,80070,1,2,0:0:0:0:
320,192,80070,1,0,0:0:0:50:drum-hitfinish.wav
64,192,80262,1,2,0:0:0:0:
192,192,80262,1,0,0:0:0:50:drum-hitfinish.wav
64,192,80646,1,2,0:0:0:0:
320,192,80646,1,4,0:0:0:0:
448,192,80646,128,0,82183:0:0:0:0:
64,192,82183,1,2,0:0:0:0:
192,192,82183,1,4,0:0:0:0:
320,192,82183,128,0,82952:0:0:0:0:
64,192,82568,1,0,0:0:0:75:drum-hitwhistle.wav
64,192,82952,1,0,0:0:0:50:drum-hitfinish.wav
448,192,82952,1,0,0:0:0:0:
192,192,83144,1,2,0:0:0:0:
320,192,83240,1,8,0:0:0:0:
64,192,83336,1,8,0:0:0:0:
448,192,83336,1,0,0:0:0:0:
320,192,83528,1,8,0:0:0:0:
192,192,83624,1,8,0:0:0:0:
64,192,83721,1,2,0:0:0:0:
320,192,83721,1,4,0:0:0:0:
448,192,83721,1,0,0:0:0:0:
192,192,83913,1,0,0:0:0:0:
64,192,84105,1,8,0:0:0:0:
448,192,84105,1,0,0:0:0:0:
192,192,84297,1,2,0:0:0:0:
320,192,84297,1,0,0:0:0:0:
64,192,84489,1,0,0:0:0:60:drum-hitclap.wav
192,192,84681,1,2,0:0:0:0:
320,192,84681,1,0,0:0:0:0:
64,192,84874,1,8,0:0:0:0:
448,192,84874,1,0,0:0:0:0:
192,192,85066,1,2,0:0:0:0:
320,192,85066,1,0,0:0:0:0:
448,192,85258,1,0,0:0:0:60:drum-hitclap.wav
64,192,85450,1,2,0:0:0:0:
192,192,85450,1,0,0:0:0:0:
320,192,85642,1,8,0:0:0:0:
448,192,85642,1,0,0:0:0:0:
192,192,85834,1,0,0:0:0:0:
64,192,86026,1,2,0:0:0:0:
448,192,86026,1,4,0:0:0:0:
448,192,86219,1,2,0:0:0:0:
320,192,86315,1,2,0:0:0:0:
64,192,86411,1,8,0:0:0:0:
320,192,86507,1,8,0:0:0:0:
192,192,86603,1,8,0:0:0:0:
64,192,86699,1,8,0:0:0:0:
320,192,86795,1,2,0:0:0:0:
448,192,86795,128,4,86987:0:0:0:0:
192,192,86987,128,2,87179:0:0:0:0:
64,192,87179,1,8,0:0:0:0:
320,192,87179,128,0,87372:0:0:0:0:
448,192,87372,128,8,87948:0:0:0:0:
320,192,87468,1,8,0:0:0:0:
192,192,87564,1,8,0:0:0:0:
64,192,87756,1,0,0:0:0:50:drum-hitfinish.wav
192,192,87948,1,0,0:0:0:50:drum-hitfinish.wav
320,192,87948,1,0,0:0:0:0:
64,192,88140,128,2,89870:0:0:0:0:
448,192,88140,128,4,89870:0:0:0:0:
