osu file format v14

[General]
AudioFilename: audio.mp3
AudioLeadIn: 0
PreviewTime: 53912
Countdown: 1
SampleSet: Soft
StackLeniency: 0.5
Mode: 0
LetterboxInBreaks: 0
WidescreenStoryboard: 1

[Editor]
DistanceSpacing: 1
BeatDivisor: 4
GridSize: 4
TimelineZoom: 1

[Metadata]
Title:Hologram
TitleUnicode:ホログラム
Artist:NICO Touches the Walls
ArtistUnicode:NICO Touches the Walls
Creator:Hobbes2
Version:SeaRasp's Insane
Source:鋼の錬金術師 FULLMETAL ALCHEMIST
Tags:Neoskylove SeaRasp Aurora Tatsuya Mitsumura alternative rock power pop
BeatmapID:1184341
BeatmapSetID:559651

[Difficulty]
HPDrainRate:6
CircleSize:4
OverallDifficulty:7.5
ApproachRate:8.5
SliderMultiplier:1.7
SliderTickRate:1

[Events]
//Background and Video events
0,0,"Edgetastic.jpg",0,0
//Break Periods
//Storyboard Layer 0 (Background)
//Storyboard Layer 1 (Fail)
//Storyboard Layer 2 (Pass)
//Storyboard Layer 3 (Foreground)
//Storyboard Sound Samples

[TimingPoints]
1050,368.640943720816,4,2,1,45,1,0
1050,-133.333333333333,4,2,1,45,0,0
5258,-166.666666666667,4,2,1,50,0,0
6548,-100,4,2,1,80,0,0
6810,-100,4,2,1,5,0,0
6917,368.640943720816,4,2,1,50,1,0
6917,-200,4,2,1,50,0,0
9866,-100,4,2,1,60,0,0
12815,-100,4,2,1,70,0,0
18713,-111.111111111111,4,2,1,65,0,0
29772,-83.3333333333333,4,2,1,80,0,0
29957,-83.3333333333333,4,2,1,5,0,0
30141,-83.3333333333333,4,2,1,80,0,0
30325,-83.3333333333333,4,2,1,5,0,0
30510,-111.111111111111,4,2,1,65,0,0
42306,-133.333333333333,4,2,1,65,0,0
51154,-100,4,2,1,70,0,0
53734,-71.4285714285714,4,2,1,30,0,0
54103,-90.9090909090909,4,2,1,75,0,0
65531,-76.9230769230769,4,2,1,60,0,0
65899,-83.3333333333333,4,2,1,80,0,1
77696,-166.666666666667,4,2,1,55,0,0
80276,-100,4,2,1,70,0,0
80645,-100,4,2,1,70,0,0
85898,-100,4,2,1,5,0,0

[Colours]
Combo1 : 106,113,168
Combo2 : 255,43,43
Combo3 : 60,60,255
Combo4 : 179,179,0

[HitObjects]
88,108,1050,5,2,0:0:0:0:
116,308,1419,1,2,0:0:0:0:
52,232,1603,2,0,P|100:212|156:216,1,95.6250036478044,2|0,0:0|0:0,0:0:0:0:
172,220,1972,2,0,L|180:152,1,63.7500024318696,2|0,0:0|0:0,0:0:0:0:
280,72,2341,2,0,L|292:196,1,95.6250036478044,2|0,0:0|0:0,0:0:0:0:
296,200,2709,2,0,P|360:180|432:208,2,127.500004863739,2|2|2,0:0|0:0|0:0,0:0:0:0:
368,336,3815,6,0,L|500:324,1,127.500004863739,2|2,0:0|0:0,0:0:0:0:
144,336,4553,2,0,L|12:324,1,127.500004863739,2|2,0:0|0:0,0:0:0:0:
256,352,5290,6,0,B|288:284|256:224|256:224|224:168|251:106,1,254.999992218018,2|0,0:0|0:0,0:0:0:0:
320,24,6395,1,0,0:0:0:0:
217,8,6580,6,0,B|272:7|272:7|320:24,1,106.25,12|0,0:0|0:0,0:0:0:0:
251,107,6917,6,0,B|160:120|160:120|128:112|128:112|32:124,1,212.5,6|0,0:0|0:0,0:0:0:0:
41,123,8207,1,2,0:0:0:0:
0,28,8391,6,0,L|12:256,1,212.5,6|0,0:0|0:0,0:0:0:0:
20,368,9497,1,8,0:0:0:0:
20,368,9866,6,0,P|68:356|120:364,1,85,12|0,0:0|0:0,0:0:0:0:
212,376,10235,1,0,0:0:0:0:
160,276,10419,2,0,P|148:228|156:176,1,85,12|0,0:0|0:0,0:0:0:0:
236,104,10787,1,0,0:0:0:0:
340,224,10972,2,0,L|232:224,1,85,12|0,0:0|0:0,0:0:0:0:
224,88,11340,5,0,0:0:0:0:
320,36,11525,2,0,P|332:76|330:119,1,85,12|0,0:0|0:0,0:0:0:0:
212,72,11893,1,0,0:0:0:0:
312,16,12078,1,0,3:0:0:0:
340,2,12170,1,0,3:0:0:0:
371,0,12262,1,0,3:0:0:0:
403,0,12354,1,0,3:0:0:0:
440,20,12446,5,8,0:0:0:0:
439,62,12538,1,0,0:0:0:0:
438,104,12630,1,8,0:0:0:0:
437,147,12722,1,8,0:0:0:0:
436,189,12815,6,0,L|432:300,1,85,14|0,0:0|0:0,0:0:0:0:
276,231,13184,2,0,L|280:316,1,85,10|0,0:0|0:0,0:0:0:0:
368,384,13552,1,0,0:0:0:0:
432,273,13736,1,2,0:0:0:0:
280,316,13921,2,0,P|224:316|184:336,1,85,10|0,0:0|0:0,0:0:0:0:
48,240,14290,6,0,P|88:253|130:250,1,85,2|0,0:0|0:0,0:0:0:0:
92,64,14658,2,0,L|100:168,1,85,10|0,0:0|0:0,0:0:0:0:
288,128,15027,1,0,0:0:0:0:
204,64,15211,1,2,0:0:0:0:
232,228,15395,2,0,L|348:236,1,85,10|0,0:0|0:0,0:0:0:0:
388,76,15764,5,6,0:0:0:0:
288,128,15948,1,0,0:0:0:0:
460,168,16133,1,10,0:0:0:0:
316,233,16317,2,0,P|284:308|320:388,1,170,6|0,0:0|0:0,0:0:0:0:
444,384,16870,1,8,0:0:0:0:
380,308,17054,6,0,L|172:312,1,170,6|0,0:0|0:0,0:0:0:0:
77,361,17607,1,0,0:0:0:0:
73,272,17792,1,8,0:0:0:0:
210,311,17976,1,8,0:0:0:0:
155,241,18160,1,8,0:0:0:0:
160,384,18345,1,8,0:0:0:0:
160,384,18437,1,8,0:0:0:0:
160,384,18529,1,10,0:0:0:0:
156,224,18713,6,0,L|148:56,1,152.999995330811,6|8,0:0|0:0,0:0:0:0:
264,28,19266,1,0,0:0:0:0:
264,28,19451,2,0,P|264:68|260:108,1,76.4999976654053,2|0,0:0|0:0,0:0:0:0:
156,224,19819,1,10,0:0:0:0:
284,252,20004,6,0,P|352:208|444:232,1,152.999995330811,2|0,0:0|0:0,0:0:0:0:
464,128,20556,1,10,0:0:0:0:
464,128,20741,2,0,L|458:312,1,152.999995330811,2|0,0:0|0:0,0:0:0:0:
384,368,21294,1,10,0:0:0:0:
284,252,21478,6,0,P|276:208|276:176,1,76.4999976654053,2|0,0:0|0:0,0:0:0:0:
300,80,21846,1,0,0:0:0:0:
368,140,22031,1,8,0:0:0:0:
192,176,22215,2,0,B|144:180|100:168|100:168|64:184|8:180,1,152.999995330811,2|2,0:0|0:0,0:0:0:0:
160,84,22768,2,0,B|164:40|164:40|160:-12,1,76.4999976654053,10|0,0:0|0:0,0:0:0:0:
44,96,23137,6,0,L|60:272,1,152.999995330811,2|8,0:0|0:0,0:0:0:0:
72,372,23690,1,2,0:0:0:0:
172,296,23874,2,0,P|212:292|248:298,1,76.4999976654053,2|0,0:0|0:0,0:0:0:0:
340,348,24243,1,10,0:0:0:0:
344,220,24427,1,2,0:0:0:0:
336,360,24612,5,2,0:0:0:0:
436,260,24796,2,0,P|443:210|432:160,1,76.4999976654053,2|8,0:0|0:0,0:0:0:0:
352,104,25164,1,2,0:0:0:0:
256,160,25349,2,0,L|148:156,1,76.4999976654053,2|0,0:0|0:0,0:0:0:0:
28,152,25717,1,8,0:0:0:0:
112,80,25902,1,0,0:0:0:0:
112,80,25994,1,0,0:0:0:0:
112,80,26086,6,0,P|120:32|116:-8,1,76.4999976654053,0|2,0:0|0:0,0:0:0:0:
28,152,26455,1,10,0:0:0:0:
28,152,26639,2,0,P|26:190|34:227,1,76.4999976654053,2|0,0:0|0:0,0:0:0:0:
184,264,27008,1,0,0:0:0:0:
136,176,27192,1,10,0:0:0:0:
108,316,27376,6,0,L|280:312,1,152.999995330811,2|0,0:0|0:0,0:0:0:0:
360,244,27929,1,10,0:0:0:0:
284,168,28114,2,0,P|272:124|268:64,1,76.4999976654053,2|0,0:0|0:0,0:0:0:0:
408,28,28482,2,0,P|402:65|392:102,1,76.4999976654053,2|8,0:0|0:0,0:0:0:0:
360,244,28851,6,0,P|444:208|512:240,1,152.999995330811,2|0,0:0|0:0,0:0:0:0:
484,384,29404,1,8,0:0:0:0:
438,305,29588,1,0,0:0:0:0:
308,372,29772,6,0,L|192:364,1,101.999996887207,8|0,0:0|0:0,0:0:0:0:
4,232,30141,6,0,L|105:224,1,101.999996887207,8|0,0:0|0:0,0:0:0:0:
256,52,30510,6,0,P|200:36|108:108,1,152.999995330811,6|8,0:0|0:0,0:0:0:0:
204,144,31063,1,0,0:0:0:0:
348,100,31247,2,0,P|356:48|348:4,2,76.4999976654053,2|0|10,0:0|0:0|0:0,0:0:0:0:
300,200,31800,6,0,L|452:196,1,152.999995330811,2|0,0:0|0:0,0:0:0:0:
512,344,32353,1,10,0:0:0:0:
512,344,32537,2,0,P|440:332|372:392,1,152.999995330811,2|0,0:0|0:0,0:0:0:0:
212,368,33090,1,10,0:0:0:0:
296,276,33275,6,0,P|300:232|298:199,1,76.4999976654053,2|0,0:0|0:0,0:0:0:0:
202,118,33643,1,0,0:0:0:0:
124,164,33827,1,8,0:0:0:0:
68,93,34012,2,0,P|140:76|202:118,1,152.999995330811,2|2,0:0|0:0,0:0:0:0:
298,200,34565,1,8,0:0:0:0:
372,148,34749,1,0,0:0:0:0:
451,192,34933,6,0,L|299:200,1,152.999995330811,2|8,0:0|0:0,0:0:0:0:
204,119,35486,1,2,0:0:0:0:
204,119,35671,2,0,P|200:81|201:43,1,76.4999976654053,2|0,0:0|0:0,0:0:0:0:
70,16,36039,2,0,P|72:55|68:93,1,76.4999976654053,10|2,0:0|0:0,0:0:0:0:
0,220,36408,6,0,P|48:196|148:228,1,152.999995330811,0|8,0:0|0:0,0:0:0:0:
72,364,36961,2,0,L|68:276,1,76.4999976654053,2|0,0:0|0:0,0:0:0:0:
188,384,37330,2,0,L|192:296,1,76.4999976654053,2|8,0:0|0:0,0:0:0:0:
316,352,37698,6,0,B|360:356|412:336|412:336|436:348|492:348,1,152.999995330811,2|0,0:0|0:0,0:0:0:0:
344,180,38251,1,10,0:0:0:0:
344,180,38436,2,0,B|340:220|340:220|348:284,1,76.4999976654053,2|0,0:0|0:0,0:0:0:0:
472,256,38804,2,0,B|476:219|476:219|472:179,1,76.4999976654053,0|10,0:0|0:0,0:0:0:0:
400,80,39173,6,0,P|352:64|244:124,1,152.999995330811,2|0,0:0|0:0,0:0:0:0:
124,108,39726,1,8,0:0:0:0:
227,176,39910,2,0,L|224:24,1,152.999995330811
124,108,40463,1,0,0:0:0:0:
27,23,40647,6,0,L|24:176,1,152.999995330811,6|0,0:0|0:0,0:0:0:0:
116,224,41200,1,8,0:0:0:0:
116,224,41569,5,2,0:0:0:0:
24,175,41753,1,8,0:0:0:0:
208,152,41937,2,0,L|196:220,1,38.2499988327027,8|0,0:0|0:0,0:0:0:0:
184,304,42122,1,8,3:0:0:0:
184,304,42214,1,8,0:0:0:0:
184,304,42306,6,0,L|320:304,1,127.500004863739,8|0,0:0|0:0,0:0:0:0:
460,304,42859,1,0,0:0:0:0:
384,232,43043,2,0,P|380:188|384:156,1,63.7500024318696,8|0,0:0|0:0,0:0:0:0:
485,151,43412,2,0,P|489:119|488:88,1,63.7500024318696
444,0,43781,5,0,3:0:0:0:
364,64,43965,2,0,L|216:64,1,127.500004863739,8|0,0:0|0:0,0:0:0:0:
136,12,44518,1,8,0:0:0:0:
136,12,44702,1,0,0:0:0:0:
184,156,44887,1,8,0:0:0:0:
236,64,45071,1,8,0:0:0:0:
92,104,45255,6,0,L|16:100,1,63.7500024318696
96,224,45624,2,0,L|32:227,1,63.7500024318696
184,156,45993,1,8,0:0:0:0:
184,156,46361,1,0,3:0:0:0:
291,266,46545,1,0,3:0:0:0:
291,266,46730,6,0,L|383:262,1,63.7500024318696,0|8,3:0|0:0,0:0:0:0:
456,224,47099,2,0,P|460:256|460:288,1,63.7500024318696
392,368,47467,1,8,0:0:0:0:
392,368,47559,1,8,0:0:0:0:
392,368,47652,1,8,0:0:0:0:
355,264,47836,1,8,0:0:0:0:
460,288,48020,1,0,3:0:0:0:
288,356,48205,6,0,L|136:356,1,127.500004863739,8|0,0:0|0:0,0:0:0:0:
40,320,48758,1,0,0:0:0:0:
40,320,48942,2,0,P|40:356|44:392,1,63.7500024318696,8|0,0:0|0:0,0:0:0:0:
125,271,49310,2,0,P|128:239|128:208,1,63.7500024318696
56,136,49679,5,0,3:0:0:0:
128,207,49863,2,0,L|261:200,1,127.500004863739,8|0,0:0|0:0,0:0:0:0:
460,132,50416,2,0,L|327:125,1,127.500004863739,8|0,0:0|0:0,0:0:0:0:
244,56,50969,1,0,0:0:0:0:
256,200,51154,6,0,P|264:256|253:308,1,85,12|0,0:0|0:0,0:0:0:0:
176,384,51522,1,0,0:0:0:0:
80,252,51707,2,0,L|176:248,1,85,12|0,0:0|0:0,0:0:0:0:
285,176,52075,6,0,L|327:181,1,42.5,8|0,0:0|0:0,0:0:0:0:
342,73,52260,2,8,L|383:66,1,42.5,8|0,0:0|0:0,0:0:0:0:
498,44,52444,1,0,0:0:0:0:
498,44,52813,5,0,3:0:0:0:
476,264,52997,1,2,3:0:0:0:
498,44,53181,1,0,3:0:0:0:
476,264,53366,1,2,3:0:0:0:
476,264,53734,6,0,P|444:320|473:303,1,178.499994552612
504,240,54103,6,0,L|508:60,1,140.25000428009,2|0,0:0|0:0,0:0:0:0:
508,15,54471,1,10,0:0:0:0:
384,56,54656,2,0,P|328:52|272:16,1,93.5000028533936,2|0,0:0|0:0,0:0:0:0:
132,136,55024,2,0,P|174:117|221:116,1,93.5000028533936,2|8,0:0|0:0,0:0:0:0:
32,96,55393,6,0,L|40:204,1,93.5000028533936,2|0,0:0|0:0,0:0:0:0:
196,212,55762,2,0,L|188:320,1,93.5000028533936,2|8,0:0|0:0,0:0:0:0:
72,312,56130,2,0,P|160:308|216:400,1,187.000005706787,2|2,0:0|0:0,0:0:0:0:
408,284,56683,1,8,0:0:0:0:
368,384,56868,6,0,L|356:168,1,187.000005706787,2|2,0:0|0:0,0:0:0:0:
488,0,57421,1,8,0:0:0:0:
480,108,57605,2,0,L|472:220,1,93.5000028533936,2|0,0:0|0:0,0:0:0:0:
296,128,57974,2,0,P|340:110|403:124,1,93.5000028533936,2|8,0:0|0:0,0:0:0:0:
192,36,58342,1,2,0:0:0:0:
192,36,58526,6,0,L|204:240,1,187.000005706787,2|8,0:0|0:0,0:0:0:0:
0,203,59079,2,0,P|81:169|155:197,1,140.25000428009
202,222,59448,1,2,0:0:0:0:
80,364,59632,2,0,L|80:270,1,93.5000028533936,10|0,0:0|0:0,0:0:0:0:
192,336,60001,6,0,B|252:336|300:300|300:300|332:324|396:328,1,187.000005706787,6|8,0:0|0:0,0:0:0:0:
360,140,60554,2,0,P|356:184|368:252,1,93.5000028533936,2|0,0:0|0:0,0:0:0:0:
472,372,60923,2,0,P|478:325|474:279,1,93.5000028533936,2|8,0:0|0:0,0:0:0:0:
360,140,61291,6,0,B|292:92|220:116|220:116|260:164,1,187.000005706787,2|2,0:0|0:0,0:0:0:0:
380,24,61844,1,10,0:0:0:0:
304,224,62029,1,2,0:0:0:0:
156,40,62213,2,0,P|123:104|125:147,1,93.5000028533936
65,288,62582,2,0,P|57:242|32:204,1,93.5000028533936,8|0,0:0|0:0,0:0:0:0:
24,384,62950,5,6,0:0:0:0:
192,268,63134,1,0,0:0:0:0:
65,288,63319,1,10,0:0:0:0:
248,360,63503,2,0,B|296:352|296:352|360:360,1,93.5000028533936,2|0,0:0|0:0,0:0:0:0:
472,272,63872,1,0,0:0:0:0:
448,380,64056,1,10,0:0:0:0:
356,69,64240,6,0,L|364:256,1,187.000005706787,6|0,0:0|0:0,0:0:0:0:
472,272,64793,1,10,0:0:0:0:
340,357,64977,1,0,3:0:0:0:
472,272,65162,5,8,0:0:0:0:
470,225,65254,1,8,0:0:0:0:
468,178,65346,1,8,0:0:0:0:
466,131,65439,1,8,0:0:0:0:
464,85,65531,6,0,P|384:48|320:96,1,165.749992412568,12|0,3:0|0:0,0:0:0:0:
224,40,65899,6,0,L|236:208,1,152.999995330811,12|0,0:0|0:0,0:0:0:0:
247,296,66268,1,10,0:0:0:0:
60,264,66452,2,0,P|116:244|192:260,1,101.999996887207,2|8,0:0|0:0,0:0:0:0:
344,313,66821,2,0,P|293:314|246:295,1,101.999996887207,2|8,0:0|0:0,0:0:0:0:
104,152,67190,1,2,0:0:0:0:
128,352,67374,5,8,0:0:0:0:
312,220,67558,2,0,L|420:232,1,101.999996887207,2|8,0:0|0:0,0:0:0:0:
408,76,67927,2,0,L|300:88,1,101.999996887207,2|8,0:0|0:0,0:0:0:0:
104,152,68295,1,2,0:0:0:0:
164,36,68480,1,8,0:0:0:0:
108,188,68664,1,2,0:0:0:0:
52,12,68848,5,8,0:0:0:0:
112,224,69033,2,0,L|112:336,1,101.999996887207,2|8,0:0|0:0,0:0:0:0:
312,220,69401,2,0,L|312:332,1,101.999996887207,2|8,0:0|0:0,0:0:0:0:
212,148,69770,1,2,0:0:0:0:
384,120,69954,1,8,0:0:0:0:
284,44,70139,1,2,0:0:0:0:
312,220,70323,6,0,P|368:240|424:236,1,101.999996887207,10|0,0:0|0:0,0:0:0:0:
212,148,70692,2,0,P|191:204|195:260,1,101.999996887207,8|0,0:0|0:0,0:0:0:0:
284,44,71060,2,0,P|227:23|171:27,1,101.999996887207,8|2,0:0|0:0,0:0:0:0:
384,120,71429,1,10,0:0:0:0:
384,120,71613,1,0,0:0:0:0:
490,18,71798,5,10,0:0:0:0:
490,126,71982,2,0,L|490:228,1,101.999996887207,2|8,0:0|0:0,0:0:0:0:
412,328,72351,2,0,P|328:332|288:356,1,101.999996887207,2|8,0:0|0:0,0:0:0:0:
160,240,72719,2,0,P|208:254|258:250,1,101.999996887207,2|8,0:0|0:0,0:0:0:0:
116,144,73088,1,2,0:0:0:0:
68,280,73272,5,8,0:0:0:0:
228,152,73456,1,2,0:0:0:0:
109,42,73641,2,0,L|117:162,1,101.999996887207,10|0,0:0|0:0,0:0:0:0:
328,244,74009,2,0,L|332:72,1,152.999995330811,10|0,0:0|0:0,0:0:0:0:
340,4,74378,2,0,P|396:8|460:-8,1,101.999996887207,10|2,0:0|0:0,0:0:0:0:
458,150,74746,6,8,P|374:146|329:250,2,203.999993774414,8|8|8,0:0|0:0|0:0,0:0:0:0:
376,328,75668,1,0,0:0:0:0:
376,328,75853,2,0,L|244:324,1,101.999996887207,8|0,0:0|0:0,0:0:0:0:
76,272,76221,6,0,P|72:320|88:404,1,101.999996887207,10|0,0:0|0:0,0:0:0:0:
184,160,76590,2,0,P|188:208|172:292,1,101.999996887207,10|0,0:0|0:0,0:0:0:0:
72,92,76959,1,8,0:0:0:0:
72,92,77051,1,10,0:0:0:0:
72,92,77143,1,8,0:0:0:0:
236,40,77327,1,2,0:0:0:0:
236,40,77696,6,0,B|284:80|352:72|400:64|440:20|440:20|400:64|392:116|412:152,1,356.999989105225,6|0,0:0|0:0,0:0:0:0:
414,270,79170,6,0,P|405:180|496:184,1,203.999993774414,6|0,0:0|0:0,0:0:0:0:
512,356,80092,1,8,0:0:0:0:
512,356,80184,1,8,0:0:0:0:
512,356,80276,2,0,L|444:348,1,42.5,8|8,0:0|0:0,0:0:0:0:
414,270,80461,2,0,L|371:274,1,42.5,8|8,0:0|0:0,0:0:0:0:
288,352,80645,6,0,L|168:344,1,85,6|0,0:0|0:0,0:0:0:0:
44,296,81014,2,0,L|164:288,1,85,10|0,0:0|0:0,0:0:0:0:
168,128,81382,1,0,0:0:0:0:
100,200,81567,1,2,0:0:0:0:
260,176,81751,2,0,P|268:112|252:60,1,85,10|0,0:0|0:0,0:0:0:0:
68,28,82120,6,0,P|63:70|72:111,1,85,2|0,0:0|0:0,0:0:0:0:
260,176,82488,2,0,L|396:168,1,127.5,10|0,0:0|0:0,0:0:0:0:
440,164,82857,1,2,0:0:0:0:
344,72,83041,1,8,0:0:0:0:
340,60,83133,1,8,0:0:0:0:
336,48,83225,1,8,0:0:0:0:
368,20,83318,1,0,3:0:0:0:
408,12,83410,1,0,3:0:0:0:
448,24,83502,1,0,3:0:0:0:
476,56,83594,5,2,0:0:0:0:
488,276,83778,1,2,0:0:0:0:
260,176,83962,2,0,L|309:172,1,42.5,8|0,0:0|0:0,0:0:0:0:
396,168,84147,1,0,0:0:0:0:
396,168,84239,1,0,0:0:0:0:
396,168,84331,5,8,0:0:0:0:
148,184,84515,1,4,3:0:0:0:
140,176,84884,5,4,0:0:0:0:
256,192,84976,12,0,85898,0:0:0:0:
