osu file format v14

[General]
AudioFilename: audio.mp3
AudioLeadIn: 0
PreviewTime: 53912
Countdown: 1
SampleSet: Soft
StackLeniency: 0.5
Mode: 0
LetterboxInBreaks: 0
WidescreenStoryboard: 1

[Editor]
DistanceSpacing: 1
BeatDivisor: 4
GridSize: 4
TimelineZoom: 1

[Metadata]
Title:Hologram
TitleUnicode:ホログラム
Artist:NICO Touches the Walls
ArtistUnicode:NICO Touches the Walls
Creator:Hobbes2
Version:Normal
Source:鋼の錬金術師 FULLMETAL ALCHEMIST
Tags:Neoskylove SeaRasp Aurora Tatsuya Mitsumura alternative rock power pop
BeatmapID:1249413
BeatmapSetID:559651

[Difficulty]
HPDrainRate:4
CircleSize:3.6
OverallDifficulty:3.5
ApproachRate:5
SliderMultiplier:1.1
SliderTickRate:1

[Events]
//Background and Video events
0,0,"Edgetastic.jpg",0,0
//Break Periods
//Storyboard Layer 0 (Background)
//Storyboard Layer 1 (Fail)
//Storyboard Layer 2 (Pass)
//Storyboard Layer 3 (Foreground)
//Storyboard Sound Samples

[TimingPoints]
1050,368.640943720816,4,2,0,65,1,0
6917,368.640943720816,4,2,0,65,1,0
18713,-100,4,2,0,45,0,0
29772,-100,4,2,0,65,0,0
30510,-100,4,2,0,55,0,0
51154,-100,4,2,0,65,0,0
54103,-100,4,2,0,70,0,0
65899,-100,4,2,0,75,0,1
77696,-100,4,2,0,65,0,0
86175,-100,4,2,0,5,0,0

[Colours]
Combo1 : 255,128,128
Combo2 : 255,60,60
Combo3 : 196,196,0
Combo4 : 128,64,64

[HitObjects]
19,192,1050,6,0,B|32:117|32:117|113:55,1,165
208,32,1971,1,0,0:0:0:0:
280,112,2340,2,0,L|276:232,1,110,0|0,0:0|0:0,0:0:0:0:
380,188,3077,2,0,L|376:78,1,110,0|0,0:0|0:0,0:0:0:0:
292,8,3814,6,0,P|224:4|180:16,1,110,0|0,0:0|0:0,0:0:0:0:
172,119,4552,2,0,P|240:123|284:111,1,110,0|0,0:0|0:0,0:0:0:0:
378,61,5289,2,0,B|408:208|325:132|365:288,1,220,0|0,0:0|0:0,0:0:0:0:
279,346,6395,2,0,L|212:348,1,55,0|8,0:0|0:0,0:0:0:0:
156,260,6917,5,4,0:0:0:0:
156,260,8391,5,4,0:0:0:0:
348,63,9313,6,0,L|343:143,1,55,0|8,0:0|0:0,0:0:0:0:
376,223,9866,6,0,B|326:221|326:221|246:239,1,110,12|0,0:0|0:0,0:0:0:0:
215,253,10419,2,0,P|203:175|166:136,1,110,4|0,0:0|0:0,0:0:0:0:
132,135,10972,2,0,P|144:57|181:18,1,110,12|0,0:0|0:0,0:0:0:0:
216,38,11525,2,0,L|338:37,1,110,12|0,0:0|0:0,0:0:0:0:
381,38,12078,1,8,0:3:0:0:
448,125,12446,1,8,0:3:0:0:
381,212,12815,6,0,L|266:214,1,110,6|8,0:0|0:0,0:0:0:0:
196,295,13552,1,0,0:0:0:0:
127,209,13921,2,0,P|112:145|128:93,1,110,10|0,0:0|0:0,0:0:0:0:
196,21,14658,1,8,0:0:0:0:
270,104,15027,2,0,L|272:219,1,110,2|8,0:0|0:0,0:0:0:0:
345,295,15764,6,0,P|390:248|462:224,1,110,4|8,0:0|0:0,0:0:0:0:
482,248,16317,2,0,B|486:182|486:182|470:148|470:148|472:78,1,165,4|8,0:0|0:0,0:0:0:0:
474,31,17054,1,4,0:0:0:0:
365,51,17423,6,0,L|319:22,2,55,8|8|8,0:3|0:0|0:0,0:0:0:0:
368,106,17976,1,8,0:0:0:0:
295,189,18345,1,8,0:3:0:0:
192,156,18713,6,0,P|116:152|64:164,1,110,4|8,0:0|0:0,0:0:0:0:
28,164,19266,2,0,B|20:224|20:224|64:320,1,165,0|8,0:0|0:0,0:0:0:0:
92,364,20004,1,0,0:0:0:0:
196,324,20372,2,0,P|256:316|276:316,1,55,0|8,0:0|0:0,0:0:0:0:
304,324,20741,1,0,0:0:0:0:
412,300,21109,2,0,P|432:356|432:364,2,55,0|8|2,0:0|0:0|0:0,0:0:0:0:
338,219,21847,6,0,B|309:215|309:215|279:192,2,55,0|8|2,0:0|0:0|0:0,0:0:0:0:
445,195,22584,2,0,L|449:127,1,55,0|8,0:0|0:0,0:0:0:0:
425,90,22953,2,0,B|352:58|352:58|249:43,1,165,2|8,0:0|0:0,0:0:0:0:
159,69,23874,2,0,P|147:137|147:149,1,55,0|0,0:0|0:0,0:0:0:0:
187,161,24243,2,0,P|199:229|199:241,1,55,8|0,0:0|0:0,0:0:0:0:
204,272,24612,6,0,P|128:288|104:312,1,110,2|8,0:0|0:0,0:0:0:0:
68,348,25164,2,0,B|64:284|64:284|48:248|48:248|46:165,1,165,2|8,0:0|0:0,0:0:0:0:
48,131,25902,1,2,0:0:0:0:
136,65,26270,2,0,L|197:55,1,55,0|8,0:0|0:0,0:0:0:0:
241,36,26639,2,0,P|235:93|238:146,1,110,0|0,0:0|0:0,0:0:0:0:
266,192,27192,1,8,0:0:0:0:
266,192,27376,6,0,L|384:188,1,110,2|0,0:0|0:0,0:0:0:0:
372,298,28114,2,0,L|262:294,1,110,0|0,0:0|0:0,0:0:0:0:
214,323,28667,1,8,0:0:0:0:
214,323,28851,2,0,P|139:318|89:342,1,110,2|0,0:0|0:0,0:0:0:0:
62,362,29404,1,8,0:0:0:0:
17,261,29772,5,12,0:0:0:0:
34,156,30141,1,12,0:0:0:0:
108,77,30510,6,0,L|223:67,1,110,4|8,0:0|0:0,0:0:0:0:
268,44,31063,2,0,B|234:152|310:101|266:216,1,165,2|8,0:0|0:0,0:0:0:0:
250,253,31800,1,0,0:0:0:0:
339,317,32169,2,0,P|401:316|410:314,1,55,0|8,0:0|0:0,0:0:0:0:
448,313,32537,1,0,0:0:0:0:
483,208,32906,2,0,L|498:143,2,55,0|8|2,0:0|0:0|0:0,0:0:0:0:
448,313,33643,6,0,L|460:366,2,55,2|8|2,0:0|0:0|0:0,0:0:0:0:
343,278,34381,1,0,0:0:0:0:
343,278,34565,2,0,L|278:263,1,55,8|0,0:0|0:0,0:0:0:0:
253,223,34933,2,0,L|215:340,1,110,0|8,0:0|0:0,0:0:0:0:
126,268,35671,2,0,L|92:163,1,110,0|8,0:0|0:0,0:0:0:0:
153,72,36408,6,0,P|231:53|293:61,1,110,2|8,0:0|0:0,0:0:0:0:
314,46,36961,2,0,B|302:86|302:86|310:153,1,110
419,163,37698,1,0,0:0:0:0:
449,268,38067,2,0,P|452:308|450:330,1,55,0|8,0:0|0:0,0:0:0:0:
421,369,38435,1,0,0:0:0:0:
315,338,38804,2,0,P|287:335|260:332,1,55,0|8,0:0|0:0,0:0:0:0:
207,348,39173,6,0,L|213:219,1,110,2|0,0:0|0:0,0:0:0:0:
181,192,39726,1,8,0:0:0:0:
181,192,39910,2,0,P|188:128|176:75,1,110,2|0,0:0|0:0,0:0:0:0:
134,50,40463,1,8,0:0:0:0:
185,27,40647,2,0,L|306:21,1,110,6|0,0:0|0:0,0:0:0:0:
350,19,41200,1,10,0:0:0:0:
406,113,41569,2,0,L|407:179,1,55
406,223,41937,1,8,0:0:0:0:
350,317,42306,6,0,L|225:317,1,110,6|2,0:0|0:0,0:0:0:0:
184,223,43043,2,0,P|181:146|181:146,1,55,8|0,0:0|0:0,0:0:0:0:
184,113,43412,1,0,0:0:0:0:
240,19,43781,2,0,L|365:19,1,110,2|2,0:0|0:0,0:0:0:0:
416,106,44518,2,0,P|411:163|404:182,1,55,8|0,0:0|0:0,0:0:0:0:
399,214,44887,2,0,L|343:253,1,55,0|8,0:0|0:0,0:0:0:0:
301,258,45255,6,0,P|219:259|177:245,1,110,6|2,0:0|0:0,0:0:0:0:
206,142,45993,2,0,P|288:141|330:155,1,110,10|2,0:0|0:0,0:0:0:0:
406,223,46730,1,0,0:0:0:0:
406,223,46914,2,0,B|440:189|440:189|444:102,1,110,8|0,0:0|0:0,0:0:0:0:
431,73,47467,2,0,L|355:50,1,55,8|8,0:0|0:3,0:0:0:0:
323,56,47836,2,0,L|247:33,1,55,0|8,0:0|0:0,0:0:0:0:
216,29,48205,5,4,0:0:0:0:
131,99,48573,1,0,0:0:0:0:
82,197,48942,2,0,P|77:258|81:277,1,55,8|0,0:0|0:0,0:0:0:0:
107,296,49310,2,0,L|170:297,1,55,0|0,0:0|0:0,0:0:0:0:
216,306,49679,2,0,L|242:189,2,110,8|0|8,0:0|0:0|0:0,0:0:0:0:
436,312,51154,6,0,B|426:260|426:260|435:179,1,110,12|0,0:0|0:0,0:0:0:0:
454,152,51707,2,0,B|460:95|460:95|450:43,1,110,12|0,0:0|0:0,0:0:0:0:
404,13,52260,1,12,0:0:0:0:
404,13,52444,2,0,L|288:10,1,110,8|8,0:3|0:3,0:0:0:0:
239,20,52997,2,0,P|228:73|229:97,1,55,10|8,0:3|0:3,0:0:0:0:
235,127,53366,1,10,0:3:0:0:
35,33,54103,6,0,B|21:74|21:74|42:111|25:146,1,110,6|8,0:0|0:0,0:0:0:0:
11,190,54656,2,0,P|50:223|93:289,1,110,2|2,0:0|0:0,0:0:0:0:
113,317,55209,1,8,0:0:0:0:
113,317,55393,2,0,L|224:320,1,110,2|0,0:0|0:0,0:0:0:0:
268,219,56130,2,0,L|379:222,1,110,2|2,0:0|0:0,0:0:0:0:
424,251,56683,1,8,0:0:0:0:
424,251,56868,6,0,P|431:191|430:125,1,110,2|2,0:0|0:0,0:0:0:0:
384,41,57605,2,0,P|324:34|258:35,1,110,2|2,0:0|0:0,0:0:0:0:
219,37,58158,1,8,0:0:0:0:
219,37,58342,2,0,B|229:95|229:95|217:220,1,165,2|10,0:0|0:0,0:0:0:0:
203,309,59264,1,0,0:0:0:0:
203,309,59448,2,0,P|252:317|270:318,1,55,2|8,0:0|0:0,0:0:0:0:
311,328,59817,6,0,L|299:386,2,55,2|6|0,0:0|0:0|0:0,0:0:0:0:
410,280,60554,2,0,P|380:234|377:170,1,110,2|0,0:0|0:0,0:0:0:0:
364,126,61107,1,8,0:0:0:0:
364,126,61291,2,0,L|278:30,1,110,2|0,0:0|0:0,0:0:0:0:
235,43,61844,1,8,0:0:0:0:
214,93,62029,2,0,P|170:155|117:167,1,110,0|0,0:0|0:0,0:0:0:0:
86,164,62582,1,10,0:0:0:0:
86,273,62950,6,0,P|20:276|11:280,2,55,6|0|8,0:0|0:0|0:0,0:0:0:0:
125,312,63503,2,0,L|238:307,1,110,2|2,0:0|0:0,0:0:0:0:
282,335,64056,1,8,0:0:0:0:
282,335,64240,2,0,L|284:213,1,110,6|0,0:0|0:0,0:0:0:0:
303,173,64793,2,0,P|344:178|379:172,1,55,8|0,0:0|0:0,0:0:0:0:
412,174,65162,1,10,0:0:0:0:
437,281,65531,1,14,0:0:0:0:
404,325,65715,1,0,0:0:0:0:
371,369,65899,6,0,L|246:369,1,110,14|8,0:0|0:0,0:0:0:0:
206,359,66452,2,0,P|234:274|237:231,1,110,2|0,0:0|0:0,0:0:0:0:
224,200,67005,1,8,0:0:0:0:
224,200,67189,2,0,P|266:152|321:137,1,110,2|0,0:0|0:0,0:0:0:0:
255,43,67927,2,0,L|147:59,1,110,2|2,0:0|0:0,0:0:0:0:
92,67,68480,1,10,0:0:0:0:
53,106,68664,6,0,P|45:179|51:221,1,110,2|2,0:0|0:0,0:0:0:0:
102,311,69401,2,0,P|156:315|210:307,1,110,2|2,0:0|0:0,0:0:0:0:
265,297,69954,1,8,0:0:0:0:
265,297,70139,2,0,B|253:250|253:250|263:146,1,110,2|0,0:0|0:0,0:0:0:0:
289,143,70692,1,10,0:0:0:0:
370,68,71060,1,10,0:0:0:0:
370,68,71245,2,0,L|437:64,1,55,2|8,0:0|0:0,0:0:0:0:
478,77,71613,6,0,L|476:22,2,55,2|14|2,0:0|0:0|0:0,0:0:0:0:
507,182,72351,2,0,P|406:210|394:246,1,110,2|2,0:0|0:0,0:0:0:0:
386,256,72903,1,8,0:0:0:0:
386,256,73088,2,0,L|257:250,1,110,2|0,0:0|0:0,0:0:0:0:
220,252,73641,1,10,0:0:0:0:
110,263,74009,2,0,L|121:367,2,82.5,10|0|0,0:0|0:0|0:0,0:0:0:0:
77,218,74747,6,0,P|93:180|88:92,1,110,10|8,0:0|0:0,0:0:0:0:
68,63,75300,2,0,L|5:75,2,55,2|8|0,0:0|0:0|0:0,0:0:0:0:
118,40,75853,1,10,0:0:0:0:
224,67,76221,6,0,P|283:40|346:45,2,110,10|8|8,0:0|0:0|0:0,0:0:0:0:
205,118,77143,2,0,L|203:197,1,55,8|10,0:3|0:3,0:0:0:0:
214,227,77511,1,0,0:0:0:0:
235,277,77696,5,4,0:0:0:0:
235,277,79170,5,4,0:0:0:0:
22,220,79908,6,0,L|37:152,1,55,4|8,0:3|0:3,0:0:0:0:
80,136,80276,2,0,P|91:95|90:69,1,55,8|8,0:0|0:0,0:0:0:0:
59,37,80645,6,0,L|175:36,1,110,6|8,0:0|0:0,0:0:0:0:
256,103,81382,1,0,0:0:0:0:
317,194,81751,2,0,P|311:259|295:324,1,110,10|0,0:0|0:0,0:0:0:0:
192,320,82488,1,8,0:0:0:0:
96,264,82857,2,0,L|79:205,1,55,10|0,0:0|0:0,0:0:0:0:
37,176,83225,2,0,L|29:107,1,55,8|0,0:0|0:0,0:0:0:0:
29,66,83594,6,0,P|103:62|146:30,1,110,6|8,0:0|0:0,0:0:0:0:
176,10,84147,2,0,B|168:42|168:42|178:141,1,110,2|4,0:0|0:3,0:0:0:0:
244,204,84884,1,6,0:0:0:0:
