osu file format v14

[General]
AudioFilename: audio.mp3
AudioLeadIn: 0
PreviewTime: 53912
Countdown: 1
SampleSet: Soft
StackLeniency: 0.5
Mode: 0
LetterboxInBreaks: 0
WidescreenStoryboard: 1

[Editor]
DistanceSpacing: 1.1
BeatDivisor: 4
GridSize: 4
TimelineZoom: 1

[Metadata]
Title:Hologram
TitleUnicode:ホログラム
Artist:NICO Touches the Walls
ArtistUnicode:NICO Touches the Walls
Creator:Hobbes2
Version:NeoSL's Hard
Source:鋼の錬金術師 FULLMETAL ALCHEMIST
Tags:Neoskylove SeaRasp Aurora Tatsuya Mitsumura alternative rock power pop
BeatmapID:1230832
BeatmapSetID:559651

[Difficulty]
HPDrainRate:5
CircleSize:4
OverallDifficulty:6.5
ApproachRate:7.5
SliderMultiplier:1.6
SliderTickRate:1

[Events]
//Background and Video events
0,0,"Edgetastic.jpg",0,0
//Break Periods
//Storyboard Layer 0 (Background)
//Storyboard Layer 1 (Fail)
//Storyboard Layer 2 (Pass)
//Storyboard Layer 3 (Foreground)
//Storyboard Sound Samples

[TimingPoints]
1050,368.640943720816,4,2,0,65,1,0
1050,-125,4,2,0,65,0,0
6363,-111.111111111111,4,2,0,65,0,0
6917,368.640943720816,4,2,0,65,1,0
9866,-100,4,2,0,65,0,0
18713,-100,4,2,0,45,0,0
29772,-100,4,2,0,65,0,0
30510,-100,4,2,0,55,0,0
42306,-111.111111111111,4,2,0,55,0,0
51154,-100,4,2,0,65,0,0
54103,-100,4,2,0,70,0,1
65715,-100,4,2,0,70,0,0
65899,-100,4,2,0,75,0,1
77696,-100,4,2,0,65,0,0
85898,-100,4,2,0,5,0,0

[Colours]
Combo1 : 255,128,128
Combo2 : 255,60,60
Combo3 : 196,196,0
Combo4 : 128,64,64

[HitObjects]
78,144,1050,6,0,P|140:150|189:78,1,128
270,87,1603,2,0,L|267:162,1,64,0|0,0:0|0:0,0:0:0:0:
344,121,1972,2,0,L|342:185,1,64
274,232,2341,6,0,P|336:225|388:260,2,128
196,261,3262,1,0,0:0:0:0:
131,207,3447,2,0,P|126:176|133:145,1,64,0|0,0:0|0:0,0:0:0:0:
195,90,3815,6,0,L|322:94,1,128,0|0,0:0|0:0,0:0:0:0:
405,83,4368,1,0,0:0:0:0:
374,161,4553,2,0,L|376:224,1,64,0|0,0:0|0:0,0:0:0:0:
296,249,4921,2,0,L|293:185,1,64,0|0,0:0|0:0,0:0:0:0:
213,274,5290,6,0,B|177:295|130:268|130:268|94:245|42:283|42:283|11:244|3:187|39:159,1,320,0|0,0:0|0:0,0:0:0:0:
103,91,6396,5,0,0:0:0:0:
181,142,6580,2,0,L|252:147,1,71.9999978027344,8|0,0:0|0:0,0:0:0:0:
248,38,6917,5,4,0:0:0:0:
248,38,8391,5,4,0:0:0:0:
248,38,9313,1,0,0:0:0:0:
356,101,9497,2,0,L|276:108,1,80,8|0,0:0|0:0,0:0:0:0:
208,163,9866,6,0,P|233:188|245:233,2,80,12|0|0,0:0|0:0|0:0,0:0:0:0:
166,232,10419,2,0,P|151:264|112:290,2,80,4|0|0,0:0|0:0|0:0,0:0:0:0:
89,213,10972,2,0,P|49:207|16:179,2,80,12|0|0,0:0|0:0|0:0,0:0:0:0:
81,133,11525,2,0,P|75:99|90:56,2,80,12|0|0,0:0|0:0|0:0,0:0:0:0:
156,103,12078,6,0,L|193:90,3,40,8|8|8|8,0:3|0:3|0:3|0:3,0:0:0:0:
229,70,12446,2,0,L|266:82,3,40,8|8|8|8,0:3|0:3|0:3|0:3,0:0:0:0:
301,102,12815,6,0,P|299:63|315:27,2,80,6|0|8,0:0|0:0|0:0,0:0:0:0:
378,77,13368,2,0,P|411:55|450:50,2,80,0|0|0,0:0|0:0|0:0,0:0:0:0:
438,130,13921,6,0,P|473:147|496:179,2,80,10|0|0,0:0|0:0|0:0,0:0:0:0:
422,207,14474,2,0,P|424:246|408:282,2,80,0|8|0,0:0|0:0|0:0,0:0:0:0:
346,233,15027,2,0,P|312:254|273:259,1,80,2|0,0:0|0:0,0:0:0:0:
286,180,15395,2,0,P|250:162|227:130,1,80,8|0,0:0|0:0,0:0:0:0:
301,102,15764,6,0,P|299:63|315:27,2,80,4|0|8,0:0|0:0|0:0,0:0:0:0:
286,180,16317,2,0,P|209:185|173:253,1,160,4|0,0:0|0:0,0:0:0:0:
213,323,16870,1,8,0:0:0:0:
254,253,17054,6,0,P|219:185|143:177,1,160,4|8,0:0|0:3,0:0:0:0:
173,253,17607,1,8,0:0:0:0:
110,305,17792,1,8,0:0:0:0:
42,262,17976,1,8,0:0:0:0:
62,182,18160,1,8,0:0:0:0:
143,177,18345,2,0,L|137:137,2,40,8|8|8,0:3|0:3|0:3,0:0:0:0:
224,189,18713,6,0,P|300:194|336:262,1,160,4|8,0:0|0:0,0:0:0:0:
255,262,19266,2,0,P|289:193|365:185,1,160,0|0,0:0|0:0,0:0:0:0:
417,248,19819,1,8,0:0:0:0:
336,262,20004,6,0,L|346:341,1,80,0|0,0:0|0:0,0:0:0:0:
427,327,20372,2,0,L|416:247,1,80,0|8,0:0|0:0,0:0:0:0:
365,185,20741,1,0,0:0:0:0:
397,110,20925,2,0,P|428:135|445:172,1,80,0|0,0:0|0:0,0:0:0:0:
365,185,21294,1,8,0:0:0:0:
284,197,21478,6,0,L|125:176,1,160,2|0,0:0|0:0,0:0:0:0:
51,208,22031,1,8,0:0:0:0:
115,256,22215,2,0,L|274:277,1,160,2|0,0:0|0:0,0:0:0:0:
347,246,22768,1,8,0:0:0:0:
284,197,22953,1,2,0:0:0:0:
347,245,23137,6,0,P|358:170|301:119,1,160,0|8,0:0|0:0,0:0:0:0:
284,197,23690,1,0,0:0:0:0:
225,144,23874,2,0,L|145:133,1,80,0|0,0:0|0:0,0:0:0:0:
128,211,24243,2,0,L|207:221,1,80,8|0,0:0|0:0,0:0:0:0:
284,197,24612,6,0,L|305:356,1,160,2|8,0:0|0:0,0:0:0:0:
383,344,25164,2,0,L|362:185,1,160,2|0,0:0|0:0,0:0:0:0:
313,124,25717,1,8,0:0:0:0:
284,197,25902,6,0,L|125:176,1,160,2|0,0:0|0:0,0:0:0:0:
75,114,26455,1,8,0:0:0:0:
154,103,26639,2,0,L|313:124,1,160,0|0,0:0|0:0,0:0:0:0:
363,186,27192,1,8,0:0:0:0:
283,197,27376,6,0,P|254:267|297:331,1,160,2|0,0:0|0:0,0:0:0:0:
334,260,27929,1,8,0:0:0:0:
363,186,28114,2,0,P|316:124|239:130,1,160,0|0,0:0|0:0,0:0:0:0:
172,174,28667,1,8,0:0:0:0:
125,109,28851,6,0,L|126:268,1,160,2|0,0:0|0:0,0:0:0:0:
103,345,29404,1,8,0:0:0:0:
252,287,29772,1,12,0:0:0:0:
323,322,29957,1,0,0:0:0:0:
287,216,30141,1,12,0:0:0:0:
358,251,30325,1,0,0:0:0:0:
251,286,30510,6,0,P|208:223|238:152,1,160,4|8,0:0|0:0,0:0:0:0:
287,216,31063,2,0,P|316:145|273:81,1,160,2|0,0:0|0:0,0:0:0:0:
238,152,31616,1,8,0:0:0:0:
238,151,31800,6,0,L|78:167,1,160,0|0,0:0|0:0,0:0:0:0:
8,206,32353,1,8,0:0:0:0:
78,247,32537,2,0,L|237:263,1,160,0|0,0:0|0:0,0:0:0:0:
316,271,33090,1,8,0:0:0:0:
270,336,33275,6,0,P|346:344|394:284,1,160,2|2,0:0|0:0,0:0:0:0:
316,271,33828,1,8,0:0:0:0:
366,210,34012,2,0,L|349:50,1,160,2|0,0:0|0:0,0:0:0:0:
269,56,34565,2,0,L|189:64,1,80,8|0,0:0|0:0,0:0:0:0:
130,9,34933,6,0,P|111:83|163:139,1,160,0|8,0:0|0:0,0:0:0:0:
238,165,35486,1,0,0:0:0:0:
178,217,35671,2,0,L|186:296,1,80,0|0,0:0|0:0,0:0:0:0:
194,375,36039,1,8,0:0:0:0:
122,343,36224,1,0,0:0:0:0:
186,296,36408,6,0,L|345:279,1,160,2|8,0:0|0:0,0:0:0:0:
394,343,36961,2,0,P|423:272|380:208,1,160,0|0,0:0|0:0,0:0:0:0:
345,279,37514,1,8,0:0:0:0:
301,212,37698,6,0,L|141:228,1,160,2|0,0:0|0:0,0:0:0:0:
97,161,38251,1,8,0:0:0:0:
61,232,38436,2,0,P|18:168|47:97,1,160,0|0,0:0|0:0,0:0:0:0:
97,161,38989,1,8,0:0:0:0:
132,80,39173,6,0,L|291:96,1,160,2|0,0:0|0:0,0:0:0:0:
330,167,39726,1,8,0:0:0:0:
366,96,39910,2,0,P|409:160|380:231,1,160,2|0,0:0|0:0,0:0:0:0:
330,167,40463,1,8,0:0:0:0:
301,241,40647,6,0,L|142:225,1,160,6|0,0:0|0:0,0:0:0:0:
62,216,41200,1,10,0:0:0:0:
78,58,41569,1,2,0:0:0:0:
157,66,41753,1,8,0:0:0:0:
70,137,41938,1,0,0:0:0:0:
149,145,42122,1,8,0:3:0:0:
152,148,42214,1,8,0:3:0:0:
155,151,42306,6,0,L|298:136,1,143.999995605469,6|2,0:0|0:0,0:0:0:0:
440,207,43044,1,8,0:0:0:0:
422,284,43228,1,0,0:0:0:0:
365,230,43412,2,0,L|293:237,1,71.9999978027344,0|0,0:0|0:0,0:0:0:0:
222,203,43781,5,2,0:0:0:0:
228,281,43965,1,8,0:0:0:0:
157,247,44149,1,2,0:0:0:0:
287,158,44518,2,0,P|289:122|276:89,1,71.9999978027344,8|0,0:0|0:0,0:0:0:0:
211,134,44887,2,0,P|208:169|221:202,1,71.9999978027344,0|8,0:0|0:0,0:0:0:0:
293,237,45255,6,0,L|436:222,1,143.999995605469,10|2,0:0|0:0,0:0:0:0:
425,64,45993,2,0,L|353:71,1,71.9999978027344,10|0,0:0|0:0,0:0:0:0:
276,89,46361,2,0,P|289:122|287:158,1,71.9999978027344,2|0,0:0|0:0,0:0:0:0:
228,212,46730,5,0,0:0:0:0:
211,134,46914,1,8,0:0:0:0:
152,188,47099,1,0,0:0:0:0:
104,340,47467,1,8,0:0:0:0:
180,364,47652,1,8,0:3:0:0:
204,288,47836,1,0,0:0:0:0:
128,264,48020,1,8,0:0:0:0:
180,364,48205,6,0,L|323:354,1,143.999995605469,4|0,0:0|0:0,0:0:0:0:
373,204,48942,1,8,0:0:0:0:
348,279,49126,1,0,0:0:0:0:
426,263,49310,1,0,0:0:0:0:
373,204,49495,1,0,0:0:0:0:
426,262,49679,6,0,P|451:198|416:138,1,143.999995605469,8|0,0:0|0:0,0:0:0:0:
306,24,50416,2,0,P|280:88|315:148,1,143.999995605469,8|0,0:0|0:0,0:0:0:0:
373,204,50969,1,0,0:0:0:0:
296,227,51154,6,0,L|136:215,1,160,12|0,0:0|0:0,0:0:0:0:
156,137,51707,2,0,L|315:148,1,160,12|0,0:0|0:0,0:0:0:0:
373,204,52260,1,12,0:0:0:0:
241,183,52444,5,8,0:3:0:0:
244,186,52812,1,8,0:3:0:0:
338,277,52997,1,10,0:3:0:0:
315,148,53181,1,8,0:3:0:0:
259,266,53366,1,10,0:3:0:0:
259,266,54103,6,0,L|179:254,1,80,6|0,0:0|0:0,0:0:0:0:
129,316,54471,1,8,0:0:0:0:
100,242,54656,2,0,L|88:162,1,80,2|0,0:0|0:0,0:0:0:0:
109,83,55024,2,0,P|70:83|35:100,1,80,2|8,0:0|0:0,0:0:0:0:
88,162,55393,6,0,P|127:162|162:144,1,80,2|0,0:0|0:0,0:0:0:0:
188,69,55762,2,0,P|223:50|262:51,1,80,0|10,0:0|0:0,0:0:0:0:
240,129,56130,2,0,L|252:209,1,80,2|0,0:0|0:0,0:0:0:0:
174,223,56499,2,0,L|162:143,1,80,2|8,0:0|0:0,0:0:0:0:
240,129,56868,6,0,P|314:112|341:40,1,160,2|2,0:0|0:0,0:0:0:0:
262,51,57421,1,8,0:0:0:0:
240,129,57605,2,0,L|263:287,1,160,2|2,0:0|0:0,0:0:0:0:
330,334,58158,5,8,0:0:0:0:
397,291,58342,2,0,P|330:252|262:288,1,160,2|0,0:0|0:0,0:0:0:0:
216,352,58895,2,0,P|191:322|182:284,1,80,10|0,0:0|0:0,0:0:0:0:
184,203,59264,1,0,0:0:0:0:
265,205,59448,1,2,0:0:0:0:
263,286,59632,1,8,0:0:0:0:
181,283,59817,6,0,P|115:245|110:168,1,160,2|0,0:0|0:0,0:0:0:0:
175,120,60369,1,8,0:0:0:0:
248,83,60554,2,0,P|247:159|183:202,1,160,2|0,0:0|0:0,0:0:0:0:
110,168,61107,1,8,0:0:0:0:
41,125,61291,6,0,P|107:86|176:121,1,160,2|0,0:0|0:0,0:0:0:0:
184,202,61844,1,8,0:0:0:0:
250,155,62029,2,0,L|409:138,1,160,0|0,0:0|0:0,0:0:0:0:
488,129,62582,1,10,0:0:0:0:
442,65,62766,1,0,0:0:0:0:
409,138,62950,6,0,L|417:217,1,80,6|0,0:0|0:0,0:0:0:0:
425,296,63319,1,8,0:0:0:0:
417,217,63503,2,0,P|349:183|284:224,1,160,2|2,0:0|0:0,0:0:0:0:
353,265,64056,1,8,0:0:0:0:
222,277,64240,5,6,0:0:0:0:
222,277,64609,1,0,0:0:0:0:
335,344,64793,1,8,0:0:0:0:
254,352,64978,1,0,0:0:0:0:
283,224,65162,1,10,0:0:0:0:
282,223,65531,2,0,P|250:201|210:197,1,80,14|0,0:0|0:0,0:0:0:0:
221,276,65899,6,0,P|197:308|161:326,1,80,14|0,0:0|0:0,0:0:0:0:
86,299,66268,1,0,0:0:0:0:
147,247,66452,2,0,L|131:168,1,80,2|10,0:0|0:0,0:0:0:0:
78,107,66821,2,0,P|38:106|2:124,1,80,0|8,0:0|0:0,0:0:0:0:
55,186,67189,6,0,P|94:186|130:168,1,80,0|8,0:0|0:0,0:0:0:0:
174,101,67558,2,0,P|209:83|249:83,1,80,0|8,0:0|0:0,0:0:0:0:
283,155,67927,2,0,L|298:233,1,80,2|10,0:0|0:0,0:0:0:0:
365,189,68295,2,0,L|380:110,1,80,2|10,0:0|0:0,0:0:0:0:
453,147,68664,6,0,L|421:304,1,160,2|2,0:0|0:0,0:0:0:0:
365,362,69217,1,8,0:0:0:0:
342,284,69401,2,0,B|288:284|288:284|241:308|241:308|187:308,1,160,2|2,0:0|0:0,0:0:0:0:
110,287,69954,1,8,0:0:0:0:
167,230,70139,6,0,B|220:230|220:230|267:206|267:206|321:206,1,160,2|0,0:0|0:0,0:0:0:0:
398,226,70692,2,0,P|397:187|380:151,1,80,10|0,0:0|0:0,0:0:0:0:
320,205,71060,2,0,P|303:169|303:130,1,80,10|2,0:0|0:0,0:0:0:0:
360,73,71429,1,8,0:0:0:0:
283,53,71613,6,0,L|123:63,1,160,2|2,0:0|0:0,0:0:0:0:
73,126,72166,1,8,0:0:0:0:
108,197,72351,2,0,P|151:134|123:63,1,160,2|2,0:0|0:0,0:0:0:0:
73,126,72903,1,8,0:0:0:0:
28,192,73088,6,0,P|61:261|137:271,1,160,2|0,0:0|0:0,0:0:0:0:
211,242,73641,1,10,0:0:0:0:
200,321,73825,1,0,0:0:0:0:
274,292,74009,2,0,P|333:284|393:285,2,120,10|0|0,0:0|0:0|0:0,0:0:0:0:
211,242,74747,6,0,L|206:162,1,80,10|0,0:0|0:0,0:0:0:0:
134,126,75115,1,8,0:0:0:0:
201,82,75300,1,2,0:0:0:0:
273,118,75484,2,0,L|432:126,1,160,8|10,0:0|0:0,0:0:0:0:
511,266,76221,6,0,L|431:270,1,80,10|0,0:0|0:0,0:0:0:0:
393,340,76590,2,0,L|313:335,1,80,8|0,0:0|0:0,0:0:0:0:
233,330,76959,1,8,0:0:0:0:
213,252,77143,1,8,0:3:0:0:
280,209,77327,1,10,0:3:0:0:
343,261,77511,1,0,0:0:0:0:
233,330,77696,5,4,0:0:0:0:
313,335,79170,5,4,0:0:0:0:
213,252,79908,1,4,0:3:0:0:
280,209,80092,1,8,0:3:0:0:
280,209,80184,1,8,0:3:0:0:
280,209,80276,2,0,L|278:129,1,80,8|8,0:0|0:0,0:0:0:0:
235,59,80645,6,0,P|272:48|311:55,2,80,6|0|8,0:0|0:0|0:0,0:0:0:0:
166,102,81198,2,0,P|154:64|161:25,2,80,0|0|0,0:0|0:0|0:0,0:0:0:0:
208,171,81751,2,0,P|170:182|131:175,2,80,10|0|0,0:0|0:0|0:0,0:0:0:0:
278,129,82304,2,0,P|289:166|282:205,2,80,0|8|0,0:0|0:0|0:0,0:0:0:0:
131,175,82857,6,0,L|128:214,3,40,10|0|0|0,0:0|0:0|0:0|0:0,0:0:0:0:
101,243,83225,2,0,L|103:282,3,40,8|0|0|0,0:0|0:0|0:0|0:0,0:0:0:0:
131,311,83594,5,6,0:0:0:0:
238,278,83778,1,0,0:0:0:0:
168,241,83963,1,8,0:0:0:0:
201,348,84147,2,0,P|277:345|317:280,1,160,2|4,0:0|0:3,0:0:0:0:
279,209,84700,1,0,0:0:0:0:
168,241,84884,1,6,0:0:0:0:
256,192,84976,12,0,85898,0:0:0:0:
