osu file format v14

[General]
AudioFilename: audio.mp3
AudioLeadIn: 0
PreviewTime: 53912
Countdown: 1
SampleSet: Soft
StackLeniency: 0.5
Mode: 0
LetterboxInBreaks: 0
WidescreenStoryboard: 1

[Editor]
DistanceSpacing: 1
BeatDivisor: 4
GridSize: 4
TimelineZoom: 1

[Metadata]
Title:Hologram
TitleUnicode:ホログラム
Artist:NICO Touches the Walls
ArtistUnicode:NICO Touches the Walls
Creator:Hobbes2
Version:Easy
Source:鋼の錬金術師 FULLMETAL ALCHEMIST
Tags:Neoskylove SeaRasp Aurora Tatsuya Mitsumura alternative rock power pop
BeatmapID:1247290
BeatmapSetID:559651

[Difficulty]
HPDrainRate:2
CircleSize:3.3
OverallDifficulty:2
ApproachRate:3
SliderMultiplier:0.8
SliderTickRate:1

[Events]
//Background and Video events
0,0,"Edgetastic.jpg",0,0
//Break Periods
//Storyboard Layer 0 (Background)
//Storyboard Layer 1 (Fail)
//Storyboard Layer 2 (Pass)
//Storyboard Layer 3 (Foreground)
//Storyboard Sound Samples

[TimingPoints]
1050,368.640943720816,4,2,0,65,1,0
6917,368.640943720816,4,2,0,65,1,0
18713,-100,4,2,0,45,0,0
29772,-100,4,2,0,65,0,0
30510,-100,4,2,0,55,0,0
51154,-100,4,2,0,65,0,0
54103,-100,4,2,0,70,0,0
65899,-100,4,2,0,75,0,1
77696,-100,4,2,0,65,0,0
85898,-100,4,2,0,5,0,0

[Colours]
Combo1 : 255,128,128
Combo2 : 255,60,60
Combo3 : 196,196,0
Combo4 : 128,64,64

[HitObjects]
313,45,1050,6,0,B|312:104|351:139|351:139|316:175|324:227,1,200
385,278,2340,2,0,P|326:307|302:303,1,80
235,292,3077,2,0,P|195:296|164:320,1,80
105,374,3814,5,0,0:0:0:0:
26,234,4552,1,0,0:0:0:0:
94,89,5289,2,0,P|175:72|242:112,1,160
255,188,6395,1,0,0:0:0:0:
385,163,6917,6,0,L|369:314,2,120,4|0|0,0:0|0:0|0:0,0:0:0:0:
354,88,8391,2,0,B|258:83|258:83|223:55|223:55|103:46,1,240,4|8,0:0|0:0,0:0:0:0:
57,91,9866,6,0,L|72:216,1,120,12|4,0:0|0:0,0:0:0:0:
173,273,10972,2,0,L|187:153,1,120,12|12,0:0|0:0,0:0:0:0:
277,74,12078,2,0,P|335:68|374:79,1,80,8|8,0:3|0:3,0:0:0:0:
435,77,12815,6,0,L|452:-13,2,80,6|8|0,0:0|0:0|0:0,0:0:0:0:
456,154,13921,1,10,0:0:0:0:
421,226,14290,2,0,L|315:233,1,80,0|8,0:0|0:0,0:0:0:0:
269,266,15027,2,0,L|163:259,1,80,2|8,0:0|0:0,0:0:0:0:
139,323,15764,6,0,P|110:263|136:202,1,120,4|4,0:0|0:0,0:0:0:0:
268,144,17054,2,0,L|411:140,1,120,4|8,0:0|0:0,0:0:0:0:
468,140,17976,1,8,0:0:0:0:
451,219,18345,1,8,0:0:0:0:
415,291,18713,6,0,B|364:318|364:318|273:323,2,120,4|0|8,0:0|0:0|0:0,0:0:0:0:
451,219,20188,1,0,0:0:0:0:
468,140,20556,2,0,P|401:80|347:80,1,120,8|0,0:0|0:0,0:0:0:0:
304,36,21478,6,0,B|273:130|339:97|295:226,2,160,2|2|2,0:0|0:0|0:0,0:0:0:0:
194,86,23506,1,8,0:0:0:0:
143,148,23874,2,0,L|137:248,1,80,0|8,0:0|0:0,0:0:0:0:
165,303,24612,6,0,P|246:298|305:316,1,120,0|2,0:0|0:0,0:0:0:0:
354,343,25533,1,0,0:0:0:0:
415,291,25902,2,0,L|423:195,2,80,0|0|0,0:0|0:0|0:0,0:0:0:0:
354,343,27008,1,0,0:0:0:0:
293,291,27376,6,0,L|279:131,2,160,2|0|2,0:0|0:0|0:0,0:0:0:0:
193,358,29404,1,8,0:0:0:0:
124,317,29772,2,0,P|51:318|33:324,1,80,12|12,0:0|0:0,0:0:0:0:
7,248,30510,6,0,L|-2:111,1,120,0|0,0:0|0:0,0:0:0:0:
39,58,31431,1,0,0:0:0:0:
108,18,31800,2,0,B|149:10|149:10|186:18,2,80,0|0|0,0:0|0:0|0:0,0:0:0:0:
39,58,32906,1,0,0:0:0:0:
84,123,33275,6,0,P|102:182|68:285,2,160,0|2|0,0:0|0:0|0:0,0:0:0:0:
192,72,35302,1,8,0:0:0:0:
235,138,35671,2,0,L|234:237,1,80,0|8,0:0|0:0,0:0:0:0:
285,279,36408,6,0,P|344:248|404:240,1,120,0|0,0:0|0:0,0:0:0:0:
453,296,37330,1,0,0:0:0:0:
500,231,37698,2,0,L|504:151,2,80,0|0|0,0:0|0:0|0:0,0:0:0:0:
453,296,38804,1,0,0:0:0:0:
385,338,39173,6,0,L|211:336,2,160,8|0|4,0:0|0:0|0:0,0:0:0:0:
343,225,41200,1,8,0:0:0:0:
364,147,41569,2,0,L|354:46,1,80,0|8,0:0|0:0,0:0:0:0:
287,26,42306,6,0,P|235:18|182:47,1,80,4|0,0:0|0:0,0:0:0:0:
153,83,43044,1,8,0:0:0:0:
158,242,43781,6,0,P|210:250|263:221,1,80,0|0,0:0|0:0,0:0:0:0:
295,189,44518,2,0,P|333:180|372:189,1,80,8|0,0:0|0:0,0:0:0:0:
427,247,45255,6,0,L|437:61,2,160,4|8|0,0:0|0:0|0:0,0:0:0:0:
289,329,47467,2,0,L|187:343,1,80,8|0,0:0|0:0,0:0:0:0:
139,301,48205,5,4,0:0:0:0:
250,186,48942,2,0,L|329:196,1,80,8|0,0:0|0:0,0:0:0:0:
409,200,49679,2,0,P|417:125|424:106,2,80,8|0|8,0:0|0:0|0:0,0:0:0:0:
304,321,51154,6,0,P|195:329|156:320,1,120,4|4,0:0|0:0,0:0:0:0:
121,278,52075,1,0,0:0:0:0:
159,207,52444,2,8,L|163:65,1,120,8|8,0:3|0:3,0:3:0:0:
200,16,53366,1,0,0:0:0:0:
345,82,54103,6,0,P|355:140|354:200,1,120,4|0,0:0|0:0,0:0:0:0:
305,264,55024,1,2,0:0:0:0:
238,308,55393,2,0,L|139:308,1,80,2|0,0:0|0:0,0:0:0:0:
89,265,56130,2,0,P|75:189|91:155,1,80,2|0,0:0|0:0,0:0:0:0:
122,123,56868,6,0,P|148:85|166:47,1,80,2|0,0:0|0:0,0:0:0:0:
242,44,57605,2,0,P|263:77|280:113,1,80,2|0,0:0|0:0,0:0:0:0:
265,192,58342,2,0,P|281:281|331:361,1,160,2|0,0:0|0:0,0:0:0:0:
389,369,59448,1,0,0:0:0:0:
448,314,59817,6,0,P|456:256|452:218,1,80,2|0,0:0|0:0,0:0:0:0:
404,172,60554,2,0,P|396:132|397:92,1,80,2|0,0:0|0:0,0:0:0:0:
454,36,61291,2,0,L|313:32,1,120,2|0,0:0|0:0,0:0:0:0:
254,45,62213,2,0,B|243:91|243:91|249:123,1,80,0|8,0:0|0:0,0:0:0:0:
292,190,62950,6,0,B|303:236|303:236|283:318,1,120,4|0,0:0|0:0,0:0:0:0:
220,353,63872,1,0,0:0:0:0:
149,315,64240,2,0,P|110:249|111:200,1,120,4|0,0:0|0:0,0:0:0:0:
165,150,65162,1,2,0:0:0:0:
30,63,65899,6,0,L|19:212,1,120,4|0,0:0|0:0,0:0:0:0:
36,261,66821,1,0,0:0:0:0:
92,317,67190,2,0,L|187:315,1,80,2|0,0:0|0:0,0:0:0:0:
243,352,67927,2,0,L|338:354,1,80,2|0,0:0|0:0,0:0:0:0:
398,325,68664,6,0,P|407:287|402:237,1,80,2|0,0:0|0:0,0:0:0:0:
355,182,69401,2,0,P|317:173|267:178,1,80,2|0,0:0|0:0,0:0:0:0:
208,217,70139,2,0,P|124:232|60:178,1,160,2|0,0:0|0:0,0:0:0:0:
93,114,71245,1,0,0:0:0:0:
142,49,71613,6,0,L|229:29,1,80,2|0,0:0|0:0,0:0:0:0:
286,76,72351,2,0,L|363:93,1,80,2|0,0:0|0:0,0:0:0:0:
435,129,73088,2,0,P|442:191|420:279,1,120,2|8,0:0|0:0,0:0:0:0:
371,300,74009,2,0,P|311:301|267:324,1,80,0|8,0:0|0:0,0:0:0:0:
226,352,74747,6,0,L|77:358,2,120,12|0|8,0:0|0:0|0:0,0:0:0:0:
293,308,76221,2,0,L|442:314,2,120,12|0|8,0:0|0:0|0:0,0:0:0:0:
238,249,77696,5,4,0:0:0:0:
238,249,79170,1,4,0:0:0:0:
94,178,79908,2,0,P|96:110|109:66,1,80,4|4,0:3|0:0,0:0:0:0:
158,46,80645,6,0,P|124:25|84:22,2,80,4|8|0,0:0|0:0|0:0,0:0:0:0:
222,93,81751,1,8,0:0:0:0:
287,139,82120,2,0,P|347:141|377:134,1,80,0|8,0:0|0:0,0:0:0:0:
445,149,82857,2,8,L|450:239,1,80,8|8,0:3|0:3,0:3:0:0:
393,286,83594,6,0,B|332:275|284:323|284:323|256:291|211:287,1,200,4|4,0:0|0:3,0:0:0:0:
139,315,84884,1,4,0:0:0:0:
