osu file format v14

[General]
AudioFilename: audio.mp3
AudioLeadIn: 0
PreviewTime: 53912
Countdown: 1
SampleSet: Soft
StackLeniency: 0.5
Mode: 0
LetterboxInBreaks: 0
WidescreenStoryboard: 0

[Editor]
Bookmarks: 12901
DistanceSpacing: 1
BeatDivisor: 4
GridSize: 32
TimelineZoom: 1

[Metadata]
Title:Hologram
TitleUnicode:ホログラム
Artist:NICO Touches the Walls
ArtistUnicode:NICO Touches the Walls
Creator:Hobbes2
Version:Afterimage
Source:鋼の錬金術師 FULLMETAL ALCHEMIST
Tags:Neoskylove SeaRasp Aurora Tatsuya Mitsumura alternative rock power pop
BeatmapID:1183603
BeatmapSetID:559651

[Difficulty]
HPDrainRate:7
CircleSize:4
OverallDifficulty:8.3
ApproachRate:9
SliderMultiplier:1.7
SliderTickRate:1

[Events]
//Background and Video events
0,0,"Edgetastic.jpg",0,0
//Break Periods
//Storyboard Layer 0 (Background)
//Storyboard Layer 1 (Fail)
//Storyboard Layer 2 (Pass)
//Storyboard Layer 3 (Foreground)
//Storyboard Sound Samples

[TimingPoints]
1050,368.640943720816,4,2,0,65,1,0
1050,-133.333333333333,4,2,0,65,0,0
6917,368.640943720816,4,2,0,65,1,0
6917,-200,4,2,0,65,0,0
9313,-100,4,2,0,65,0,0
16593,-100,4,2,0,5,0,0
16685,-100,4,2,0,65,0,0
17331,-100,4,2,0,5,0,0
17423,-100,4,2,0,65,0,0
18713,-117.647058823529,4,2,0,45,0,0
24888,-117.647058823529,4,2,0,5,0,0
24980,-117.647058823529,4,2,0,45,0,0
29772,-83.3333333333333,4,2,0,65,0,0
30510,-111.111111111111,4,2,0,55,0,0
32076,-111.111111111111,4,2,0,5,0,0
32168,-111.111111111111,4,2,0,55,0,0
42583,-111.111111111111,4,2,0,5,0,0
42675,-111.111111111111,4,2,0,55,0,0
42951,-111.111111111111,4,2,0,5,0,0
43043,-111.111111111111,4,2,0,55,0,0
44057,-111.111111111111,4,2,0,5,0,0
44149,-111.111111111111,4,2,0,55,0,0
44426,-111.111111111111,4,2,0,5,0,0
44518,-111.111111111111,4,2,0,55,0,0
45532,-111.111111111111,4,2,0,5,0,0
45624,-111.111111111111,4,2,0,55,0,0
45900,-111.111111111111,4,2,0,5,0,0
45992,-111.111111111111,4,2,0,55,0,0
46269,-111.111111111111,4,2,0,5,0,0
46361,-111.111111111111,4,2,0,55,0,0
46638,-111.111111111111,4,2,0,5,0,0
46730,-111.111111111111,4,2,0,55,0,0
47375,-111.111111111111,4,2,0,5,0,0
47467,-111.111111111111,4,2,0,55,0,0
51154,-100,4,2,0,65,0,0
54103,-90.9090909090909,4,2,0,70,0,0
54379,-90.9090909090909,4,2,0,5,0,0
54471,-90.9090909090909,4,2,0,70,0,0
57881,-90.9090909090909,4,2,0,5,0,0
57973,-90.9090909090909,4,2,0,70,0,0
60830,-90.9090909090909,4,2,0,5,0,0
60922,-90.9090909090909,4,2,0,70,0,0
63779,-90.9090909090909,4,2,0,5,0,0
63871,-90.9090909090909,4,2,0,70,0,0
65899,-83.3333333333333,4,2,0,75,0,1
66176,-83.3333333333333,4,2,0,5,0,1
66268,-83.3333333333333,4,2,0,75,0,1
70599,-83.3333333333333,4,2,0,5,0,1
70691,-83.3333333333333,4,2,0,75,0,1
74286,-83.3333333333333,4,2,0,5,0,1
74378,-83.3333333333333,4,2,0,75,0,1
75023,-83.3333333333333,4,2,0,5,0,1
75115,-83.3333333333333,4,2,0,75,0,1
76497,-83.3333333333333,4,2,0,5,0,1
76589,-83.3333333333333,4,2,0,75,0,1
77696,-200,4,2,0,65,0,0
80276,-100,4,2,0,65,0,0
80645,-100,4,2,0,65,0,0
85898,-100,4,2,0,5,0,0

[Colours]
Combo1 : 106,113,168
Combo2 : 255,43,43
Combo3 : 60,60,255
Combo4 : 179,179,0

[HitObjects]
88,120,1050,6,0,P|168:88|224:88,1,127.500004863739
280,104,1602,2,0,L|248:256,2,127.500004863739
416,176,2708,2,0,L|389:51,2,127.500004863739
416,328,3814,6,0,P|360:299|329:244,1,127.500004863739
182,244,4552,2,0,P|151:299|96:328,1,127.500004863739
72,176,5289,2,0,B|58:150|27:147|27:147|112:158|169:108|169:108|138:112|113:100,1,255.000009727478
255,201,6395,5,0,0:0:0:0:
53,74,6579,1,8,0:0:0:0:
53,74,6917,6,0,P|27:184|160:158,1,297.5,4|0,0:0|0:0,0:0:0:0:
224,103,8391,6,0,P|277:181|242:261,1,170,4|0,0:0|0:0,0:0:0:0:
179,283,9313,5,0,0:0:0:0:
348,262,9497,1,8,0:0:0:0:
348,262,9866,5,12,0:0:0:0:
327,93,10050,1,0,0:0:0:0:
179,283,10235,1,0,0:0:0:0:
423,168,10419,5,4,0:0:0:0:
254,187,10603,1,0,0:0:0:0:
414,83,10787,1,0,0:0:0:0:
263,272,10972,5,12,0:0:0:0:
327,93,11156,1,0,0:0:0:0:
358,346,11340,1,0,0:0:0:0:
167,197,11525,5,12,0:0:0:0:
348,262,11709,1,0,0:0:0:0:
414,83,11894,1,0,0:0:0:0:
241,104,12078,5,8,0:3:0:0:
246,146,12170,1,8,0:3:0:0:
252,188,12262,1,8,0:3:0:0:
257,230,12354,1,8,0:3:0:0:
263,272,12446,2,8,P|261:293|253:312,1,42.5,8|8,0:3|0:3,0:3:0:0:
74,245,12630,2,8,P|65:223|65:200,1,42.5,8|8,0:3|0:3,0:3:0:0:
149,373,12815,6,0,L|40:356,1,85,6|0,0:0|0:0,0:0:0:0:
149,203,13184,1,8,0:0:0:0:
251,373,13368,1,0,0:0:0:0:
74,245,13552,2,0,P|64:199|78:155,1,85
309,257,13921,1,10,0:0:0:0:
149,203,14105,1,0,0:0:0:0:
383,215,14290,6,0,P|393:261|379:305,1,85
220,251,14658,1,8,0:0:0:0:
275,91,14843,1,0,0:0:0:0:
309,257,15027,1,2,0:0:0:0:
364,85,15211,1,0,0:0:0:0:
156,118,15395,2,0,P|127:59|119:33,1,85,8|0,0:0|0:0,0:0:0:0:
220,251,15764,6,0,P|133:248|80:168,1,170,4|8,0:0|0:0,0:0:0:0:
327,130,16317,2,0,L|303:290,1,127.5,4|0,0:0|0:0,0:0:0:0:
301,298,16686,1,0,0:0:0:0:
180,156,16870,1,8,0:0:0:0:
420,241,17054,2,0,P|399:299|340:315,1,127.5,4|0,0:0|0:0,0:0:0:0:
301,298,17423,5,8,0:3:0:0:
234,67,17607,1,8,0:0:0:0:
197,267,17792,1,8,0:0:0:0:
362,121,17976,1,8,0:0:0:0:
166,296,18160,1,8,0:0:0:0:
450,151,18345,1,8,0:3:0:0:
454,109,18437,1,8,0:3:0:0:
439,69,18529,1,8,0:3:0:0:
408,40,18621,1,8,0:3:0:0:
368,28,18713,5,4,0:0:0:0:
224,26,18897,2,0,L|296:26,1,72.2500013780594,0|8,0:0|0:0,0:0:0:0:
113,119,19266,1,0,0:0:0:0:
247,169,19451,2,0,L|259:262,1,72.2500013780594
224,26,19819,1,8,0:0:0:0:
343,100,20003,6,0,L|325:187,1,72.2500013780594
256,240,20372,1,0,0:0:0:0:
343,100,20556,1,8,0:0:0:0:
400,213,20741,2,0,L|340:279,1,72.2500013780594,2|0,0:0|0:0,0:0:0:0:
328,170,21109,1,0,0:0:0:0:
423,309,21293,1,8,0:0:0:0:
232,257,21478,6,0,L|220:101,1,144.500002756119,2|0,0:0|0:0,0:0:0:0:
299,179,22031,1,8,0:0:0:0:
154,190,22215,2,0,L|142:34,1,144.500002756119,2|0,0:0|0:0,0:0:0:0:
221,113,22768,1,8,0:0:0:0:
71,52,22953,1,2,0:0:0:0:
288,36,23137,6,0,L|367:32,1,72.2500013780594
143,46,23506,1,8,0:0:0:0:
293,107,23690,1,0,0:0:0:0:
154,190,23874,2,0,P|132:243|131:274,1,72.2500013780594
316,174,24243,2,0,P|309:138|292:106,1,72.2500013780594,8|0,0:0|0:0,0:0:0:0:
231,256,24611,5,0,0:0:0:0:
373,280,24796,2,0,L|301:268,1,72.2500013780594,2|8,0:0|0:0,0:0:0:0:
254,114,25164,2,0,L|228:276,1,144.500002756119,2|0,0:0|0:0,0:0:0:0:
396,136,25717,1,8,0:0:0:0:
266,42,25902,1,2,0:0:0:0:
231,256,26086,5,0,0:0:0:0:
396,136,26270,1,0,0:0:0:0:
182,101,26454,1,10,0:0:0:0:
330,277,26639,2,0,L|331:351,1,72.2500013780594,2|0,0:0|0:0,0:0:0:0:
231,256,27007,1,0,0:0:0:0:
429,298,27192,1,8,0:0:0:0:
328,132,27376,6,0,L|330:277,1,144.500002756119,2|0,0:0|0:0,0:0:0:0:
257,206,27929,1,8,0:0:0:0:
473,131,28114,2,0,L|328:131,1,144.500002756119
402,204,28667,1,8,0:0:0:0:
328,59,28851,2,0,P|294:67|268:92,1,72.2500013780594
328,203,29219,1,0,0:0:0:0:
472,59,29404,1,8,0:0:0:0:
26,241,29772,5,8,0:0:0:0:
130,35,29957,1,0,0:0:0:0:
26,241,30141,1,8,0:0:0:0:
130,35,30325,1,0,0:0:0:0:
165,298,30510,6,0,P|211:256|312:265,1,152.999995330811,4|8,0:0|0:0,0:0:0:0:
408,126,31063,2,0,L|370:275,1,152.999995330811,2|0,0:0|0:0,0:0:0:0:
333,106,31616,1,8,0:0:0:0:
463,219,31800,2,0,P|466:300|448:356,1,114.749996498108
443,367,32169,5,0,0:0:0:0:
297,256,32353,1,8,0:0:0:0:
183,326,32537,2,0,L|89:298,1,76.4999976654053,2|0,0:0|0:0,0:0:0:0:
297,256,32906,5,0,0:0:0:0:
227,142,33090,1,8,0:0:0:0:
275,348,33274,2,0,P|318:348|357:328,1,76.4999976654053,2|0,0:0|0:0,0:0:0:0:
319,164,33643,5,2,0:0:0:0:
183,326,33828,1,8,0:0:0:0:
135,120,34012,2,0,P|176:61|265:56,1,152.999995330811,2|0,0:0|0:0,0:0:0:0:
249,246,34565,1,8,0:0:0:0:
227,142,34749,1,0,0:0:0:0:
352,280,34933,6,0,L|333:360,1,76.4999976654053
329,175,35302,1,8,0:0:0:0:
329,175,35671,2,0,P|263:175|219:180,1,76.4999976654053
133,240,36040,2,0,P|171:241|210:240,1,76.4999976654053,8|0,0:0|0:0,0:0:0:0:
95,173,36408,6,0,P|57:235|87:302,1,152.999995330811,2|8,0:0|0:0,0:0:0:0:
163,137,36961,2,0,L|82:179,1,76.4999976654053
200,204,37330,5,0,0:0:0:0:
127,69,37514,1,8,0:0:0:0:
133,240,37698,2,0,L|139:342,1,76.4999976654053,2|0,0:0|0:0,0:0:0:0:
200,204,38067,5,0,0:0:0:0:
26,109,38251,1,8,0:0:0:0:
201,50,38436,2,0,P|163:58|127:69,1,76.4999976654053
200,204,38804,5,0,0:0:0:0:
56,39,38989,1,8,0:0:0:0:
278,129,39173,6,0,L|274:288,1,152.999995330811,2|0,0:0|0:0,0:0:0:0:
200,204,39726,1,8,0:0:0:0:
427,285,39910,2,0,L|274:281,1,152.999995330811,2|0,0:0|0:0,0:0:0:0:
504,287,40463,1,8,0:0:0:0:
221,215,40647,6,0,P|190:272|222:350,1,152.999995330811,6|0,0:0|0:0,0:0:0:0:
352,136,41200,1,10,0:0:0:0:
274,281,41385,1,2,0:0:0:0:
210,135,41569,1,2,0:0:0:0:
382,206,41753,1,8,0:0:0:0:
173,122,41938,1,0,0:0:0:0:
274,281,42121,1,8,0:3:0:0:
274,281,42214,1,8,0:3:0:0:
274,281,42306,6,0,B|241:317|241:317|221:360|176:387,1,114.749996498108,6|0,0:0|0:0,0:0:0:0:
133,332,42675,2,0,B|166:296|166:296|186:253|231:226,1,114.749996498108,2|0,0:0|0:0,0:0:0:0:
270,202,43044,1,8,0:0:0:0:
423,152,43228,1,0,0:0:0:0:
270,102,43412,1,0,0:0:0:0:
365,233,43597,1,0,0:0:0:0:
183,153,43781,6,0,B|130:138|130:138|101:146|65:136,1,114.749996498108,2|0,0:0|0:0,0:0:0:0:
51,50,44149,2,0,B|104:65|104:65|133:57|169:67,1,114.749996498108,2|0,0:0|0:0,0:0:0:0:
248,91,44518,1,8,0:0:0:0:
118,215,44702,1,0,0:0:0:0:
163,65,44887,1,0,0:0:0:0:
203,241,45071,1,8,0:0:0:0:
333,117,45255,6,0,B|357:107|357:107|348:164|362:214,1,114.749996498108,6|0,0:0|0:0,0:0:0:0:
459,158,45624,2,0,B|435:168|435:168|444:111|430:61,1,114.749996498108,2|0,0:0|0:0,0:0:0:0:
345,19,45993,2,0,L|214:14,1,114.749996498108,10|0,0:0|0:0,0:0:0:0:
218,121,46361,2,0,L|333:117,1,114.749996498108,2|0,0:0|0:0,0:0:0:0:
345,19,46730,5,0,0:0:0:0:
131,57,46914,1,8,0:0:0:0:
332,117,47099,2,0,P|340:176|341:242,1,114.749996498108
337,308,47467,1,8,0:0:0:0:
184,294,47652,2,8,L|223:297,1,38.2499988327027,8|8,0:3|0:3,0:3:0:0:
375,311,47836,1,0,0:0:0:0:
226,218,48020,1,8,0:0:0:0:
455,237,48205,6,0,P|483:325|459:381,1,152.999995330811,4|0,0:0|0:0,0:0:0:0:
375,311,48758,1,0,0:0:0:0:
278,361,48942,2,0,P|218:366|193:364,1,76.4999976654053,8|0,0:0|0:0,0:0:0:0:
251,177,49310,2,0,P|284:195|315:219,1,76.4999976654053
155,251,49679,6,0,P|135:218|120:183,1,76.4999976654053,8|2,0:0|0:0,0:0:0:0:
46,131,50048,2,0,L|7:287,2,152.999995330811,0|8|0,0:0|0:0|0:0,0:0:0:0:
46,131,51154,5,12,0:0:0:0:
299,100,51338,1,0,0:0:0:0:
179,211,51522,1,0,0:0:0:0:
247,21,51707,5,12,0:0:0:0:
272,231,51891,1,0,0:0:0:0:
154,1,52075,1,0,0:0:0:0:
392,120,52260,5,12,0:0:0:0:
181,145,52444,1,8,0:3:0:0:
138,150,52536,1,8,0:3:0:0:
96,155,52628,5,8,0:3:0:0:
273,347,52813,1,8,0:3:0:0:
129,76,52997,1,10,0:3:0:0:
30,367,53181,1,8,0:3:0:0:
124,39,53366,1,10,0:3:0:0:
218,196,54103,6,0,P|196:129|157:71,1,140.25000428009,6|0,0:0|0:0,0:0:0:0:
124,39,54471,1,8,0:0:0:0:
25,140,54656,2,0,L|17:233,1,93.5000028533936,2|0,0:0|0:0,0:0:0:0:
231,323,55024,2,0,L|223:230,1,93.5000028533936,2|8,0:0|0:0,0:0:0:0:
16,233,55393,2,0,P|49:291|106:313,1,93.5000028533936,2|0,0:0|0:0,0:0:0:0:
231,323,55761,5,0,0:0:0:0:
25,140,55946,1,8,0:0:0:0:
223,230,56130,2,0,P|281:197|303:140,1,93.5000028533936,2|0,0:0|0:0,0:0:0:0:
399,293,56499,2,0,P|356:311|327:347,1,93.5000028533936,2|8,0:0|0:0,0:0:0:0:
210,138,56867,1,2,0:0:0:0:
386,170,57052,5,2,0:0:0:0:
327,347,57236,2,0,L|356:258,1,93.5000028533936,2|8,0:0|0:0,0:0:0:0:
208,111,57605,2,0,L|361:162,1,140.25000428009,2|0,0:0|0:0,0:0:0:0:
386,170,57974,1,2,0:0:0:0:
120,82,58158,1,8,0:0:0:0:
326,51,58342,1,2,0:0:0:0:
267,229,58526,6,0,P|263:296|268:333,1,93.5000028533936
466,213,58896,2,0,P|469:166|464:119,1,93.5000028533936,10|0,0:0|0:0,0:0:0:0:
327,51,59264,1,0,0:0:0:0:
121,150,59449,1,2,0:0:0:0:
347,190,59633,1,8,0:0:0:0:
187,24,59817,1,2,0:0:0:0:
218,251,60001,6,0,P|299:322|376:328,1,187.000005706787,6|8,0:0|0:0,0:0:0:0:
255,80,60554,2,0,P|213:136|204:204,1,140.25000428009,2|0,0:0|0:0,0:0:0:0:
218,251,60922,1,0,0:0:0:0:
347,190,61107,1,8,0:0:0:0:
89,312,61291,6,0,L|71:91,1,187.000005706787,2|0,0:0|0:0,0:0:0:0:
310,126,61844,1,8,0:0:0:0:
133,52,62028,1,0,0:0:0:0:
250,202,62213,1,2,0:0:0:0:
222,18,62397,1,0,0:0:0:0:
257,248,62582,1,10,0:0:0:0:
257,248,62950,5,6,0:0:0:0:
347,84,63134,1,0,0:0:0:0:
320,316,63319,1,8,0:0:0:0:
169,221,63503,2,0,P|151:154|179:86,1,140.25000428009,2|0,0:0|0:0,0:0:0:0:
247,44,63872,1,2,0:0:0:0:
48,152,64056,1,8,0:0:0:0:
268,160,64240,6,0,L|496:168,1,187.000005706787,6|0,0:0|0:0,0:0:0:0:
364,70,64793,1,8,0:0:0:0:
358,257,64978,1,0,0:0:0:0:
270,66,65161,1,10,0:0:0:0:
270,66,65254,1,0,0:0:0:0:
270,66,65346,1,0,0:0:0:0:
451,260,65531,1,14,0:0:0:0:
265,254,65715,1,0,0:0:0:0:
481,24,65899,6,0,L|474:220,1,152.999995330811,14|0,0:0|0:0,0:0:0:0:
473,255,66268,1,8,0:0:0:0:
277,17,66452,2,0,L|392:21,1,101.999996887207,2|8,0:0|0:0,0:0:0:0:
274,119,66821,2,0,P|218:100|188:67,1,101.999996887207,2|8,0:0|0:0,0:0:0:0:
379,20,67189,2,0,L|372:129,1,101.999996887207,2|8,0:0|0:0,0:0:0:0:
270,218,67558,5,2,0:0:0:0:
277,17,67742,1,8,0:0:0:0:
474,124,67927,2,0,P|455:180|422:210,1,101.999996887207,2|8,0:0|0:0,0:0:0:0:
274,119,68295,1,2,0:0:0:0:
336,314,68480,1,8,0:0:0:0:
157,257,68664,6,0,P|190:295|237:311,1,101.999996887207,2|8,0:0|0:0,0:0:0:0:
120,162,69033,1,2,0:0:0:0:
336,314,69217,1,10,0:0:0:0:
302,132,69401,6,0,P|280:187|243:214,1,101.999996887207,2|8,0:0|0:0,0:0:0:0:
304,34,69769,1,2,0:0:0:0:
152,250,69954,1,8,0:0:0:0:
203,122,70139,1,2,0:0:0:0:
51,338,70323,6,0,P|10:284|38:186,1,152.999995330811,10|0,0:0|0:0,0:0:0:0:
67,142,70692,1,10,0:0:0:0:
152,250,70876,1,0,0:0:0:0:
117,14,71060,1,10,0:0:0:0:
203,122,71244,1,2,0:0:0:0:
438,88,71429,1,8,0:0:0:0:
152,130,71613,1,2,0:0:0:0:
419,274,71798,5,14,0:0:0:0:
217,245,71982,2,0,L|347:265,1,101.999996887207,2|8,0:0|0:0,0:0:0:0:
438,88,72351,1,2,0:0:0:0:
317,260,72535,1,8,0:0:0:0:
152,130,72719,2,0,P|198:149|249:151,1,101.999996887207,2|8,0:0|0:0,0:0:0:0:
138,29,73087,1,2,0:0:0:0:
83,291,73272,5,8,0:0:0:0:
57,91,73456,1,0,0:0:0:0:
83,291,73641,1,10,0:0:0:0:
138,29,73825,1,0,0:0:0:0:
260,269,74009,2,0,P|331:290|388:244,1,152.999995330811,10|0,0:0|0:0,0:0:0:0:
316,214,74378,1,10,0:0:0:0:
392,348,74562,1,0,0:0:0:0:
205,214,74746,6,0,P|184:284|230:341,1,152.999995330811,10|0,0:0|0:0,0:0:0:0:
260,269,75115,1,8,0:0:0:0:
108,244,75299,1,2,0:0:0:0:
176,92,75484,5,8,0:0:0:0:
230,341,75668,1,0,0:0:0:0:
370,131,75852,5,10,0:0:0:0:
108,244,76037,1,0,0:0:0:0:
260,39,76221,6,8,L|260:192,1,152.999995330811,10|0,0:0|0:0,0:0:0:0:
260,269,76590,1,8,0:0:0:0:
260,13,76774,1,2,0:0:0:0:
260,294,76958,1,8,0:0:0:0:
370,132,77143,5,8,0:3:0:0:
150,131,77327,1,10,0:3:0:0:
260,39,77511,1,0,0:0:0:0:
299,264,77696,6,0,B|236:287|181:243|181:243|150:248|130:271|130:271|82:228|21:260,1,297.5,4|0,0:0|0:0,0:0:0:0:
70,331,79170,6,0,P|116:353|160:347,2,85,4|0|4,0:0|0:0|0:3,0:0:0:0:
23,255,80092,1,8,0:3:0:0:
23,233,80184,1,8,0:3:0:0:
23,211,80276,2,0,P|27:175|29:160,1,42.5,8|0,0:0|0:0,0:0:0:0:
48,42,80461,2,0,P|50:63|53:84,1,42.5,8|0,0:0|0:0,0:0:0:0:
142,171,80645,6,0,L|233:171,1,85,6|0,0:0|0:0,0:0:0:0:
397,171,81014,1,8,0:0:0:0:
227,256,81198,1,0,0:0:0:0:
397,86,81382,2,0,P|463:117|475:138,1,85
227,256,81751,1,10,0:0:0:0:
397,171,81935,1,0,0:0:0:0:
227,341,82120,6,0,P|161:310|149:289,1,85
312,86,82488,1,8,0:0:0:0:
312,256,82672,1,0,0:0:0:0:
312,44,82857,1,10,0:0:0:0:
397,256,83041,5,2,0:0:0:0:
386,296,83133,1,0,0:0:0:0:
357,327,83225,1,10,0:0:0:0:
318,340,83317,1,0,0:0:0:0:
276,333,83409,1,2,0:0:0:0:
244,306,83501,1,0,0:0:0:0:
228,267,83594,5,6,0:0:0:0:
302,115,83778,1,0,0:0:0:0:
165,329,83963,1,8,0:0:0:0:
12,277,84147,1,2,0:0:0:0:
12,277,84239,1,0,0:0:0:0:
12,277,84331,2,0,P|4:222|4:206,1,42.5,8|0,0:0|0:0,0:0:0:0:
160,187,84516,1,4,0:3:0:0:
71,354,84700,1,0,0:0:0:0:
85,67,84884,5,6,0:0:0:0:
256,192,84976,12,0,85898,0:0:0:0:
