osu file format v14

[General]
AudioFilename: audio.mp3
AudioLeadIn: 0
PreviewTime: 65211
Countdown: 0
SampleSet: Soft
StackLeniency: 0.5
Mode: 0
LetterboxInBreaks: 0
WidescreenStoryboard: 1

[Editor]
Bookmarks: 1587,14473,27359,40245,53131,66017,78903,91789,104674,117560,130446,143332,156218,169104,181990,196487,209372,222259,235145
DistanceSpacing: 1.6
BeatDivisor: 4
GridSize: 16
TimelineZoom: 2.999999

[Metadata]
Title:Diver
TitleUnicode:Diver
Artist:NICO Touches the Walls
ArtistUnicode:NICO Touches the Walls
Creator:elicz1
Version:Hard
Source:NARUTO-ナルト-疾風伝
Tags:some hero naruto uzumaki うずまき ナルト sasuke uchiha うちは サスケ op opening 8 anime shippuden うずまきナルト うちはサスケ shippuuden shippūden japanese rock passenger op8 male vocalist jrock j-rock
BeatmapID:2798518
BeatmapSetID:1346012

[Difficulty]
HPDrainRate:5
CircleSize:3.6
OverallDifficulty:6.5
ApproachRate:7.9
SliderMultiplier:1.6
SliderTickRate:1

[Events]
//Background and Video events
0,0,"2xresnarutojp.jpg",0,0
//Break Periods
//Storyboard Layer 0 (Background)
//Storyboard Layer 1 (Fail)
//Storyboard Layer 2 (Pass)
//Storyboard Layer 3 (Foreground)
//Storyboard Layer 4 (Overlay)
//Storyboard Sound Samples

[TimingPoints]
-23,402.684563758389,4,2,1,70,1,0
1185,-200,4,2,1,50,0,0
1487,-200,4,2,1,5,0,0
1587,-100,4,2,1,70,0,0
2393,-83.3333333333333,4,2,1,70,0,1
2795,-83.3333333333333,4,2,1,70,0,0
2997,-100,4,2,1,70,0,0
5614,-83.3333333333333,4,2,1,70,0,1
6017,-83.3333333333333,4,2,1,70,0,0
6218,-100,4,2,1,70,0,0
7628,-166.666666666667,4,2,1,70,0,0
8433,-100,4,2,1,70,0,0
8836,-83.3333333333333,4,2,1,70,0,1
9238,-83.3333333333333,4,2,1,70,0,0
9440,-100,4,2,1,70,0,0
12057,-83.3333333333333,4,2,1,70,0,1
12460,-83.3333333333333,4,2,1,70,0,0
12661,-100,4,2,1,70,0,0
13466,-100,4,2,1,65,0,0
14070,-100,4,2,1,60,0,0
14473,-200,4,2,1,60,0,0
15279,-100,4,2,1,60,0,0
16084,-200,4,2,1,60,0,0
16889,-100,4,2,1,60,0,0
17695,-200,4,2,1,60,0,0
18500,-100,4,2,1,60,0,0
19305,-200,4,2,1,60,0,0
20312,-100,4,2,1,60,0,0
20916,-200,4,2,1,60,0,0
21721,-100,4,2,1,60,0,0
22527,-200,4,2,1,60,0,0
23332,-100,4,2,1,60,0,0
24138,-200,4,2,1,60,0,0
24943,-100,4,2,1,60,0,0
25748,-200,4,2,1,60,0,0
26554,-100,4,2,1,60,0,0
27359,-100,4,2,1,55,0,0
37426,-200,4,2,1,50,0,0
38232,-100,4,2,1,50,0,0
38634,-100,4,2,1,65,0,0
39440,-100,4,2,1,60,0,0
39842,-100,4,2,1,55,0,0
40245,-111.111111111111,4,2,1,65,0,0
65211,-111.111111111111,4,2,1,55,0,0
66017,-76.9230769230769,4,2,1,85,0,1
67628,-100,4,2,1,85,0,1
68433,-133.333333333333,4,2,1,85,0,1
69238,-76.9230769230769,4,2,1,85,0,1
70849,-100,4,2,1,85,0,1
71654,-133.333333333333,4,2,1,85,0,1
72460,-76.9230769230769,4,2,1,85,0,1
73869,-100,4,2,1,85,0,1
74272,-133.333333333333,4,2,1,85,0,1
77091,-76.9230769230769,4,2,1,85,0,1
77695,-100,4,2,1,85,0,1
78903,-76.9230769230769,4,2,1,85,0,1
80513,-100,4,2,1,85,0,1
81319,-133.333333333333,4,2,1,85,0,1
82124,-76.9230769230769,4,2,1,85,0,1
83735,-100,4,2,1,85,0,1
84540,-133.333333333333,4,2,1,85,0,1
85346,-76.9230769230769,4,2,1,85,0,1
86151,-100,4,2,1,85,0,1
86755,-76.9230769230769,4,2,1,85,0,1
87158,-100,4,2,1,85,0,1
87560,-133.333333333333,4,2,1,85,0,1
90782,-100,4,2,1,85,0,1
91789,-100,4,2,1,70,0,0
92594,-83.3333333333333,4,2,1,70,0,1
92997,-83.3333333333333,4,2,1,70,0,0
93198,-100,4,2,1,70,0,0
95815,-83.3333333333333,4,2,1,70,0,1
96218,-83.3333333333333,4,2,1,70,0,0
96419,-100,4,2,1,70,0,0
97829,-166.666666666667,4,2,1,70,0,0
98634,-100,4,2,1,70,0,0
99037,-83.3333333333333,4,2,1,70,0,1
99440,-83.3333333333333,4,2,1,70,0,0
99641,-100,4,2,1,70,0,0
102258,-83.3333333333333,4,2,1,70,0,1
102661,-83.3333333333333,4,2,1,70,0,0
102862,-100,4,2,1,70,0,0
103466,-100,4,2,1,65,0,0
104272,-100,4,2,1,60,0,0
104674,-200,4,2,1,60,0,0
105480,-100,4,2,1,60,0,0
106285,-200,4,2,1,60,0,0
107091,-100,4,2,1,60,0,0
107896,-200,4,2,1,60,0,0
108701,-100,4,2,1,60,0,0
109507,-200,4,2,1,60,0,0
110513,-100,4,2,1,60,0,0
111117,-200,4,2,1,60,0,0
111923,-100,4,2,1,60,0,0
112728,-200,4,2,1,60,0,0
113534,-100,4,2,1,60,0,0
114339,-200,4,2,1,60,0,0
115144,-100,4,2,1,60,0,0
115950,-200,4,2,1,60,0,0
116755,-100,4,2,1,55,0,0
117158,-100,4,2,1,50,0,0
117560,-100,4,2,1,60,0,0
127225,-100,4,2,1,55,0,0
127829,-100,4,2,1,60,0,0
128836,-100,4,2,1,70,0,0
129440,-100,4,2,1,65,0,0
129641,-100,4,2,1,60,0,0
129842,-100,4,2,1,55,0,0
130044,-100,4,2,1,50,0,0
130446,-111.111111111111,4,2,1,65,0,0
155211,-111.111111111111,4,2,1,50,0,0
156218,-100,4,2,2,80,0,1
156822,-90.9090909090909,4,2,2,80,0,1
157628,-76.9230769230769,4,2,2,80,0,1
158433,-133.333333333333,4,2,2,80,0,1
159238,-83.3333333333333,4,2,2,80,0,1
160044,-133.333333333333,4,2,2,80,0,1
160849,-100,4,2,2,80,0,1
161252,-133.333333333333,4,2,2,80,0,1
161654,-100,4,2,2,80,0,1
164876,-83.3333333333333,4,2,2,80,0,1
165480,-100,4,2,2,80,0,1
169003,-100,4,2,1,80,0,1
169104,-100,4,2,2,80,0,1
169909,-83.3333333333333,4,2,2,80,0,1
170513,-133.333333333333,4,2,2,80,0,1
171117,-100,4,2,2,80,0,1
173131,-83.3333333333333,4,2,2,80,0,1
173735,-133.333333333333,4,2,2,80,0,1
174138,-100,4,2,2,80,0,1
176352,-83.3333333333333,4,2,2,80,0,1
176956,-100,4,2,2,80,0,1
177560,-90.9090909090909,4,2,2,80,0,1
177963,-83.3333333333333,4,2,2,80,0,1
178768,-100,4,2,2,80,0,1
181990,-100,4,2,1,50,0,0
190044,-100,4,2,2,50,0,0
191654,-100,4,2,1,55,0,0
192460,-133.333333333333,4,2,1,50,0,0
193265,-500,4,2,1,60,0,0
193668,-500,4,2,2,62,0,0
194070,-500,4,2,1,64,0,0
194473,-500,4,2,2,66,0,0
194876,-500,4,2,1,68,0,0
195279,-500,4,2,2,70,0,0
195681,-500,4,2,1,5,0,0
196084,-500,4,2,1,70,0,0
196487,-76.9230769230769,4,2,1,85,0,1
198097,-100,4,2,1,85,0,1
198903,-133.333333333333,4,2,1,85,0,1
199708,-76.9230769230769,4,2,1,85,0,1
201319,-100,4,2,1,85,0,1
202124,-133.333333333333,4,2,1,85,0,1
202930,-76.9230769230769,4,2,1,85,0,1
204339,-100,4,2,1,85,0,1
204742,-133.333333333333,4,2,1,85,0,1
207560,-76.9230769230769,4,2,1,85,0,1
208164,-100,4,2,1,85,0,1
209372,-76.9230769230769,4,2,1,85,0,1
210983,-100,4,2,1,85,0,1
211789,-133.333333333333,4,2,1,85,0,1
212594,-76.9230769230769,4,2,1,85,0,1
214205,-100,4,2,1,85,0,1
215010,-133.333333333333,4,2,1,85,0,1
215815,-76.9230769230769,4,2,1,85,0,1
216621,-100,4,2,1,85,0,1
217225,-76.9230769230769,4,2,1,85,0,1
217628,-100,4,2,1,85,0,1
218030,-133.333333333333,4,2,1,85,0,1
221252,-100,4,2,1,85,0,1
222258,-76.9230769230769,4,2,1,85,0,1
223869,-100,4,2,1,85,0,1
224674,-133.333333333333,4,2,1,85,0,1
225883,-100,4,2,1,85,0,1
228701,-83.3333333333333,4,2,1,85,0,1
229305,-100,4,2,1,85,0,1
235144,-200,4,2,1,70,0,0
236352,-200,4,2,1,60,0,0
236755,-166.666666666667,4,2,2,52,0,0
237158,-166.666666666667,4,2,1,46,0,0
237560,-166.666666666667,4,2,2,38,0,0
237963,-166.666666666667,4,2,1,30,0,0
238366,-166.666666666667,4,2,2,24,0,0
238768,-166.666666666667,4,2,1,18,0,0
239171,-166.666666666667,4,2,2,12,0,0
239574,-166.666666666667,4,2,2,7,0,0
239976,-200,4,2,2,5,0,0
240077,-200,4,2,1,60,0,0
241587,-200,4,2,1,55,0,0
242393,-200,4,2,1,50,0,0
243198,-200,4,2,1,45,0,0
243601,-200,4,2,1,40,0,0
244003,-200,4,2,1,35,0,0
244205,-200,4,2,1,30,0,0
244406,-200,4,2,1,25,0,0
245211,-200,4,2,1,5,0,0

[Colours]
Combo1 : 77,206,244
Combo2 : 220,97,5
Combo3 : 223,189,53
Combo4 : 108,82,186
Combo5 : 69,83,203
Combo6 : 123,139,145
Combo7 : 181,181,181

[HitObjects]
512,28,1185,102,0,P|482:36|446:49,1,60
420,20,1587,69,6,1:2:0:0:
420,20,1789,1,2,0:2:0:0:
339,79,1990,2,0,P|356:122|368:163,1,80,2|2,1:2|0:2,0:0:0:0:
472,210,2393,22,2,B|422:236|422:236|390:374,1,191.999994140625,2|2,1:1|1:2,0:1:0:0:
295,348,2997,70,0,P|260:337|187:326,1,80,2|2,3:2|1:2,0:0:0:0:
156,259,3399,2,0,P|173:221|225:213,2,80,2|2|2,3:2|1:2|0:2,0:0:0:0:
99,335,4003,22,2,P|52:326|8:321,1,80,2|0,1:2|3:2,0:1:0:0:
5,200,4406,2,2,P|52:209|96:214,1,80,2|0,1:2|3:2,0:1:0:0:
145,131,4809,69,2,1:2:0:0:
145,131,5010,1,2,3:2:0:0:
245,169,5211,2,0,P|228:212|218:258,1,80,2|2,1:2|0:2,0:0:0:0:
297,335,5614,22,2,B|368:316|368:316|412:347|412:347|498:325,1,191.999994140625,2|2,1:1|1:2,0:1:0:0:
512,233,6218,70,0,P|491:199|476:141,1,80,2|2,3:2|1:2,0:0:0:0:
484,62,6621,1,2,3:2:0:0:
408,84,6822,1,2,1:2:0:0:
314,36,7023,21,2,0:2:0:0:
310,51,7124,1,2,0:2:0:0:
307,66,7225,2,0,B|264:78|264:78|229:53,1,80,2|2,1:2|3:2,0:0:0:0:
170,118,7628,2,0,P|187:147|203:188,1,71.9999978027344,2|0,1:2|0:0,0:0:0:0:
245,198,8030,69,6,1:2:0:0:
245,198,8232,1,2,3:2:0:0:
204,298,8433,2,0,P|164:283|125:275,1,80,2|2,1:2|0:2,0:0:0:0:
33,205,8836,22,2,B|4:71|4:71|53:30,1,191.999994140625,2|2,1:1|1:2,0:1:0:0:
149,30,9440,70,0,P|185:19|243:10,1,80,2|2,3:2|1:2,0:0:0:0:
320,60,9842,2,0,P|297:92|247:95,2,80,2|2|2,3:2|1:2|0:2,0:0:0:0:
413,26,10446,22,2,P|424:58|438:111,1,80,2|0,1:2|3:2,0:1:0:0:
512,165,10849,2,2,P|493:214|486:260,1,80,2|0,1:2|3:2,0:1:0:0:
512,347,11252,69,2,1:2:0:0:
512,347,11453,1,2,3:2:0:0:
417,384,11654,2,0,P|379:373|335:366,1,80,2|2,1:2|0:2,0:0:0:0:
250,289,12057,22,2,B|288:279|288:279|316:155|316:155|366:140,1,191.999994140625,2|2,1:1|1:2,0:1:0:0:
290,57,12661,70,0,P|247:69|185:77,1,80,2|2,3:2|1:2,0:0:0:0:
107,58,13064,1,2,3:2:0:0:
114,136,13265,1,6,1:2:0:0:
44,208,13466,21,0,1:2:0:0:
48,223,13567,1,0,1:2:0:0:
52,238,13668,2,0,L|30:297,2,40,0|0|8,1:2|1:2|0:3,0:0:0:0:
143,312,14070,69,8,1:3:0:0:
161,305,14171,1,8,1:3:0:0:
178,298,14272,1,4,0:3:0:0:
278,331,14473,38,0,P|284:354|293:374,3,40,4|0|0|0,3:2|0:0|3:2|0:0,0:0:0:0:
321,240,15279,86,2,B|270:255|270:255|142:179|142:179|86:196,1,240,2|0,3:1|0:0,3:1:0:0:
15,229,16084,22,0,P|9:249|1:266,3,40,0|0|0|0,3:2|0:0|3:2|0:0,0:0:0:0:
9,128,16889,70,2,B|37:99|37:99|82:114,1,80,2|2,3:1|0:2,0:1:0:0:
128,52,17292,2,0,B|167:61|167:61|176:108,1,80,2|2,3:2|0:3,0:0:0:0:
258,150,17695,6,0,P|275:144|307:138,3,40,0|0|0|0,3:2|0:0|3:2|0:0,0:0:0:0:
387,175,18500,86,2,B|356:205|356:205|397:323,1,160,2|2,3:1|3:2,0:1:0:0:
341,375,19104,1,2,0:2:0:0:
263,317,19305,22,0,P|246:312|223:309,3,40,0|0|0|2,3:2|0:0|3:2|0:3,0:0:0:0:
167,363,20111,1,2,3:3:0:0:
133,257,20312,70,2,B|141:230|141:230|241:213|241:213|253:178,1,160,2|2,0:1|0:3,0:1:0:0:
253,98,20916,6,0,P|246:75|238:57,3,40,4|0|0|0,3:2|0:0|3:2|0:0,0:0:0:0:
135,43,21721,86,2,B|56:26|56:26|13:111,1,160,2|2,3:1|3:2,0:1:0:0:
95,127,22325,1,2,0:2:0:0:
36,199,22527,22,0,P|27:219|22:242,3,40,0|0|0|0,3:2|0:0|3:2|0:0,0:0:0:0:
107,297,23332,70,2,B|127:318|127:318|188:299,1,80,2|2,3:1|0:2,0:1:0:0:
204,227,23735,2,0,B|232:220|232:220|246:157,1,80,2|2,3:2|0:3,0:0:0:0:
280,84,24138,6,0,P|255:75|233:71,3,40,0|0|0|0,3:2|0:0|3:2|0:0,0:0:0:0:
374,42,24943,86,2,B|384:97|384:97|436:116|436:116|451:188,1,160,2|2,3:1|3:2,0:1:0:0:
369,188,25547,1,2,0:2:0:0:
377,291,25748,22,0,B|358:280|358:280|333:285,1,40,0|2,3:2|0:2,0:0:0:0:
288,343,26151,2,0,L|298:392,1,40,2|0,3:2|0:0,0:0:0:0:
227,277,26554,70,0,B|202:245|202:245|163:253,2,80,2|2|0,3:2|0:2|1:2,0:0:0:0:
188,346,27158,1,2,0:3:0:0:
173,341,27258,1,2,0:3:0:0:
158,336,27359,70,0,L|-22:383,2,160,6|0|0,3:2|0:0|0:0,0:0:0:0:
38,210,28567,1,0,1:2:0:0:
205,154,28970,6,0,L|247:-4,2,160,2|0|0,3:2|3:2|3:2,3:2:0:0:
276,314,30178,1,0,1:2:0:0:
352,155,30581,86,0,L|515:171,2,160,2|0|0,3:2|3:0|3:0,0:0:0:0:
204,58,31789,1,0,1:2:0:0:
379,41,32191,6,0,L|348:219,1,160,2|0,3:2|3:2,3:2:0:0:
209,302,32997,2,0,P|233:343|251:387,2,80,2|2|2,3:2|0:2|1:2,0:0:0:0:
126,146,33802,86,0,L|304:109,2,160,6|0|0,3:2|0:0|0:0,0:0:0:0:
229,3,35010,1,0,1:2:0:0:
341,174,35413,5,2,3:2:0:0:
272,330,35815,1,0,3:2:0:0:
115,270,36218,2,0,P|103:227|81:175,1,80,2|0,3:3|1:2,0:0:0:0:
16,157,36621,1,8,0:3:0:0:
16,157,36822,1,0,0:0:0:0:
44,72,37023,5,6,1:2:0:0:
44,72,37426,2,0,P|67:78|87:85,1,40,0|0,3:2|1:2,0:0:0:0:
164,5,37829,2,0,P|156:29|151:56,1,40,0|4,3:2|0:3,0:0:0:0:
170,147,38232,70,0,B|226:138|226:138|260:165|260:165|344:150,1,160,0|0,3:2|1:2,0:0:0:0:
327,168,38735,1,0,3:2:0:0:
335,181,38836,2,0,P|324:214|322:232,1,40,0|0,3:0|3:2,0:0:0:0:
346,260,39037,2,0,P|365:262|385:267,2,40,4|0|4,0:3|3:2|0:3,0:0:0:0:
229,250,39440,22,0,P|207:256|177:269,2,40,0|0|0,1:2|1:2|3:0,0:0:0:0:
199,344,39842,2,0,P|240:357|302:383,1,80,4|0,1:2|0:0,0:0:0:0:
388,384,40245,6,0,P|395:346|411:307,1,71.9999978027344,6|2,1:2|3:2,0:0:0:0:
401,226,40648,2,0,P|362:218|320:205,1,71.9999978027344,2|2,3:2|1:2,0:0:0:0:
243,237,41050,2,0,P|214:175|145:163,1,143.999995605469,2|2,0:2|0:2,0:0:0:0:
65,224,41654,6,0,P|57:191|43:155,1,71.9999978027344,2|4,1:2|1:2,0:0:0:0:
0,84,42057,1,2,3:2:0:0:
73,33,42258,2,0,P|118:39|163:57,1,71.9999978027344,2|0,3:2|1:2,0:0:0:0:
185,123,42661,2,0,P|218:111|244:74,2,71.9999978027344,2|0|0,0:2|3:2|0:0,0:0:0:0:
188,231,43265,85,2,1:2:0:0:
134,300,43466,2,0,P|155:341|165:373,1,71.9999978027344,4|2,1:2|3:2,0:0:0:0:
249,384,43869,2,0,P|285:368|324:357,1,71.9999978027344,2|2,3:2|1:2,0:0:0:0:
401,374,44272,2,0,P|411:333|441:310,2,71.9999978027344,2|2|2,0:2|3:2|0:2,0:0:0:0:
335,268,44876,5,2,1:2:0:0:
339,253,44976,1,2,0:0:0:0:
343,238,45077,2,0,P|323:202|305:163,1,71.9999978027344,6|0,1:2|3:2,0:0:0:0:
230,136,45480,2,0,P|186:149|132:155,2,71.9999978027344,2|0|2,3:2|1:2|3:2,0:0:0:0:
284,64,46084,1,2,1:2:0:0:
185,18,46285,86,0,P|149:39|141:77,1,71.9999978027344,6|8,1:2|0:3,0:0:0:0:
68,118,46688,2,0,P|89:171|94:209,1,71.9999978027344,6|2,1:2|3:2,0:0:0:0:
90,280,47091,5,2,3:2:0:0:
176,258,47292,1,2,1:2:0:0:
189,263,47393,1,2,0:3:0:0:
204,270,47493,2,0,P|248:258|295:254,1,71.9999978027344,2|2,0:3|3:2,0:0:0:0:
348,299,47896,85,2,0:2:0:0:
367,211,48097,2,0,P|369:190|378:159,1,35.9999989013672,2|2,1:2|0:3,0:0:0:0:
340,142,48299,2,0,P|325:102|318:70,1,71.9999978027344,4|2,1:2|3:2,0:0:0:0:
369,0,48701,5,2,3:2:0:0:
437,44,48903,2,0,P|469:28|535:29,2,71.9999978027344,2|0|0,1:2|0:0|3:2,0:0:0:0:
376,115,49507,2,0,P|367:158|363:212,1,71.9999978027344,2|0,0:2|1:2,0:0:0:0:
389,288,49909,85,6,1:2:0:0:
389,288,50111,1,0,3:2:0:0:
312,330,50312,2,0,P|276:319|221:310,1,71.9999978027344,0|0,3:2|1:2,0:0:0:0:
145,329,50715,5,0,0:0:0:0:
105,254,50916,1,0,3:2:0:0:
105,254,51319,1,0,1:2:0:0:
165,152,51520,85,0,1:2:0:0:
165,152,51721,1,0,3:2:0:0:
248,178,51923,2,0,P|286:166|333:158,1,71.9999978027344,0|0,3:2|1:2,0:0:0:0:
417,169,52325,5,6,3:2:0:0:
450,89,52527,1,2,1:2:0:0:
436,81,52628,1,0,1:2:0:0:
422,74,52728,2,0,P|426:49|432:28,2,35.9999989013672,2|0|10,1:2|1:2|0:3,0:0:0:0:
304,109,53131,85,4,1:2:0:0:
316,195,53332,2,0,P|332:226|344:261,2,71.9999978027344,2|2|2,3:2|3:2|1:3,0:0:0:0:
241,235,53936,2,0,P|206:243|176:225,1,71.9999978027344,2|2,0:2|3:2,0:0:0:0:
148,143,54339,1,2,0:2:0:0:
66,191,54540,6,0,P|61:243|51:277,1,71.9999978027344,2|0,1:2|1:2,0:0:0:0:
98,343,54943,2,0,P|136:334|193:328,1,71.9999978027344,2|0,3:2|3:2,0:0:0:0:
252,351,55346,1,2,1:2:0:0:
316,284,55547,2,0,P|359:282|383:322,2,71.9999978027344,2|0|0,0:2|3:2|0:0,0:0:0:0:
250,203,56151,85,2,1:2:0:0:
264,115,56352,2,0,P|271:81|286:39,2,71.9999978027344,6|2|2,1:2|3:2|3:2,0:0:0:0:
177,103,56956,2,0,P|116:91|32:86,1,143.999995605469,2|2,1:3|3:2,0:0:0:0:
0,165,57560,1,2,0:2:0:0:
82,212,57762,6,0,P|101:251|115:309,1,71.9999978027344,2|4,1:2|1:2,0:0:0:0:
79,364,58164,1,2,3:2:0:0:
171,380,58366,2,0,P|204:367|240:361,1,71.9999978027344,2|2,3:2|1:2,0:0:0:0:
303,300,58768,1,0,3:2:0:0:
223,253,58970,2,0,P|219:212|259:181,2,71.9999978027344,2|4|0,1:2|1:2|3:2,0:0:0:0:
318,181,59574,86,0,P|353:184|408:197,1,71.9999978027344,2|0,1:2|3:2,0:0:0:0:
467,225,59976,1,2,3:2:0:0:
476,133,60178,2,0,P|490:102|519:65,2,71.9999978027344,2|0|0,1:2|0:0|3:2,0:0:0:0:
400,85,60782,1,2,0:2:0:0:
304,83,60983,2,0,P|320:122|333:171,1,71.9999978027344,2|0,1:2|1:2,0:0:0:0:
273,216,61386,2,0,P|263:256|256:313,1,71.9999978027344,0|2,3:2|3:2,0:0:0:0:
177,333,61789,5,2,1:2:0:0:
170,319,61889,1,2,0:0:0:0:
163,305,61990,2,0,P|129:314|81:332,1,71.9999978027344,6|0,0:0|3:2,0:0:0:0:
23,262,62393,2,0,P|34:222|41:165,1,71.9999978027344,2|2,0:2|1:2,0:0:0:0:
10,90,62795,85,4,1:2:0:0:
87,104,62997,1,0,3:2:0:0:
164,118,63198,1,0,3:2:0:0:
234,46,63399,6,0,P|269:46|306:-1,1,71.9999978027344,2|0,1:3|3:2,0:0:0:0:
365,82,63802,2,0,P|393:103|428:103,1,71.9999978027344,2|2,1:3|3:3,0:0:0:0:
493,176,64205,1,4,1:2:0:0:
417,229,64406,85,0,0:0:0:0:
392,305,64607,2,0,L|408:346,2,35.9999989013672,2|2|2,3:2|2:2|1:2,0:0:0:0:
141,262,65211,54,0,P|181:253|228:247,1,71.9999978027344,2|2,1:2|0:2,0:0:0:0:
289,261,65614,1,2,1:2:0:0:
306,8,66017,22,2,B|249:16|224:53|247:83|223:136|151:135,1,207.999990478516,6|0,3:2|1:2,0:1:0:0:
71,199,66621,1,0,3:2:0:0:
179,272,66822,6,2,B|172:246|179:224|198:227|207:198|196:174,2,103.999995239258,2|0|0,3:2|3:2|1:2,0:1:0:0:
263,337,67426,1,0,0:0:0:0:
354,310,67628,6,0,B|310:319|284:299|292:271|261:240|211:259,1,160,2|0,3:1|1:2,0:0:0:0:
133,337,68232,1,0,3:2:0:0:
45,256,68433,6,0,P|57:221|64:187,1,60.0000022888184,2|2,3:2|3:2,0:0:0:0:
127,141,68836,2,0,P|158:148|204:149,1,60.0000022888184,2|2,1:2|0:2,0:0:0:0:
283,223,69238,6,2,P|310:127|353:8,1,207.999990478516,2|0,3:2|1:2,0:1:0:0:
458,2,69842,1,0,3:2:0:0:
470,118,70044,38,2,P|423:96|374:80,2,103.999995239258,2|0|0,3:2|3:2|1:2,0:1:0:0:
509,204,70648,1,2,0:0:0:0:
441,268,70849,6,0,P|399:275|279:308,1,160,2|0,3:1|1:2,0:0:0:0:
202,344,71453,1,0,3:2:0:0:
164,249,71654,6,0,P|135:242|108:229,1,60.0000022888184,2|2,3:2|3:2,0:0:0:0:
11,184,72057,2,0,P|39:177|67:164,1,60.0000022888184,2|2,1:2|0:2,0:0:0:0:
68,121,72359,1,2,2:3:0:0:
76,105,72460,6,0,P|99:152|135:310,1,207.999990478516,6|2,3:2|1:2,0:0:0:0:
130,383,73064,1,2,3:2:0:0:
232,344,73265,5,2,3:2:0:0:
325,356,73466,1,2,3:2:0:0:
418,367,73668,1,2,1:2:0:0:
410,275,73869,38,0,P|415:232|427:180,1,80,2|2,0:2|3:2,0:0:0:0:
485,131,74272,2,0,P|472:91|461:49,2,60.0000022888184,2|0|0,3:2|1:2|3:2,0:0:0:0:
377,108,74876,6,0,P|349:103|297:84,1,60.0000022888184,2|2,3:2|3:2,0:0:0:0:
258,156,75279,2,0,P|271:191|292:261,1,90.0000034332277,2|0,1:2|0:0,0:0:0:0:
326,265,75681,5,2,3:2:0:0:
142,313,76084,1,2,1:2:0:0:
95,130,76487,1,2,3:2:0:0:
308,15,76889,5,2,1:2:0:0:
308,15,77091,2,0,P|269:122|237:243,1,207.999990478516,2|2,0:1|3:2,0:0:0:0:
146,220,77695,2,0,B|175:257|175:257|183:304,1,80,0|0,1:2|3:2,0:0:0:0:
135,357,78097,5,2,3:2:0:0:
230,383,78299,1,2,1:3:0:0:
292,330,78500,37,2,1:3:0:0:
383,345,78701,1,8,0:3:0:0:
392,331,78802,1,4,0:3:0:0:
401,318,78903,6,2,P|369:266|463:156,1,207.999990478516,6|0,3:2|1:2,0:1:0:0:
440,41,79507,1,0,3:2:0:0:
317,65,79708,6,2,P|360:89|374:139,2,103.999995239258,2|0|0,3:2|3:2|1:2,0:1:0:0:
222,75,80312,1,2,0:2:0:0:
246,187,80513,6,0,P|155:171|105:232,1,160,2|0,3:1|1:2,0:0:0:0:
94,305,81117,1,2,3:2:0:0:
0,257,81319,6,0,P|10:223|22:179,1,60.0000022888184,2|2,3:2|3:2,0:0:0:0:
64,124,81721,2,0,P|53:90|42:46,1,60.0000022888184,2|0,1:2|3:2,0:0:0:0:
132,15,82124,38,2,P|230:29|340:61,1,207.999990478516,2|0,3:2|1:2,0:1:0:0:
426,127,82728,1,0,3:2:0:0:
319,196,82930,6,2,P|315:151|300:92,2,103.999995239258,2|0|0,3:2|3:2|1:2,0:1:0:0:
285,300,83534,1,2,0:2:0:0:
200,233,83735,6,0,P|146:244|31:284,1,160,2|0,3:1|1:2,0:0:0:0:
16,376,84339,1,0,3:2:0:0:
126,359,84540,6,0,P|161:369|208:377,1,60.0000022888184,2|2,3:2|3:2,0:0:0:0:
271,331,84943,2,0,P|306:321|353:313,1,60.0000022888184,2|2,1:2|0:3,0:0:0:0:
370,336,85245,1,2,0:3:0:0:
382,347,85346,6,0,P|402:256|438:146,1,207.999990478516,6|2,3:2|1:2,0:0:0:0:
267,19,86151,2,0,P|184:7|145:63,1,160,2|2,3:2|1:2,0:0:0:0:
155,155,86755,38,0,P|103:142|45:134,1,103.999995239258,2|0,0:1|3:2,0:0:0:0:
2,217,87158,2,0,P|12:253|21:309,1,80,2|0,3:2|1:2,0:0:0:0:
110,328,87560,2,0,P|141:320|180:313,2,60.0000022888184,2|0|2,3:2|3:2|3:2,0:0:0:0:
111,239,88164,1,6,1:2:0:0:
318,298,88567,6,0,P|320:269|332:236,1,60.0000022888184,4|0,3:2|3:2,0:0:0:0:
265,181,88970,2,0,P|262:147|251:119,1,60.0000022888184,0|0,1:2|3:2,0:0:0:0:
193,62,89372,1,0,1:2:0:0:
193,62,89574,1,0,3:2:0:0:
277,20,89775,5,0,1:2:0:0:
362,47,89976,1,6,1:2:0:0:
447,74,90178,2,0,P|432:110|427:132,1,60.0000022888184,2|2,0:0|3:2,0:0:0:0:
444,214,90581,5,2,1:2:0:0:
444,214,90782,2,0,P|357:227|259:251,1,160,2|2,3:2|1:2,0:0:0:0:
233,321,91386,5,2,1:2:0:0:
218,317,91487,1,0,1:2:0:0:
203,313,91587,1,10,0:3:0:0:
99,355,91789,5,6,1:2:0:0:
99,355,91990,1,2,0:2:0:0:
21,297,92191,2,0,P|38:254|50:213,1,80,2|2,1:2|0:2,0:0:0:0:
78,100,92594,22,2,B|102:154|102:154|188:167|188:167|211:214,1,191.999994140625,2|2,1:1|1:2,0:1:0:0:
307,239,93198,70,0,P|342:228|415:217,1,80,2|2,3:2|1:2,0:0:0:0:
436,137,93601,2,0,P|472:151|487:187,2,80,2|2|2,3:2|1:2|0:2,0:0:0:0:
338,92,94205,22,2,P|329:45|324:1,1,80,0|0,1:2|3:2,0:1:0:0:
220,29,94607,2,2,P|227:68|232:107,1,80,0|0,1:2|3:2,0:1:0:0:
190,212,95010,69,6,1:2:0:0:
190,212,95211,1,2,3:2:0:0:
103,137,95413,2,0,P|60:154|14:164,1,80,2|2,1:2|0:2,0:0:0:0:
53,263,95815,22,2,B|32:363|32:363|125:386,1,191.999994140625,2|2,1:1|1:2,0:1:0:0:
221,338,96419,70,0,P|259:327|321:317,1,80,2|2,3:2|1:2,0:0:0:0:
392,321,96822,1,2,3:2:0:0:
372,244,97023,1,2,1:2:0:0:
388,165,97225,21,2,0:2:0:0:
392,150,97325,1,2,0:2:0:0:
395,135,97426,2,0,B|438:123|438:123|473:148,1,80,2|2,1:2|3:2,0:0:0:0:
501,227,97829,2,0,P|492:244|474:303,1,71.9999978027344,2|0,1:2|0:0,0:0:0:0:
501,328,98232,69,6,1:2:0:0:
501,328,98433,1,2,3:2:0:0:
396,325,98634,2,0,P|354:333|317:348,1,80,2|2,1:2|0:2,0:0:0:0:
200,362,99037,22,2,B|229:228|229:228|175:202,1,191.999994140625,2|2,1:1|1:2,0:1:0:0:
84,224,99641,70,0,P|73:188|64:130,1,80,2|2,3:2|1:2,0:0:0:0:
135,80,100044,2,0,P|112:48|62:45,2,80,2|2|2,3:2|1:2|0:2,0:0:0:0:
250,119,100648,22,2,P|279:109|335:94,1,80,2|0,1:2|3:2,0:1:0:0:
390,15,101050,2,2,P|439:34|485:41,1,80,2|0,1:2|3:2,0:1:0:0:
511,138,101453,69,6,1:2:0:0:
511,138,101654,1,2,3:2:0:0:
412,155,101856,2,0,P|401:193|394:237,1,80,2|2,1:2|0:2,0:0:0:0:
509,328,102258,22,2,B|499:290|499:290|338:339,1,191.999994140625,2|2,1:1|1:2,0:1:0:0:
256,298,102862,70,0,P|244:255|225:199,1,80,2|2,3:2|1:3,0:0:0:0:
186,142,103265,1,2,3:2:0:0:
120,187,103466,1,6,1:2:0:0:
138,269,103668,21,2,0:2:0:0:
134,284,103768,1,0,1:2:0:0:
130,299,103869,2,0,L|152:358,2,40,2|0|8,1:2|1:2|0:3,0:0:0:0:
41,286,104272,69,10,0:3:0:0:
86,52,104674,70,0,P|80:29|71:9,3,40,4|0|0|0,3:2|0:0|3:2|0:0,0:0:0:0:
173,80,105480,54,2,B|338:53|338:53|326:155,1,240,2|0,3:1|0:0,3:1:0:0:
409,172,106285,54,0,P|415:152|423:135,3,40,0|0|0|0,3:2|0:0|3:2|0:0,0:0:0:0:
390,272,107091,38,2,B|362:243|362:243|317:258,1,80,2|2,3:1|0:2,0:1:0:0:
304,336,107493,2,0,B|265:345|265:345|256:392,1,80,2|2,1:3|0:2,0:0:0:0:
188,323,107896,38,0,P|169:315|149:311,3,40,0|0|0|0,3:2|0:0|3:2|0:0,0:0:0:0:
78,361,108701,54,2,B|27:251|27:251|56:215,1,160,2|2,3:1|3:2,0:1:0:0:
108,163,109305,1,2,0:3:0:0:
165,242,109507,54,0,P|182:247|205:250,3,40,0|0|0|0,3:2|0:0|3:2|0:0,0:0:0:0:
263,197,110312,1,0,3:3:0:0:
339,247,110513,38,2,B|398:238|398:238|424:208|424:208|491:198,1,160,2|2,0:1|0:3,0:1:0:0:
452,119,111117,38,0,P|459:96|467:78,3,40,4|0|0|0,3:2|0:0|3:2|0:0,0:0:0:0:
374,75,111923,54,2,B|339:117|339:117|221:81,1,160,2|2,3:1|3:2,0:1:0:0:
166,54,112527,1,2,0:2:0:0:
94,102,112728,54,0,P|103:122|108:145,3,40,0|0|0|0,3:2|0:0|3:2|0:0,0:0:0:0:
142,223,113534,38,2,B|194:203|194:203|223:221,1,80,2|2,3:1|0:2,0:1:0:0:
267,298,113936,2,0,B|293:248|293:248|327:243,1,80,2|2,1:2|0:2,0:0:0:0:
380,186,114339,38,0,P|405:195|427:199,3,40,0|0|0|0,3:2|0:0|3:2|0:0,0:0:0:0:
480,126,115144,54,2,B|454:121|454:121|397:24|397:24|355:15,1,160,2|2,3:1|3:2,0:1:0:0:
298,10,115748,1,2,0:2:0:0:
252,105,115950,54,0,B|271:94|271:94|296:99,1,40,0|0,3:2|0:0,0:0:0:0:
341,157,116352,2,0,L|331:206,1,40,2|2,3:2|0:2,0:0:0:0:
273,272,116755,37,0,1:2:0:0:
257,275,116856,1,0,1:2:0:0:
242,279,116956,1,8,0:3:0:0:
166,229,117158,1,4,1:3:0:0:
191,142,117359,1,4,0:3:0:0:
206,147,117460,1,4,0:3:0:0:
221,152,117560,70,0,B|264:163|264:163|329:132|329:132|371:143,1,160,6|0,3:1|3:2,0:0:0:0:
455,168,118164,1,2,0:1:0:0:
226,36,118768,1,2,1:1:0:0:
66,109,119171,6,0,B|77:152|77:152|46:217|46:217|57:259,1,160,2|0,3:1|3:2,0:0:0:0:
87,342,119775,1,2,0:1:0:0:
297,183,120379,1,2,1:1:0:0:
409,318,120782,86,0,L|244:301,1,160,2|0,3:1|3:0,0:0:0:0:
161,293,121386,1,2,0:1:0:0:
265,50,121990,1,2,1:1:0:0:
90,26,122393,6,0,L|120:184,1,160,2|0,3:1|3:0,0:0:0:0:
136,270,122997,1,2,0:1:0:0:
348,160,123601,1,2,1:1:0:0:
276,329,124003,86,0,B|334:382|334:382|415:341,1,160,6|0,3:1|3:0,0:0:0:0:
483,300,124607,1,2,0:1:0:0:
317,80,125211,1,2,1:1:0:0:
476,6,125614,6,0,B|423:64|423:64|464:145,1,160,2|0,3:1|3:0,0:0:0:0:
503,213,126218,1,2,0:1:0:0:
297,318,126822,2,0,P|255:305|207:294,1,80,2|0,1:3|0:0,0:0:0:0:
137,329,127225,6,0,P|142:351|151:382,2,40,0|0|8,1:2|1:2|0:3,0:0:0:0:
108,243,127628,1,0,3:2:0:0:
14,261,127829,1,0,1:2:0:0:
16,245,127930,1,0,1:2:0:0:
19,229,128030,2,0,P|9:183|-6:129,1,80,0|8,3:2|0:3,0:0:0:0:
64,89,128433,2,0,P|108:99|174:107,1,80,0|8,1:2|0:3,0:0:0:0:
234,72,128836,70,0,B|282:87|282:87|283:125,1,80,0|0,1:2|1:2,0:0:0:0:
275,132,129138,1,0,1:2:0:0:
268,146,129238,1,0,1:2:0:0:
334,196,129440,2,0,B|347:215|347:215|347:250,2,40,0|0|0,1:2|1:2|1:2,0:0:0:0:
412,285,129842,5,4,0:3:0:0:
408,300,129943,1,0,3:2:0:0:
404,317,130044,2,0,B|370:330|370:330|346:370|346:370|301:386,1,120,4|0,1:2|0:0,0:0:0:0:
266,359,130446,54,0,P|232:346|196:340,1,71.9999978027344,6|2,1:2|3:2,0:0:0:0:
136,275,130849,2,0,P|147:237|157:194,1,71.9999978027344,2|2,3:2|1:2,0:0:0:0:
220,146,131252,2,0,P|283:161|376:171,1,143.999995605469,2|2,0:2|0:2,0:0:0:0:
434,101,131856,6,0,P|426:68|412:32,1,71.9999978027344,2|4,1:2|1:2,0:0:0:0:
330,59,132258,1,2,3:2:0:0:
260,8,132460,2,0,P|215:14|170:32,1,71.9999978027344,2|0,3:2|1:2,0:0:0:0:
131,85,132862,2,0,P|103:62|91:29,2,71.9999978027344,2|0|0,0:2|3:2|0:0,0:0:0:0:
103,201,133466,85,2,1:2:0:0:
176,256,133668,2,0,P|217:235|249:225,1,71.9999978027344,4|2,1:2|3:2,0:0:0:0:
318,273,134070,2,0,P|352:283|385:298,1,71.9999978027344,2|2,3:2|1:2,0:0:0:0:
452,242,134473,2,0,P|462:201|492:178,2,71.9999978027344,2|2|2,0:2|3:2|0:2,0:0:0:0:
362,175,135077,5,2,1:2:0:0:
347,171,135178,1,2,0:0:0:0:
332,167,135279,2,0,P|296:187|257:205,1,71.9999978027344,6|0,1:2|3:2,0:0:0:0:
221,278,135681,2,0,P|234:322|240:376,2,71.9999978027344,2|2|2,3:2|1:2|3:2,0:0:0:0:
136,252,136285,1,2,1:2:0:0:
106,134,136487,86,0,P|140:138|170:119,1,71.9999978027344,6|8,1:2|0:3,0:0:0:0:
202,35,136889,2,0,P|255:56|293:61,1,71.9999978027344,6|2,1:2|3:2,0:0:0:0:
347,16,137292,5,2,3:2:0:0:
402,85,137493,1,2,1:2:0:0:
397,98,137594,1,2,0:3:0:0:
390,113,137695,2,0,P|392:164|406:204,1,71.9999978027344,2|2,0:2|3:2,0:0:0:0:
381,270,138097,85,2,0:2:0:0:
285,253,138299,2,0,P|264:251|233:242,1,35.9999989013672,2|2,1:2|0:3,0:0:0:0:
216,280,138500,2,0,P|173:291|144:302,1,71.9999978027344,4|2,1:2|3:2,0:0:0:0:
89,370,138903,5,0,3:2:0:0:
50,283,139104,2,0,P|33:251|7:226,2,71.9999978027344,2|0|0,1:2|0:0|3:2,0:0:0:0:
131,235,139708,2,0,P|140:192|144:138,1,71.9999978027344,2|0,0:2|1:2,0:0:0:0:
90,90,140111,85,4,1:2:0:0:
90,90,140312,1,0,3:2:0:0:
173,36,140513,2,0,P|209:25|264:16,1,71.9999978027344,0|0,3:2|1:2,0:0:0:0:
324,68,140916,5,0,0:0:0:0:
386,6,141117,1,0,3:2:0:0:
386,6,141520,1,0,1:2:0:0:
472,57,141721,85,0,1:2:0:0:
472,57,141923,1,0,3:2:0:0:
429,137,142124,2,0,P|441:175|449:222,1,71.9999978027344,0|0,3:2|1:2,0:0:0:0:
448,299,142527,5,2,3:2:0:0:
357,288,142728,1,2,1:2:0:0:
343,296,142829,1,0,1:2:0:0:
329,303,142930,2,0,P|333:328|339:349,2,35.9999989013672,2|0|10,3:2|1:2|0:3,0:0:0:0:
268,226,143332,85,4,1:2:0:0:
202,289,143534,2,0,P|186:320|174:355,2,71.9999978027344,2|2|2,3:2|3:2|1:2,0:0:0:0:
162,208,144138,2,0,P|132:188|111:176,2,35.9999989013672,0|2|2,0:0|0:2|3:2,0:0:0:0:
100,278,144540,1,2,0:2:0:0:
12,222,144742,6,0,P|7:170|-3:136,1,71.9999978027344,0|0,1:2|1:2,0:0:0:0:
45,74,145144,2,0,P|84:69|141:55,1,71.9999978027344,2|2,3:2|3:2,0:0:0:0:
194,103,145547,1,2,1:2:0:0:
241,31,145748,2,0,P|284:29|308:69,2,71.9999978027344,2|0|0,0:2|3:2|0:0,0:0:0:0:
188,115,146352,85,2,1:2:0:0:
239,188,146554,2,0,P|273:195|315:210,2,71.9999978027344,4|2|2,1:2|3:2|3:2,0:0:0:0:
180,258,147158,2,0,P|118:266|37:289,1,143.999995605469,2|2,1:2|3:2,0:0:0:0:
0,368,147762,1,2,0:2:0:0:
95,375,147963,6,0,P|138:378|195:394,1,71.9999978027344,2|4,1:2|1:2,0:0:0:0:
238,329,148366,1,2,3:2:0:0:
180,258,148567,2,0,P|193:225|199:189,1,71.9999978027344,2|2,3:2|1:2,0:0:0:0:
151,116,148970,1,0,3:2:0:0:
213,53,149171,2,0,P|254:49|285:89,2,71.9999978027344,2|4|0,1:2|1:2|3:2,0:0:0:0:
275,151,149775,86,0,P|308:141|365:135,1,71.9999978027344,2|0,1:2|3:2,0:0:0:0:
415,194,150178,1,2,3:2:0:0:
457,114,150379,2,0,P|477:82|522:81,2,71.9999978027344,2|0|0,1:2|0:0|3:2,0:0:0:0:
415,194,150983,1,2,0:2:0:0:
483,252,151185,2,0,P|499:291|512:340,1,71.9999978027344,2|0,1:2|1:2,0:0:0:0:
445,379,151587,2,0,P|405:369|348:362,1,71.9999978027344,0|2,3:2|3:2,0:0:0:0:
341,284,151990,5,2,1:2:0:0:
250,312,152191,2,0,P|258:274|263:231,1,71.9999978027344,6|0,0:0|3:2,0:0:0:0:
186,210,152594,2,0,P|175:170|168:113,1,71.9999978027344,2|2,1:2|0:2,0:0:0:0:
207,53,152997,85,6,1:2:0:0:
282,5,153198,1,0,3:2:0:0:
284,96,153399,1,0,3:2:0:0:
382,66,153601,6,0,P|389:46|402:23,2,35.9999989013672,2|2|2,1:2|0:0|3:2,0:0:0:0:
461,115,154003,2,0,B|489:142|489:142|482:189,1,71.9999978027344,0|2,3:2|1:2,0:0:0:0:
464,259,154406,1,0,3:2:0:0:
373,215,154607,85,2,1:2:0:0:
309,279,154809,2,0,L|325:320,2,35.9999989013672,0|0|4,1:2|1:2|1:3,0:0:0:0:
217,260,155211,5,8,1:3:0:0:
213,275,155312,1,8,1:3:0:0:
209,290,155413,2,0,B|174:301|174:301|149:274,1,71.9999978027344,4|8,1:3|0:3,0:0:0:0:
72,230,155815,85,4,0:3:0:0:
57,234,155916,1,4,0:3:0:0:
42,238,156017,1,4,0:3:0:0:
26,130,156218,54,2,B|12:83|12:83|45:59,2,80,4|0|2,3:2|3:2|1:3,0:1:0:0:
141,120,156822,2,2,B|180:134|180:134|223:99,2,88.000002685547,0|2|0,3:2|3:3|3:2,0:1:0:0:
167,33,157426,69,2,1:3:0:0:
167,33,157628,2,2,B|287:136|287:136|437:76,1,311.999985717774,2|2,0:1|1:3,0:1:0:0:
493,141,158433,2,0,P|500:170|513:199,2,60.0000022888184,0|2|0,3:2|3:3|3:2,0:0:0:0:
413,187,159037,21,2,1:3:0:0:
413,187,159238,2,2,B|371:180|371:180|246:343|246:343|185:333,1,287.999991210938,2|2,0:1|1:3,0:1:0:0:
132,293,160044,2,0,P|118:321|96:357,2,60.0000022888184,0|2|0,3:2|3:3|3:2,0:0:0:0:
152,216,160648,1,2,1:3:0:0:
83,148,160849,70,2,B|60:152|60:152|31:132,2,40,2|2|2,0:2|0:2|3:3,0:1:0:0:
152,107,161252,2,0,P|185:117|224:124,1,60.0000022888184,0|2,3:2|1:3,0:0:0:0:
321,82,161654,22,2,B|312:133|312:133|358:166|358:166|342:254,1,160,2|2,3:2|3:2,0:1:0:0:
262,288,162258,1,2,1:3:0:0:
271,301,162359,1,2,0:2:0:0:
281,313,162460,2,2,B|239:309|239:309|197:356,1,80,2|4,0:2|3:2,0:1:0:0:
124,288,162862,70,0,B|109:269|109:269|151:207,1,80,2|2,3:2|1:3,0:0:0:0:
190,162,163265,1,2,3:2:0:0:
112,130,163466,1,2,3:3:0:0:
112,130,163668,1,2,3:2:0:0:
157,36,163869,1,2,1:3:0:0:
270,72,164070,22,2,B|351:93|351:93|433:29,1,160,2|2,0:2|3:2,0:1:0:0:
424,56,164574,1,2,0:2:0:0:
437,65,164674,1,2,1:3:0:0:
481,159,164876,70,2,B|464:164|464:164|455:223|455:223|418:237,1,95.9999970703126,2|2,3:1|3:3,0:1:0:0:
431,244,165178,1,2,0:2:0:0:
425,260,165279,1,2,3:2:0:0:
330,209,165480,2,2,B|297:203|297:203|212:253|212:253|162:247,1,160,2|4,1:3|3:2,0:1:0:0:
56,210,166084,21,2,3:2:0:0:
67,297,166285,1,2,1:3:0:0:
78,384,166487,1,2,3:1:0:0:
324,327,166889,69,2,3:2:0:0:
338,224,167091,1,2,1:3:0:0:
352,121,167292,2,2,B|302:131|302:131|262:90,1,80,2|2,3:1|1:3,0:1:0:0:
267,116,167594,1,0,1:2:0:0:
252,120,167695,1,8,0:3:0:0:
169,61,167896,1,2,1:3:0:0:
89,123,168097,2,0,B|73:111|73:111|46:117,2,40,8|4|2,0:3|0:3|1:3,0:0:0:0:
64,211,168500,21,4,0:3:0:0:
64,211,168701,2,0,B|23:237|23:237|43:336,1,120,6|0,1:2|0:0,0:0:0:0:
76,332,169104,69,6,3:2:0:0:
76,332,169305,2,0,B|138:346|138:346|172:320|172:320|242:338,1,160,2|2,3:2|3:2,0:0:0:0:
307,384,169909,2,0,B|356:330|356:330|349:282|349:282|407:223,1,191.999994140625,2|2,3:3|1:3,0:0:0:0:
480,184,170513,2,0,B|472:161|472:161|458:155|458:155|450:129,1,60.0000022888184,2|2,0:2|3:3,0:0:0:0:
436,55,170916,21,2,3:1:0:0:
436,55,171117,2,2,B|385:47|385:47|357:68,1,80,2|2,1:1|3:2,0:1:0:0:
280,20,171520,2,2,B|247:60|247:60|252:95,1,80,2|2,3:1|3:2,0:1:0:0:
275,163,171923,1,2,1:1:0:0:
83,106,172325,69,6,3:2:0:0:
83,106,172527,2,0,B|123:119|123:119|95:264,1,160,2|2,3:2|3:2,0:0:0:0:
174,299,173131,2,0,B|211:265|211:265|343:380,1,191.999994140625,2|2,3:3|1:3,0:0:0:0:
398,298,173735,2,0,B|394:282|394:282|446:265,1,60.0000022888184,2|2,0:2|3:3,0:0:0:0:
405,177,174138,22,2,L|419:69,1,80,2|2,3:1|1:1,0:1:0:0:
424,19,174540,1,2,3:1:0:0:
424,19,174742,1,2,3:1:0:0:
317,49,174943,2,0,L|278:38,1,40,2|0,1:2|0:0,0:0:0:0:
234,17,175144,2,0,B|264:53|264:53|247:121,1,80,4|0,1:2|3:2,0:0:0:0:
245,204,175547,70,0,B|204:191|204:191|173:220,1,80,6|2,3:2|3:2,0:0:0:0:
58,137,175950,2,0,B|99:124|99:124|130:153,1,80,2|2,1:3|3:2,0:0:0:0:
69,260,176352,22,2,B|60:276|60:276|11:266|11:266|0:291,2,95.9999970703126,2|0|2,3:1|3:2|1:3,0:1:0:0:
164,313,176956,2,2,L|259:297,1,80,0|2,3:2|3:3,0:1:0:0:
321,286,177359,1,0,3:2:0:0:
421,352,177560,2,2,B|408:321|408:321|440:256,1,88.000002685547,2|2,1:3|3:2,0:1:0:0:
364,180,177963,2,2,B|377:149|377:149|345:84,1,95.9999970703126,2|2,3:3|3:2,0:1:0:0:
305,28,178366,1,2,1:3:0:0:
504,55,178768,69,6,3:2:0:0:
497,69,178869,1,2,0:2:0:0:
491,84,178970,1,2,3:2:0:0:
384,129,179171,2,0,B|368:117|368:117|342:117,2,40,2|2|2,1:3|0:2|3:2,0:0:0:0:
397,270,179574,21,2,1:3:0:0:
390,256,179674,1,2,0:2:0:0:
384,241,179775,1,2,3:2:0:0:
277,196,179976,2,0,B|261:208|261:208|236:208,2,40,2|2|2,1:3|0:2|3:2,0:0:0:0:
265,316,180379,69,2,3:3:0:0:
265,316,180581,1,2,1:3:0:0:
163,347,180782,2,0,L|145:391,2,40,2|2|2,1:3|0:3|1:3,0:0:0:0:
111,261,181185,21,2,1:3:0:0:
111,261,181386,1,10,0:3:0:0:
132,174,181587,2,0,B|144:110|144:110|83:69,1,120,8|0,0:3|0:0,0:0:0:0:
56,99,181990,69,6,3:2:0:0:
261,42,183601,5,2,0:0:0:0:
366,117,185211,85,2,0:0:0:0:
448,62,186822,5,2,0:0:0:0:
486,374,188433,85,6,3:2:0:0:
224,277,190044,5,2,0:3:0:0:
8,375,191654,5,6,3:2:0:0:
211,336,192057,1,0,3:2:0:0:
160,139,192460,70,0,P|195:142|228:149,1,60.0000022888184,0|8,3:2|0:3,0:0:0:0:
274,87,192862,2,0,P|314:75|339:65,1,60.0000022888184,4|8,3:3|0:3,0:0:0:0:
427,102,193265,22,2,P|410:140|367:288,1,192,4|0,3:2|0:2,0:1:0:0:
414,372,196084,69,0,1:2:0:0:
188,258,196487,22,2,P|282:244|416:208,1,207.999990478516,6|0,3:2|1:2,0:1:0:0:
468,130,197091,1,0,3:2:0:0:
361,87,197292,6,2,P|350:141|328:205,2,103.999995239258,2|0|0,3:2|3:2|1:2,0:1:0:0:
276,22,197896,1,0,0:0:0:0:
226,108,198097,6,0,P|142:89|53:73,1,160,2|0,3:1|1:2,0:0:0:0:
0,143,198701,1,0,3:2:0:0:
96,181,198903,6,0,P|110:206|121:235,1,60.0000022888184,2|2,3:2|3:2,0:0:0:0:
200,277,199305,2,0,P|227:267|275:254,1,60.0000022888184,2|2,1:2|0:2,0:0:0:0:
362,186,199708,6,2,B|333:229|329:284|427:285|409:357|362:392,1,207.999990478516,2|0,3:2|1:2,0:1:0:0:
268,345,200312,1,0,3:2:0:0:
214,211,200513,38,2,B|225:234|247:242|271:224|300:236|309:262,2,103.999995239258,2|0|0,3:2|3:2|1:2,0:1:0:0:
264,115,201117,1,2,0:0:0:0:
359,145,201319,6,0,B|393:128|415:94|363:69|391:19|434:14,1,160,2|0,3:1|1:2,0:0:0:0:
512,59,201923,1,0,3:2:0:0:
501,162,202124,6,0,P|479:198|471:222,1,60.0000022888184,2|2,3:2|3:2,0:0:0:0:
393,247,202527,2,0,P|407:270|422:299,1,60.0000022888184,2|2,1:2|0:2,0:0:0:0:
460,322,202829,1,2,0:3:0:0:
455,339,202930,6,0,P|387:347|241:371,1,207.999990478516,6|2,3:2|1:2,0:0:0:0:
171,383,203534,1,2,3:2:0:0:
110,302,203735,5,2,3:2:0:0:
187,250,203936,1,2,3:2:0:0:
132,173,204138,1,2,1:2:0:0:
193,84,204339,38,0,P|236:89|288:100,1,80,2|2,0:2|3:2,0:0:0:0:
346,140,204742,2,0,P|374:130|403:122,2,60.0000022888184,2|0|0,3:2|1:2|3:2,0:0:0:0:
377,224,205346,6,0,P|368:252|362:282,1,60.0000022888184,2|2,3:2|3:2,0:0:0:0:
389,363,205748,2,0,P|352:369|281:386,1,90.0000034332277,2|0,1:2|0:0,0:0:0:0:
260,359,206151,5,2,3:2:0:0:
214,187,206554,1,2,1:2:0:0:
385,143,206956,2,0,P|372:182|363:221,2,60.0000022888184,2|2|2,3:2|3:2|1:2,0:0:0:0:
199,38,207560,6,0,P|238:145|270:266,1,207.999990478516,2|2,0:1|3:2,0:0:0:0:
192,309,208164,2,0,B|155:280|155:280|108:272,1,80,0|0,1:2|3:2,0:0:0:0:
42,259,208567,5,2,3:2:0:0:
50,165,208768,1,2,1:3:0:0:
155,198,208970,37,2,1:3:0:0:
243,175,209171,1,8,0:3:0:0:
235,162,209272,1,4,0:3:0:0:
228,148,209372,6,2,P|181:258|160:357,1,207.999990478516,6|0,3:2|1:2,0:1:0:0:
271,378,209976,1,0,3:2:0:0:
323,276,210178,6,2,P|268:286|206:301,2,103.999995239258,2|0|0,3:2|3:2|1:2,0:1:0:0:
411,341,210782,1,2,0:2:0:0:
474,252,210983,6,0,P|422:152|389:102,1,160,2|0,3:1|1:2,0:0:0:0:
294,113,211587,1,2,3:2:0:0:
260,210,211789,6,0,P|232:201|202:193,1,60.0000022888184,2|2,3:2|3:2,0:0:0:0:
154,119,212191,2,0,P|161:90|166:59,1,60.0000022888184,2|0,1:2|3:2,0:0:0:0:
17,112,212594,38,2,B|93:233|1:197|84:327,1,207.999990478516,2|0,3:2|1:2,0:1:0:0:
185,326,213198,1,0,3:2:0:0:
196,212,213399,6,2,B|133:191|155:227|95:207,2,103.999995239258,2|0|2,3:2|3:2|1:2,0:1:0:0:
278,278,214003,1,2,0:1:0:0:
396,215,214205,6,0,B|341:301|407:275|348:368,1,160,0|0,3:2|1:2,0:0:0:0:
260,384,214809,1,0,3:2:0:0:
167,330,215010,6,0,P|161:300|152:271,1,60.0000022888184,2|2,3:2|3:2,0:0:0:0:
80,228,215413,2,0,P|90:192|98:146,1,60.0000022888184,2|2,1:2|0:3,0:0:0:0:
75,129,215715,1,2,0:3:0:0:
64,117,215815,6,0,P|157:108|275:85,1,207.999990478516,6|2,3:2|1:2,0:0:0:0:
444,243,216621,2,0,P|361:255|322:199,1,160,2|2,3:2|1:2,0:0:0:0:
221,136,217225,38,0,P|264:136|304:85,1,103.999995239258,2|0,0:1|3:2,0:0:0:0:
251,26,217628,2,0,P|206:33|155:42,1,80,2|0,3:2|1:2,0:0:0:0:
95,90,218030,2,0,P|89:60|81:31,2,60.0000022888184,2|0|2,3:2|3:2|3:2,0:0:0:0:
89,176,218634,1,6,1:2:0:0:
196,356,219037,6,0,P|217:350|247:340,2,30.0000011444092,0|0|4,1:2|1:2|3:2,0:0:0:0:
124,304,219440,2,0,P|132:278|148:237,1,60.0000022888184,4|0,3:2|1:2,0:0:0:0:
178,175,219842,1,4,3:2:0:0:
266,196,220044,1,2,3:3:0:0:
318,120,220245,5,2,1:2:0:0:
403,93,220446,1,6,3:2:0:0:
488,66,220648,2,0,B|482:100|482:100|497:128,1,60.0000022888184,4|0,3:2|1:2,0:0:0:0:
460,194,221050,2,0,B|426:188|426:188|403:200,1,60.0000022888184,4|0,1:3|1:2,0:0:0:0:
411,311,221453,5,4,1:3:0:0:
407,336,221554,1,0,1:2:0:0:
393,354,221654,1,4,1:3:0:0:
374,362,221755,1,0,1:2:0:0:
354,361,221856,2,0,P|340:340|319:322,2,40,0|0|0,3:2|1:2|1:2,0:0:0:0:
225,372,222258,6,2,P|204:283|171:172,1,207.999990478516,6|0,3:2|1:2,0:1:0:0:
252,90,222862,1,0,3:2:0:0:
333,179,223064,38,2,P|282:189|232:205,2,103.999995239258,2|0|0,3:1|3:2|1:2,0:1:0:0:
426,223,223668,1,2,3:2:0:0:
443,324,223869,6,0,P|363:297|278:278,1,160,2|0,3:2|1:2,0:0:0:0:
184,306,224473,1,0,3:2:0:0:
90,249,224674,6,0,P|80:220|68:193,1,60.0000022888184,0|0,3:2|3:2,0:0:0:0:
138,155,225077,2,0,P|158:118|187:86,1,60.0000022888184,2|2,1:2|3:2,0:0:0:0:
247,48,225480,5,4,3:2:0:0:
247,48,225681,1,0,3:2:0:0:
303,122,225883,2,0,B|333:92|333:92|373:100,1,80,0|0,1:2|3:2,0:0:0:0:
423,169,226285,2,0,L|462:156,2,40,2|2|0,3:3|2:3|3:2,0:0:0:0:
380,252,226688,5,0,1:2:0:0:
292,237,226889,1,0,3:2:0:0:
204,222,227091,1,0,3:2:0:0:
125,280,227292,37,0,3:2:0:0:
125,280,227493,2,0,B|137:343|137:343|171:362,1,80,0|0,1:2|3:2,0:0:0:0:
249,374,227896,5,2,3:2:0:0:
249,374,228097,1,2,3:2:0:0:
323,328,228299,2,0,P|356:313|413:298,1,80,2|2,1:2|3:2,0:0:0:0:
411,196,228701,6,0,P|321:216|257:151,1,191.999994140625,6|2,3:2|1:2,0:0:0:0:
202,82,229305,2,0,P|160:95|116:106,1,80,2|2,3:2|3:2,0:0:0:0:
80,176,229708,2,0,P|105:239|121:290,1,120,2|0,3:2|0:0,0:0:0:0:
96,327,230111,6,0,P|135:324|166:348,1,80,2|2,3:2|3:2,0:0:0:0:
217,281,230513,2,0,P|248:257|288:261,1,80,2|2,3:2|1:2,0:0:0:0:
294,345,230916,2,0,P|300:310|338:172,1,160,2|2,3:2|3:2,0:0:0:0:
366,118,231520,1,2,1:2:0:0:
186,43,231923,5,4,3:2:0:0:
201,129,232124,1,0,3:2:0:0:
115,144,232325,1,0,1:2:0:0:
100,58,232527,1,0,3:2:0:0:
4,130,232728,38,0,B|24:137|24:137|44:212,1,80,0|0,1:2|3:2,0:0:0:0:
61,273,233131,1,0,1:2:0:0:
61,273,233332,1,6,1:2:0:0:
150,316,233534,5,2,1:2:0:0:
235,297,233735,1,2,1:2:0:0:
320,275,233936,1,10,0:3:0:0:
374,184,234138,6,2,P|325:125|248:146,1,160,2|2,1:1|1:2,0:1:0:0:
178,187,234742,2,0,P|138:165|101:149,1,80,2|2,0:0|0:0,0:0:0:0:
35,201,235144,6,0,P|21:278|19:332,1,120,6|6,3:2|3:2,0:0:0:0:
314,346,236151,5,2,3:2:0:0:
314,346,236352,2,2,B|198:370|92:292|76:157|163:60|226:45|323:50|410:109|394:216|370:276|278:315|218:277|183:172|276:187|259:192,1,720,6|0,3:2|0:0,0:1:0:0:
256,192,240077,12,0,245212,0:0:0:0:
