osu file format v14

[General]
AudioFilename: audio.mp3
AudioLeadIn: 0
PreviewTime: 42148
Countdown: 1
SampleSet: None
StackLeniency: 0.7
Mode: 0
LetterboxInBreaks: 0
WidescreenStoryboard: 0

[Editor]
Bookmarks: 1055,6951,12848,18745,42332,54126,77713,80661,84900
DistanceSpacing: 1.3
BeatDivisor: 8
GridSize: 8
TimelineZoom: 1

[Metadata]
Title:Hologram (TV Size)
TitleUnicode:Hologram (TV Size)
Artist:NICO Touches The Walls
ArtistUnicode:NICO Touches The Walls
Creator:Osuology
Version:Silver Watch
Source:Fullmetal Alchemist: Brotherhood
Tags:intro opening anime
BeatmapID:1532011
BeatmapSetID:725582

[Difficulty]
HPDrainRate:5
CircleSize:4
OverallDifficulty:7.7
ApproachRate:8.9
SliderMultiplier:1.2
SliderTickRate:1

[Events]
//Background and Video events
0,0,"2018-01-21_21-08-10.png",0,0
//Break Periods
//Storyboard Layer 0 (Background)
//Storyboard Layer 1 (Fail)
//Storyboard Layer 2 (Pass)
//Storyboard Layer 3 (Foreground)
//Storyboard Sound Samples

[TimingPoints]
1070,368.550368550369,4,1,0,100,1,0
1070,-133.333333333333,4,2,1,70,0,0
6413,-100,4,2,1,70,0,0
12863,-80,4,3,1,80,0,0
18760,-80,4,2,1,80,0,0
42347,-133.333333333333,4,3,1,70,0,0
51745,-66.6666666666667,4,3,1,70,0,0
54141,-80,4,3,1,80,0,1
71739,-80,4,3,1,80,0,0
71831,-80,4,3,1,80,0,1
77728,-133.333333333333,4,3,1,80,0,0
79202,-100,4,3,1,80,0,1
79294,-80,4,3,1,80,0,0
80676,-80,4,3,1,80,0,1
84915,-80,4,3,1,80,0,0

[Colours]
Combo1 : 111,131,140
Combo2 : 215,215,215
Combo3 : 58,58,58
Combo4 : 199,12,39

[HitObjects]
99,107,1070,6,0,P|148:103|192:118,1,90.0000034332277,2|0,0:0|0:0,0:0:0:0:
223,213,1622,2,0,P|174:217|130:202,1,90.0000034332277
317,173,2359,2,0,P|321:222|306:266,1,90.0000034332277
135,204,3097,2,0,P|131:155|146:111,1,90.0000034332277
225,17,3834,1,0,0:0:0:0:
225,17,4202,6,0,P|252:57|261:103,1,90.0000034332277
147,267,4939,1,0,0:0:0:0:
147,267,5308,2,0,P|151:175|250:205,1,225.000008583069
276,307,6413,1,0,0:0:0:0:
85,99,6598,2,0,L|23:93,1,60
290,34,6966,5,0,0:0:0:0:
285,283,8441,5,0,0:0:0:0:
285,283,9178,2,0,L|364:289,1,60
93,352,9546,1,0,0:0:0:0:
144,97,9915,6,0,P|114:94|85:99,1,60
299,202,10283,1,0,0:0:0:0:
338,60,10468,2,0,P|342:30|339:1,1,60
209,202,10836,1,0,0:0:0:0:
409,243,11020,2,0,P|439:246|469:243,1,60
254,130,11389,1,0,0:0:0:0:
190,325,11573,2,0,P|187:355|191:385,1,60
299,202,11942,1,0,0:0:0:0:
337,39,12126,5,0,0:0:0:0:
303,26,12218,1,0,0:0:0:0:
267,19,12310,1,0,0:0:0:0:
231,24,12402,1,0,0:0:0:0:
196,35,12494,1,0,0:0:0:0:
165,54,12586,1,0,0:0:0:0:
140,80,12678,1,0,0:0:0:0:
125,113,12770,1,0,0:0:0:0:
122,147,12863,6,0,L|116:226,1,75
192,361,13232,2,0,L|198:282,1,75
40,312,13600,2,0,L|119:318,1,75
13,125,13969,1,8,0:3:0:0:
0,242,14153,1,0,0:0:0:0:
100,99,14337,6,0,L|203:109,1,75
287,213,14706,2,0,L|183:202,1,75,8|0,0:0|0:0,0:0:0:0:
400,112,15074,1,0,0:0:0:0:
390,231,15259,1,0,0:0:0:0:
263,116,15443,2,0,L|273:12,1,75,8|0,0:3|0:0,0:0:0:0:
311,293,15812,6,0,L|301:397,1,75
432,364,16180,1,8,0:3:0:0:
475,184,16364,2,0,P|479:129|459:29,1,150
350,11,16917,1,8,0:3:0:0:
232,67,17101,2,0,P|215:139|218:214,1,150
326,98,17654,5,8,0:3:0:0:
138,54,17839,1,8,0:3:0:0:
330,121,18023,1,8,0:3:0:0:
111,138,18207,1,8,0:3:0:0:
342,155,18391,1,0,0:0:0:0:
342,155,18484,1,0,0:0:0:0:
342,155,18576,1,2,3:0:0:0:
130,222,18760,6,0,P|125:284|130:327,1,75
217,374,19128,1,8,0:3:0:0:
257,260,19313,2,0,P|260:185|243:112,1,150
179,10,19866,1,8,0:3:0:0:
83,82,20050,2,0,P|78:144|83:187,1,75
167,237,20418,6,0,P|172:175|167:132,1,75,0|8,0:0|0:3,0:0:0:0:
95,68,20787,2,0,P|90:130|95:173,1,75
178,223,21155,1,0,0:0:0:0:
208,64,21340,1,8,0:3:0:0:
87,227,21524,6,0,P|105:278|205:311,1,150,0|0,3:0|0:0,0:0:0:0:
304,281,22077,1,8,0:3:0:0:
394,202,22261,2,0,P|399:140|394:97,1,75
342,20,22630,1,0,0:0:0:0:
301,169,22814,1,8,0:3:0:0:
409,118,22998,1,0,0:0:0:0:
225,79,23183,6,0,P|162:84|80:151,1,150,0|8,0:0|0:3,0:0:0:0:
70,302,23735,1,0,0:0:0:0:
224,255,23920,1,0,0:0:0:0:
85,211,24104,1,0,0:0:0:0:
173,348,24288,1,8,0:3:0:0:
178,154,24472,1,0,0:0:0:0:
32,376,24657,5,0,0:0:0:0:
150,360,24841,2,0,P|189:353|248:355,1,75,0|8,0:0|0:3,0:0:0:0:
372,265,25210,2,0,P|298:252|223:253,1,150
83,279,25762,1,8,0:3:0:0:
104,160,25947,2,0,P|143:153|202:155,1,75
297,144,26315,5,0,0:0:0:0:
250,254,26499,1,8,0:3:0:0:
226,66,26684,2,0,P|280:40|389:75,1,150
404,170,27237,1,8,0:3:0:0:
397,314,27421,6,0,B|371:217|433:265|400:156,2,150,0|0|0,3:0|0:0|0:0,0:0:0:0:
490,382,28342,1,0,0:0:0:0:
486,254,28527,1,0,0:0:0:0:
313,372,28711,1,8,0:3:0:0:
254,285,28895,2,0,P|307:272|406:301,1,150
173,353,29448,1,8,0:3:0:0:
439,94,29816,5,0,0:0:0:0:
257,57,30185,2,0,L|147:50,1,75,8|0,0:3|0:0,0:0:0:0:
467,120,30554,6,0,P|484:192|464:278,1,150,4|8,3:1|0:3,0:0:0:0:
361,317,31106,2,0,P|344:245|364:159,1,150
391,59,31659,1,8,0:3:0:0:
343,159,31843,2,0,P|308:177|252:181,1,75
136,177,32212,5,0,0:0:0:0:
49,94,32396,1,8,0:3:0:0:
164,60,32581,2,0,P|199:42|255:38,1,75
345,118,32949,1,0,0:0:0:0:
232,136,33133,1,8,0:3:0:0:
409,25,33318,2,0,P|440:91|450:165,1,150,0|0,3:0|0:0,0:0:0:0:
439,285,33870,5,8,0:3:0:0:
337,349,34055,2,0,P|300:358|243:339,1,75
208,245,34423,1,0,0:0:0:0:
106,171,34608,1,8,0:3:0:0:
245,163,34792,1,0,0:0:0:0:
142,300,34976,6,0,P|85:327|-18:334,1,150,0|8,0:0|0:3,0:0:0:0:
325,129,35713,1,0,0:0:0:0:
269,235,35898,1,0,0:0:0:0:
257,128,36082,2,0,P|290:153|305:188,1,75,8|0,0:3|0:0,0:0:0:0:
382,342,36450,6,0,P|348:316|333:281,1,75,6|0,0:3|0:0,0:0:0:0:
220,340,36819,1,8,0:3:0:0:
75,333,37003,2,0,B|172:307|124:369|233:336,2,150
15,228,37925,6,0,P|8:185|27:133,1,75
115,90,38293,1,8,0:3:0:0:
209,260,38477,2,0,P|169:290|59:311,1,150
15,228,39030,1,8,0:3:0:0:
196,156,39214,6,0,P|235:125|345:104,1,150,0|0,3:0|0:0,0:0:0:0:
399,203,39767,1,0,0:0:0:0:
124,100,39952,2,0,P|93:139|72:249,1,150,0|0,3:0|0:0,0:0:0:0:
171,303,40505,1,0,0:0:0:0:
367,16,40689,6,0,P|293:27|231:69,1,150,4|0,3:1|0:0,0:0:0:0:
171,172,41241,2,0,P|190:210|246:240,1,75
15,45,41610,5,0,0:0:0:0:
111,113,41794,1,0,0:0:0:0:
5,211,41979,1,0,0:0:0:0:
106,17,42163,1,0,0:0:0:0:
106,17,42255,1,0,0:0:0:0:
106,17,42347,6,0,P|151:24|189:52,1,90.0000034332277
225,276,43084,1,8,0:3:0:0:
80,288,43269,1,0,0:0:0:0:
148,136,43453,1,0,0:0:0:0:
155,309,43637,1,0,0:0:0:0:
243,168,43821,6,0,P|285:157|346:169,1,90.0000034332277
485,354,44558,1,8,0:3:0:0:
353,298,44743,1,0,0:0:0:0:
474,184,44927,1,0,0:0:0:0:
415,339,45111,1,8,0:3:0:0:
392,173,45296,6,0,P|418:125|466:104,3,90.0000034332277,0|0|8|0,0:0|0:0|0:3|0:0,0:0:0:0:
238,91,46770,5,0,0:0:0:0:
294,169,46955,1,8,0:3:0:0:
212,4,47138,2,0,P|186:11|161:34,1,45.0000017166138
54,141,47507,5,0,0:0:0:0:
189,174,47691,1,8,0:3:0:0:
99,34,47875,1,0,0:0:0:0:
118,173,48060,1,8,0:3:0:0:
210,311,48244,6,0,P|259:323|307:316,1,90.0000034332277
453,118,48981,1,8,0:3:0:0:
324,59,49165,1,0,0:0:0:0:
306,225,49350,1,0,0:0:0:0:
388,92,49534,1,0,0:0:0:0:
389,244,49718,6,0,P|438:259|486:260,1,90.0000034332277
123,140,50455,2,0,P|74:125|26:124,1,90.0000034332277,0|0,0:3|0:0,0:0:0:0:
399,344,51192,5,4,0:1:0:0:
451,185,51377,1,0,0:0:0:0:
288,217,51561,1,0,0:0:0:0:
351,55,51745,2,0,B|268:89|268:89|189:186,1,180.000006866455,4|0,0:1|0:0,0:0:0:0:
98,275,52298,5,2,0:3:0:0:
227,272,52482,1,2,0:3:0:0:
112,251,52667,1,2,0:3:0:0:
352,211,52851,1,2,0:3:0:0:
125,223,53035,1,2,0:3:0:0:
416,149,53219,1,2,0:3:0:0:
7,231,53404,5,2,0:3:0:0:
438,345,54141,6,0,B|465:286|465:286|466:239,1,112.5,4|0,0:1|0:0,0:0:0:0:
468,204,54509,1,0,0:0:0:0:
285,301,54694,2,0,B|325:277|325:277|344:218,1,75
372,101,55062,1,0,0:0:0:0:
227,138,55246,1,0,0:0:0:0:
468,204,55431,2,0,B|467:157|467:157|425:111,1,75,0|0,0:3|0:3,0:3:0:0:
295,98,55799,5,0,0:0:0:0:
333,250,55984,1,0,0:0:0:0:
331,20,56168,2,0,B|286:6|286:6|229:31,1,75,0|0,3:3|3:3,3:3:0:0:
132,129,56536,1,0,0:0:0:0:
214,252,56721,1,0,0:0:0:0:
41,65,56905,6,0,B|64:41|64:41|141:24|141:24|178:33,1,150
267,159,57458,1,0,0:0:0:0:
302,322,57642,2,0,B|279:346|279:346|202:363|202:363|165:354,1,150
140,204,58195,1,0,0:0:0:0:
408,176,58379,2,0,B|454:141|454:141|467:80,1,112.5
475,54,58748,5,0,0:0:0:0:
310,17,58932,2,0,B|270:17|270:17|216:41,1,75
231,188,59300,1,0,0:0:0:0:
368,92,59485,1,0,0:0:0:0:
166,109,59669,1,0,0:0:0:0:
281,275,59853,1,0,0:0:0:0:
73,273,60038,5,0,0:0:0:0:
39,119,60222,2,0,B|45:86|45:86|74:43,1,75
222,20,60590,2,0,B|216:53|216:53|187:96,1,75
140,236,60959,1,0,0:0:0:0:
39,119,61143,1,0,0:0:0:0:
220,182,61327,2,0,B|294:185|294:185|380:153,1,150
455,279,61880,5,0,0:0:0:0:
252,293,62065,1,0,0:0:0:0:
458,183,62249,1,0,0:0:0:0:
317,367,62433,1,0,0:0:0:0:
365,158,62617,2,0,B|303:138|303:138|255:94,1,112.5
242,83,62986,5,0,0:0:0:0:
56,115,63170,1,0,0:0:0:0:
181,247,63355,1,0,0:0:0:0:
138,65,63539,2,0,B|107:40|107:40|42:11,1,75
82,205,63907,1,0,0:0:0:0:
282,205,64092,1,0,0:0:0:0:
195,8,64276,2,0,B|220:59|220:59|193:138,1,112.5
189,143,64644,5,0,0:0:0:0:
74,25,64829,1,0,0:0:0:0:
185,243,65013,1,0,0:0:0:0:
304,108,65197,2,0,B|334:84|334:84|400:67,1,75
482,175,65566,1,0,0:0:0:0:
331,213,65750,1,0,0:0:0:0:
346,350,65934,6,0,B|309:357|309:357|251:344,1,75
147,328,66303,1,0,0:0:0:0:
59,188,66487,2,0,B|96:181|96:181|154:194,1,75
244,224,66856,1,0,0:0:0:0:
79,274,67040,1,0,0:0:0:0:
132,95,67224,2,0,B|160:70|160:70|217:52,1,75
354,60,67593,5,0,0:0:0:0:
382,214,67777,1,0,0:0:0:0:
231,123,67961,2,0,B|219:87|219:87|195:58,1,75
39,32,68330,2,0,B|50:67|50:67|74:96,1,75
123,245,68698,1,0,0:0:0:0:
278,271,68883,5,0,0:0:0:0:
310,95,69067,1,0,0:0:0:0:
421,206,69251,1,0,0:0:0:0:
241,180,69436,1,0,0:0:0:0:
401,118,69620,1,0,0:0:0:0:
370,286,69804,1,0,0:0:0:0:
174,250,69988,5,0,0:0:0:0:
310,95,70173,2,0,B|237:85|237:85|178:100,1,112.5
166,105,70541,1,0,0:0:0:0:
70,20,70726,2,0,B|32:17|32:17|-10:36,1,75
9,189,71094,2,0,B|47:192|47:192|90:172,1,75
199,94,71463,1,0,0:0:0:0:
38,101,71647,1,0,0:0:0:0:
218,246,71831,6,0,B|253:236|253:236|290:246,1,75
419,332,72200,1,0,0:0:0:0:
236,345,72384,2,0,B|200:354|200:354|163:344,1,75
118,139,72753,2,0,B|127:175|127:175|118:211,1,75
268,30,73121,2,0,B|303:20|303:20|340:30,1,75,0|0,3:0|3:0,3:0:0:0:
400,173,73490,5,0,0:0:0:0:
217,250,73674,1,0,0:0:0:0:
118,139,73858,1,0,0:0:0:0:
276,153,74042,2,0,L|330:242,1,75
369,238,74319,2,0,P|327:268|271:277,1,75
271,242,74595,1,0,0:0:0:0:
467,96,74780,6,0,B|388:73|388:73|322:89,1,150,0|0,3:0|3:0,3:0:0:0:
441,191,75332,1,0,0:0:0:0:
262,171,75517,2,0,B|214:176|214:176|160:198,1,75
115,299,75885,2,0,B|163:294|163:294|217:272,1,75
50,50,76254,6,0,B|77:122|77:122|48:214,1,150
15,344,76807,1,0,0:0:0:0:
187,283,76991,1,0,0:0:0:0:
185,156,77175,1,0,0:0:0:0:
185,76,77359,2,0,L|152:0,1,75
281,223,77728,6,0,B|324:229|373:255|373:255|434:253|465:225|465:225|440:152|352:160,1,337.500012874604
329,155,79202,6,0,B|290:150|246:126|246:126|190:128|163:154|163:154|182:210,1,210
185,216,79939,1,0,0:0:0:0:
381,348,80216,1,0,0:0:0:0:
396,333,80308,2,0,L|505:343,1,75
198,314,80676,6,0,L|95:306,1,75
24,184,81045,2,0,L|127:193,1,75
210,156,81413,1,0,0:0:0:0:
198,314,81598,1,0,0:0:0:0:
29,95,81782,6,0,L|36:13,1,75
223,0,82151,1,0,0:0:0:0:
210,156,82336,1,0,0:0:0:0:
130,22,82519,1,0,0:0:0:0:
278,74,82703,1,0,0:0:0:0:
124,112,82888,2,0,L|21:115,1,75
20,138,83164,1,0,0:0:0:0:
14,174,83256,1,0,0:0:0:0:
23,210,83348,1,0,0:0:0:0:
44,240,83441,1,0,0:0:0:0:
75,261,83533,1,0,0:0:0:0:
110,270,83625,5,0,0:0:0:0:
224,161,83809,1,0,0:0:0:0:
271,310,83993,1,0,0:0:0:0:
367,184,84178,2,0,L|445:208,1,75
243,66,84546,2,0,P|207:48|165:42,1,75
401,29,84915,5,0,0:0:0:0:
256,192,85007,12,0,85928,0:0:0:0:
