osu file format v14

[General]
AudioFilename: audio.mp3
AudioLeadIn: 0
PreviewTime:59529
Countdown: 0
SampleSet: Soft
StackLeniency: 0.2
Mode: 0
LetterboxInBreaks: 0
WidescreenStoryboard: 1

[Editor]
Bookmarks: 17645,47183,61952,91491,121029,135799,165337
DistanceSpacing: 1.2
BeatDivisor: 4
GridSize: 32
TimelineZoom: 2.4

[Metadata]
Title:REDLIGHT (VIP)
TitleUnicode:REDLIGHT (VIP)
Artist:NGHTMRE & A$AP Ferg
ArtistUnicode:NGHTMRE & A$AP Ferg
Creator:Mir
Version:NORMAL
Source:
Tags:rap hiphop hip hop hip-hop electronic english altai -_heatwave_- nfs heat need for speed asap ultra music undeadphoneguy heatwave trap thzz nightmare and
BeatmapID:2816601
BeatmapSetID:1358547

[Difficulty]
HPDrainRate:2
CircleSize:3
OverallDifficulty:3
ApproachRate:5
SliderMultiplier:1.39999990463257
SliderTickRate:1

[Events]
//Background and Video events
0,0,"red light.jpg",0,0
//Break Periods
//Storyboard Layer 0 (Background)
//Storyboard Layer 1 (Fail)
//Storyboard Layer 2 (Pass)
//Storyboard Layer 3 (Foreground)
//Storyboard Layer 4 (Overlay)
//Storyboard Sound Samples

[TimingPoints]
2876,461.538461538462,4,2,1,50,1,0
15914,-100,4,2,1,5,0,0
16029,-100,4,2,1,50,0,0
16376,-100,4,2,1,5,0,0
16491,-100,4,2,1,50,0,0
16837,-100,4,2,1,5,0,0
16952,-100,4,2,1,50,0,0
20010,-100,4,2,1,5,0,0
20068,-100,4,2,1,50,0,0
20356,-100,4,2,1,5,0,0
20414,-100,4,2,1,50,0,0
21049,-100,4,2,1,5,0,0
21106,-100,4,2,1,50,0,0
23356,-100,4,2,1,5,0,0
23414,-100,4,2,1,50,0,0
26356,-100,4,2,1,5,0,0
26414,-100,4,2,1,50,0,0
28433,-100,4,2,1,5,0,0
28491,-100,4,2,1,50,0,0
35587,-100,4,2,1,5,0,0
35645,-100,4,2,1,50,0,0
38491,-100,4,2,1,5,0,0
38568,-100,4,2,1,50,0,0
38645,-100,4,2,1,5,0,0
38722,-100,4,2,1,50,0,0
38799,-100,4,2,1,5,0,0
38876,-100,4,2,1,50,0,0
38952,-100,4,2,1,5,0,0
39029,-100,4,2,1,50,0,0
39106,-100,4,2,1,5,0,0
39183,-100,4,2,1,50,0,0
39260,-100,4,2,1,5,0,0
39337,-100,4,2,1,50,0,0
41126,-100,4,2,1,5,0,0
41183,-100,4,2,1,50,0,0
42164,-100,4,2,1,5,0,0
42222,-100,4,2,1,50,0,0
43202,-100,4,2,1,5,0,0
43260,-100,4,2,1,50,0,0
44491,-100,4,2,1,5,0,0
44568,-100,4,2,1,50,0,0
44645,-100,4,2,1,5,0,0
44722,-100,4,2,1,50,0,0
44799,-100,4,2,1,5,0,0
44876,-100,4,2,1,50,0,0
45722,-100,4,2,1,5,0,0
45799,-100,4,2,1,50,0,0
45972,-100,4,2,1,5,0,0
46029,-100,4,2,1,50,0,0
47645,-100,4,1,1,35,0,0
54568,-100,4,2,1,50,0,0
61895,-100,4,1,1,5,0,0
61952,-90.9090909090909,4,2,1,80,0,1
62472,-90.9090909090909,4,2,1,5,0,1
62529,-90.9090909090909,4,2,1,80,0,1
62587,-90.9090909090909,4,2,1,5,0,1
62644,-90.9090909090909,4,2,1,80,0,1
62702,-90.9090909090909,4,2,1,5,0,1
62759,-90.9090909090909,4,2,1,80,0,1
62818,-90.9090909090909,4,2,1,5,0,1
62875,-90.9090909090909,4,2,1,80,0,1
64664,-90.9090909090909,4,2,1,5,0,1
64722,-90.9090909090909,4,2,1,80,0,1
65126,-90.9090909090909,4,2,1,5,0,1
65183,-90.9090909090909,4,2,1,80,0,1
65299,-90.9090909090909,4,2,1,5,0,1
65356,-90.9090909090909,4,2,1,80,0,1
66164,-90.9090909090909,4,2,1,5,0,1
66221,-90.9090909090909,4,2,1,80,0,1
66279,-90.9090909090909,4,2,1,5,0,1
66336,-90.9090909090909,4,2,1,80,0,1
66395,-90.9090909090909,4,2,1,5,0,1
66452,-90.9090909090909,4,2,1,80,0,1
66510,-90.9090909090909,4,2,1,5,0,1
66567,-90.9090909090909,4,2,1,80,0,1
68356,-90.9090909090909,4,2,1,5,0,1
68414,-90.9090909090909,4,2,1,80,0,1
68991,-90.9090909090909,4,2,1,5,0,1
69106,-90.9090909090909,4,2,1,80,0,1
69337,-90.9090909090909,4,2,1,80,0,1
69856,-90.9090909090909,4,2,1,5,0,1
69913,-90.9090909090909,4,2,1,80,0,1
69972,-90.9090909090909,4,2,1,5,0,1
70029,-90.9090909090909,4,2,1,80,0,1
70087,-90.9090909090909,4,2,1,5,0,1
70144,-90.9090909090909,4,2,1,80,0,1
70202,-90.9090909090909,4,2,1,5,0,1
70259,-90.9090909090909,4,2,1,80,0,1
72049,-90.9090909090909,4,2,1,5,0,1
72106,-90.9090909090909,4,2,1,80,0,1
72279,-90.9090909090909,4,2,1,5,0,1
72337,-90.9090909090909,4,2,1,80,0,1
73549,-90.9090909090909,4,2,1,5,0,1
73606,-90.9090909090909,4,2,1,80,0,1
73664,-90.9090909090909,4,2,1,5,0,1
73721,-90.9090909090909,4,2,1,80,0,1
73779,-90.9090909090909,4,2,1,5,0,1
73836,-90.9090909090909,4,2,1,80,0,1
73895,-90.9090909090909,4,2,1,5,0,1
73952,-90.9090909090909,4,2,1,80,0,1
74587,-90.9090909090909,4,2,1,5,0,1
74645,-90.9090909090909,4,2,1,80,0,1
74818,-90.9090909090909,4,2,1,5,0,1
74876,-90.9090909090909,4,2,1,80,0,1
75049,-90.9090909090909,4,2,1,5,0,1
75107,-90.9090909090909,4,2,1,80,0,1
75279,-90.9090909090909,4,2,1,5,0,1
75337,-90.9090909090909,4,2,1,80,0,1
75510,-90.9090909090909,4,2,1,5,0,1
75568,-90.9090909090909,4,2,1,80,0,1
75741,-90.9090909090909,4,2,1,5,0,1
75799,-90.9090909090909,4,2,1,80,0,1
75972,-90.9090909090909,4,2,1,5,0,1
76029,-90.9090909090909,4,2,1,80,0,1
77241,-90.9090909090909,4,2,1,5,0,1
77298,-90.9090909090909,4,2,1,80,0,1
77356,-90.9090909090909,4,2,1,5,0,1
77413,-90.9090909090909,4,2,1,80,0,1
77472,-90.9090909090909,4,2,1,5,0,1
77529,-90.9090909090909,4,2,1,80,0,1
77587,-90.9090909090909,4,2,1,5,0,1
77644,-90.9090909090909,4,2,1,80,0,1
79433,-90.9090909090909,4,2,1,5,0,1
79491,-90.9090909090909,4,2,1,80,0,1
80068,-90.9090909090909,4,2,1,5,0,1
80183,-90.9090909090909,4,2,1,80,0,1
80933,-90.9090909090909,4,2,1,5,0,1
80990,-90.9090909090909,4,2,1,80,0,1
81049,-90.9090909090909,4,2,1,5,0,1
81106,-90.9090909090909,4,2,1,80,0,1
81164,-90.9090909090909,4,2,1,5,0,1
81221,-90.9090909090909,4,2,1,80,0,1
81279,-90.9090909090909,4,2,1,5,0,1
81336,-90.9090909090909,4,2,1,80,0,1
83126,-90.9090909090909,4,2,1,5,0,1
83183,-90.9090909090909,4,2,1,80,0,1
83587,-90.9090909090909,4,2,1,5,0,1
83645,-90.9090909090909,4,2,1,80,0,1
83760,-90.9090909090909,4,2,1,5,0,1
83876,-90.9090909090909,4,2,1,80,0,1
84626,-90.9090909090909,4,2,1,5,0,1
84683,-90.9090909090909,4,2,1,80,0,1
84741,-90.9090909090909,4,2,1,5,0,1
84798,-90.9090909090909,4,2,1,80,0,1
84856,-90.9090909090909,4,2,1,5,0,1
84913,-90.9090909090909,4,2,1,80,0,1
84972,-90.9090909090909,4,2,1,5,0,1
85029,-90.9090909090909,4,2,1,80,0,1
86818,-90.9090909090909,4,2,1,80,0,1
86876,-90.9090909090909,4,2,1,50,0,1
87049,-90.9090909090909,4,2,1,5,0,1
87106,-90.9090909090909,4,2,1,80,0,1
88318,-90.9090909090909,4,2,1,5,0,1
88375,-90.9090909090909,4,2,1,80,0,1
88433,-90.9090909090909,4,2,1,5,0,1
88490,-90.9090909090909,4,2,1,80,0,1
88549,-90.9090909090909,4,2,1,5,0,1
88606,-90.9090909090909,4,2,1,80,0,1
88664,-90.9090909090909,4,2,1,5,0,1
88721,-90.9090909090909,4,2,1,80,0,1
89356,-90.9090909090909,4,2,1,5,0,1
89414,-90.9090909090909,4,2,1,80,0,1
89587,-90.9090909090909,4,2,1,5,0,1
89645,-90.9090909090909,4,2,1,80,0,1
89818,-90.9090909090909,4,2,1,5,0,1
89876,-90.9090909090909,4,2,1,80,0,1
90049,-90.9090909090909,4,2,1,5,0,1
90107,-90.9090909090909,4,2,1,80,0,1
90279,-90.9090909090909,4,2,1,5,0,1
90337,-90.9090909090909,4,2,1,80,0,1
90510,-90.9090909090909,4,2,1,5,0,1
90568,-90.9090909090909,4,2,1,80,0,1
91145,-90.9090909090909,4,2,1,5,0,1
91202,-90.9090909090909,4,2,1,80,0,1
91491,-100,4,2,1,50,0,0
93856,-100,4,2,1,5,0,0
93914,-100,4,2,1,50,0,0
94352,-100,4,2,1,5,0,0
94445,-100,4,2,1,50,0,0
94537,-100,4,2,1,5,0,0
94629,-100,4,2,1,50,0,0
94814,-100,4,2,1,50,0,0
95126,-100,4,2,1,5,0,0
95183,-100,4,2,1,50,0,0
98810,-100,4,2,1,5,0,0
98876,-100,4,2,1,50,0,0
100202,-100,4,2,1,5,0,0
100260,-100,4,2,1,50,0,0
100664,-100,4,2,1,5,0,0
100722,-100,4,2,1,50,0,0
101241,-100,4,2,1,5,0,0
101299,-100,4,2,1,50,0,0
101737,-100,4,2,1,5,0,0
101829,-100,4,2,1,50,0,0
101922,-100,4,2,1,5,0,0
102014,-100,4,2,1,50,0,0
102198,-100,4,2,1,50,0,0
103895,-100,4,2,1,5,0,0
103952,-100,4,2,1,50,0,0
106194,-100,4,2,1,5,0,0
106260,-100,4,2,1,50,0,0
108279,-100,4,2,1,5,0,0
108337,-100,4,2,1,50,0,0
108626,-100,4,2,1,5,0,0
108683,-100,4,2,1,50,0,0
108972,-100,4,2,1,5,0,0
109029,-100,4,2,1,50,0,0
111510,-100,4,2,1,5,0,0
111568,-100,4,2,1,50,0,0
111741,-100,4,2,1,5,0,0
111799,-100,4,2,1,50,0,0
113299,-100,4,2,1,5,0,0
113414,-100,4,2,1,50,0,0
114972,-100,4,2,1,5,0,0
115029,-100,4,2,1,50,0,0
116010,-100,4,2,1,5,0,0
116068,-100,4,2,1,50,0,0
116356,-100,4,2,1,5,0,0
116414,-100,4,2,1,50,0,0
118664,-100,4,2,1,5,0,0
118722,-100,4,2,1,50,0,0
120279,-100,4,2,1,5,0,0
120337,-100,4,2,1,50,0,0
120510,-100,4,2,1,5,0,0
120568,-100,4,2,1,50,0,0
121491,-100,4,1,1,35,0,0
128414,-100,4,2,1,50,0,0
135741,-100,4,2,1,5,0,0
135799,-90.9090909090909,4,2,1,80,0,1
136318,-90.9090909090909,4,2,1,5,0,1
136376,-90.9090909090909,4,2,1,80,0,1
136433,-90.9090909090909,4,2,1,5,0,1
136491,-90.9090909090909,4,2,1,80,0,1
136549,-90.9090909090909,4,2,1,5,0,1
136607,-90.9090909090909,4,2,1,80,0,1
136664,-90.9090909090909,4,2,1,5,0,1
136722,-90.9090909090909,4,2,1,80,0,1
137818,-90.9090909090909,4,2,1,5,0,1
137876,-90.9090909090909,4,2,1,80,0,1
138510,-90.9090909090909,4,2,1,5,0,1
138568,-90.9090909090909,4,2,1,80,0,1
139145,-90.9090909090909,4,2,1,5,0,1
139260,-90.9090909090909,4,2,1,80,0,1
140010,-90.9090909090909,4,2,1,5,0,1
140068,-90.9090909090909,4,2,1,80,0,1
140126,-90.9090909090909,4,2,1,5,0,1
140184,-90.9090909090909,4,2,1,80,0,1
140241,-90.9090909090909,4,2,1,5,0,1
140299,-90.9090909090909,4,2,1,80,0,1
140356,-90.9090909090909,4,2,1,5,0,1
140414,-90.9090909090909,4,2,1,80,0,1
142837,-90.9090909090909,4,2,1,5,0,1
142952,-90.9090909090909,4,2,1,80,0,1
143587,-90.9090909090909,4,2,1,5,0,1
143645,-90.9090909090909,4,2,1,80,0,1
143702,-90.9090909090909,4,2,1,5,0,1
143760,-90.9090909090909,4,2,1,80,0,1
143818,-90.9090909090909,4,2,1,5,0,1
143876,-90.9090909090909,4,2,1,80,0,1
143933,-90.9090909090909,4,2,1,5,0,1
143991,-90.9090909090909,4,2,1,80,0,1
144049,-90.9090909090909,4,2,1,5,0,1
144107,-90.9090909090909,4,2,1,80,0,1
145202,-90.9090909090909,4,2,1,5,0,1
145260,-90.9090909090909,4,2,1,80,0,1
145895,-90.9090909090909,4,2,1,5,0,1
145952,-90.9090909090909,4,2,1,80,0,1
146126,-90.9090909090909,4,2,1,5,0,1
146183,-90.9090909090909,4,2,1,80,0,1
146356,-90.9090909090909,4,2,1,5,0,1
146414,-90.9090909090909,4,2,1,80,0,1
146529,-90.9090909090909,4,2,1,5,0,1
146644,-90.9090909090909,4,2,1,80,0,1
147395,-90.9090909090909,4,2,1,5,0,1
147453,-90.9090909090909,4,2,1,80,0,1
147510,-90.9090909090909,4,2,1,5,0,1
147568,-90.9090909090909,4,2,1,80,0,1
147626,-90.9090909090909,4,2,1,5,0,1
147684,-90.9090909090909,4,2,1,80,0,1
147741,-90.9090909090909,4,2,1,5,0,1
147799,-90.9090909090909,4,2,1,80,0,1
150222,-90.9090909090909,4,2,1,5,0,1
150337,-90.9090909090909,4,2,1,80,0,1
151087,-90.9090909090909,4,2,1,5,0,1
151145,-90.9090909090909,4,2,1,80,0,1
151202,-90.9090909090909,4,2,1,5,0,1
151260,-90.9090909090909,4,2,1,80,0,1
151318,-90.9090909090909,4,2,1,5,0,1
151376,-90.9090909090909,4,2,1,80,0,1
151433,-90.9090909090909,4,2,1,5,0,1
151491,-90.9090909090909,4,2,1,80,0,1
152587,-90.9090909090909,4,2,1,5,0,1
152645,-90.9090909090909,4,2,1,80,0,1
153279,-90.9090909090909,4,2,1,5,0,1
153337,-90.9090909090909,4,2,1,80,0,1
153914,-90.9090909090909,4,2,1,5,0,1
154029,-90.9090909090909,4,2,1,80,0,1
154779,-90.9090909090909,4,2,1,5,0,1
154837,-90.9090909090909,4,2,1,80,0,1
154895,-90.9090909090909,4,2,1,5,0,1
154953,-90.9090909090909,4,2,1,80,0,1
155010,-90.9090909090909,4,2,1,5,0,1
155068,-90.9090909090909,4,2,1,80,0,1
155126,-90.9090909090909,4,2,1,5,0,1
155184,-90.9090909090909,4,2,1,80,0,1
157606,-90.9090909090909,4,2,1,5,0,1
157721,-90.9090909090909,4,2,1,80,0,1
158472,-90.9090909090909,4,2,1,5,0,1
158530,-90.9090909090909,4,2,1,80,0,1
158587,-90.9090909090909,4,2,1,5,0,1
158645,-90.9090909090909,4,2,1,80,0,1
158702,-90.9090909090909,4,2,1,5,0,1
158760,-90.9090909090909,4,2,1,80,0,1
158818,-90.9090909090909,4,2,1,5,0,1
158876,-90.9090909090909,4,2,1,80,0,1
159279,-90.9090909090909,4,2,1,5,0,1
159337,-90.9090909090909,4,2,1,80,0,1
159972,-90.9090909090909,4,2,1,5,0,1
160029,-90.9090909090909,4,2,1,80,0,1
160664,-90.9090909090909,4,2,1,5,0,1
160722,-90.9090909090909,4,2,1,80,0,1
160895,-90.9090909090909,4,2,1,5,0,1
160952,-90.9090909090909,4,2,1,80,0,1
161299,-90.9090909090909,4,2,1,5,0,1
161414,-90.9090909090909,4,2,1,80,0,1
162164,-90.9090909090909,4,2,1,5,0,1
162222,-90.9090909090909,4,2,1,80,0,1
162279,-90.9090909090909,4,2,1,5,0,1
162337,-90.9090909090909,4,2,1,80,0,1
162395,-90.9090909090909,4,2,1,5,0,1
162453,-90.9090909090909,4,2,1,80,0,1
162510,-90.9090909090909,4,2,1,5,0,1
162568,-90.9090909090909,4,2,1,80,0,1
164991,-90.9090909090909,4,2,1,5,0,1
165106,-90.9090909090909,4,2,1,80,0,1
165337,-100,4,2,1,80,0,0

[Colours]
Combo1 : 0,166,166
Combo2 : 191,15,41
Combo3 : 134,13,255
Combo4 : 210,0,105

[HitObjects]
67,338,15799,5,0,0:2:0:0:
47,171,16260,1,0,0:2:0:0:
213,149,16722,1,0,0:2:0:0:
233,316,17183,1,0,0:2:0:0:
213,149,17645,6,2,B|267:138|267:138|270:133|270:133|460:92,1,244.9999833107,6|0,3:2|0:2,0:1:0:0:
491,89,18568,1,8,0:2:0:0:
454,13,18799,1,0,0:2:0:0:
454,13,19029,1,0,0:2:0:0:
370,3,19260,2,0,P|322:18|233:36,1,139.999990463257,0|2,0:2|3:2,0:2:0:0:
152,55,19952,6,0,P|81:66|67:144,1,139.999990463257,2|8,3:2|0:2,0:2:0:0:
130,184,20645,1,0,0:2:0:0:
61,233,20876,2,0,P|38:297|27:328,1,69.9999952316285,0|0,0:2|3:2,0:2:0:0:
104,354,21337,6,0,L|265:328,1,139.999990463257,2|0,3:2|0:2,0:2:0:0:
318,367,22029,1,0,0:2:0:0:
361,295,22260,1,10,0:2:0:0:
361,295,22491,1,0,0:2:0:0:
432,340,22722,2,0,P|477:353|509:357,1,69.9999952316285,2|2,0:2|3:2,0:2:0:0:
498,272,23183,2,0,P|509:213|527:131,2,139.999990463257,0|2|10,3:2|3:2|0:2,0:2:0:0:
330,264,24568,2,0,P|308:220|291:200,1,69.9999952316285,2|2,0:2|0:2,0:2:0:0:
318,123,25029,6,2,P|267:159|194:41,1,209.999985694886,4|0,3:2|0:2,0:1:0:0:
118,13,25952,2,2,P|69:22|70:89,1,104.999992847443,10|0,0:2|0:0,0:1:0:0:
87,99,26414,2,0,L|60:242,1,139.999990463257,0|0,3:2|0:2,0:2:0:0:
127,287,27106,1,2,0:2:0:0:
116,378,27337,5,0,3:2:0:0:
116,378,27568,1,2,0:2:0:0:
198,351,27799,2,0,P|246:337|275:330,1,69.9999952316285,10|2,0:2|0:2,0:2:0:0:
310,259,28260,1,2,0:2:0:0:
381,303,28491,1,2,3:2:0:0:
458,271,28722,6,0,P|477:206|501:153,2,104.999992847443,2|2|2,3:2|3:2|3:2,0:2:0:0:
381,303,29645,2,0,P|323:328|300:345,1,69.9999952316285,10|0,3:2|0:0,0:2:0:0:
250,382,30106,2,0,L|277:224,1,139.999990463257,0|0,0:2|0:2,0:2:0:0:
231,170,30799,1,0,0:2:0:0:
157,129,31029,1,2,3:2:0:0:
157,129,31260,1,0,0:2:0:0:
176,46,31491,1,10,0:2:0:0:
340,11,31952,1,2,0:2:0:0:
488,88,32414,6,2,B|415:116|415:116|408:152|408:152|269:203,1,244.9999833107,6|0,3:2|0:2,0:1:0:0:
247,214,33337,2,2,P|298:230|188:298,1,279.999980926514,10|0,0:2|0:2,0:2:0:0:
167,247,34491,1,0,3:2:0:0:
92,281,34722,2,0,L|68:131,1,139.999990463257,2|10,3:2|0:2,0:0:0:0:
115,71,35414,2,0,P|87:48|41:35,2,69.9999952316285,0|2|2,0:0|0:2|3:2,0:0:0:0:
172,132,36106,5,0,3:2:0:0:
313,40,36568,1,0,0:2:0:0:
397,39,36799,2,0,P|452:53|484:63,2,69.9999952316285,0|8|0,0:2|0:2|0:2,0:0:0:0:
361,117,37491,1,0,0:2:0:0:
361,117,37722,1,2,3:2:0:0:
397,192,37952,2,0,P|371:249|352:329,2,139.999990463257,2|2|10,3:2|3:2|0:2,0:2:0:0:
244,129,39337,2,0,P|195:170|167:170,1,69.9999952316285,2|0,0:2|0:0,0:2:0:0:
115,133,39799,6,2,P|179:132|207:292,1,244.9999833107,6|0,3:2|0:2,0:1:0:0:
213,318,40722,2,0,P|155:336|126:355,1,69.9999952316285,10|0,0:2|0:0,0:2:0:0:
65,359,41183,2,0,L|53:214,1,139.999990463257,2|2,3:2|0:2,0:2:0:0:
53,135,41876,1,0,3:2:0:0:
103,69,42106,1,2,3:2:0:0:
103,69,42337,1,0,0:0:0:0:
186,49,42568,2,0,P|235:65|251:103,1,69.9999952316285,10|0,0:2|0:2,0:0:0:0:
327,62,43029,2,0,P|350:107|334:146,1,69.9999952316285,2|2,0:2|3:2,0:2:0:0:
420,167,43491,6,0,P|462:128|468:73,2,104.999992847443,2|2|2,3:2|3:2|3:2,0:2:0:0:
394,247,44414,2,0,P|398:278|414:312,2,46.6666634877523,8|0|0,0:2|0:2|0:2,0:2:0:0:
339,232,44876,2,0,P|253:189|199:214,1,139.999990463257,2|0,3:2|0:2,0:2:0:0:
162,264,45568,1,0,0:0:0:0:
175,347,45799,2,0,L|252:366,1,69.9999952316285,2|2,3:2|0:2,0:2:0:0:
318,325,46260,1,10,0:2:0:0:
477,377,46722,1,2,0:2:0:0:
484,209,47183,6,0,P|475:117|487:47,1,139.999990463257,6|0,3:2|0:2,0:2:0:0:
322,15,48106,2,0,P|328:84|319:153,1,139.999990463257,0|0,3:2|0:2,2:0:0:0:
150,152,49029,2,0,P|92:139|1:126,1,139.999990463257,0|0,3:2|0:2,2:0:0:0:
33,290,49952,2,0,P|91:303|182:316,1,139.999990463257,0|0,3:2|0:2,2:0:0:0:
331,360,50876,5,0,3:2:0:0:
490,307,51337,1,0,3:2:0:0:
331,251,51799,5,0,3:2:0:0:
172,198,52260,1,0,3:2:0:0:
332,147,52722,5,0,3:2:0:0:
491,94,53183,1,0,3:2:0:0:
328,52,53645,5,0,3:2:0:0:
169,0,54106,1,0,3:2:0:0:
256,192,54568,12,0,58260,3:2:0:0:
32,108,61952,5,6,3:2:0:0:
205,43,62414,2,0,L|296:67,1,76.9999971046448,2|2,0:2|0:2,0:2:0:0:
363,23,62876,1,8,0:2:0:0:
363,23,63106,1,2,0:2:0:0:
448,59,63337,2,0,B|489:109|489:109|427:299|427:299|329:211|329:211|380:166,1,461.999982627869,0|10,3:2|0:2,0:2:0:0:
191,136,65183,2,2,L|96:159,1,76.9999971046448,2|0,1:2|0:0,0:1:0:0:
30,118,65645,6,0,P|7:179|46:272,1,153.99999420929,0|2,3:2|0:2,0:0:0:0:
112,310,66337,1,2,0:2:0:0:
187,256,66568,1,10,0:2:0:0:
187,256,66799,1,0,0:2:0:0:
256,316,67029,2,0,B|356:282|485:358|485:358|516:239|374:183,1,461.999982627869,2|8,3:2|0:2,0:2:0:0:
206,128,68876,2,2,P|196:71|193:39,1,76.9999971046448,2|0,1:2|0:0,0:1:0:0:
281,14,69337,6,0,L|461:59,1,153.99999420929,0|2,3:2|0:2,0:2:0:0:
464,142,70029,1,2,0:2:0:0:
382,186,70260,1,8,0:2:0:0:
382,186,70491,1,2,0:2:0:0:
410,274,70722,2,0,B|377:354|377:354|163:302|163:302|139:363|139:363|32:336,1,461.999982627869,0|8,3:2|0:2,0:2:0:0:
39,156,72568,2,2,P|49:86|44:65,1,76.9999971046448,2|0,1:2|0:2,0:1:0:0:
113,15,73029,6,0,P|162:82|218:142,1,153.99999420929,0|2,3:2|0:2,0:0:0:0:
237,223,73722,1,2,0:2:0:0:
318,179,73952,1,8,0:2:0:0:
318,179,74183,1,2,0:2:0:0:
293,89,74414,2,0,P|328:62|365:73,1,76.9999971046448,2|2,3:2|0:2,0:2:0:0:
410,0,74876,2,0,P|453:5|472:39,1,76.9999971046448,2|2,0:2|0:2,0:2:0:0:
510,114,75337,1,2,0:2:0:0:
488,203,75568,1,2,0:2:0:0:
466,293,75799,2,0,L|496:369,2,76.9999971046448,8|0|2,0:2|3:2|1:2,0:2:0:0:
327,169,76722,6,0,B|240:130|240:130|246:62,1,153.99999420929,0|2,3:2|0:2,0:2:0:0:
174,11,77414,1,2,0:2:0:0:
88,46,77645,1,8,0:2:0:0:
88,46,77876,1,2,0:2:0:0:
32,119,78106,2,0,B|57:334|57:334|154:315|154:315|131:158,1,461.999982627869,0|8,3:2|0:2,0:2:0:0:
316,141,79952,2,2,L|396:157,1,76.9999971046448,2|0,1:2|0:0,0:1:0:0:
477,192,80414,6,0,B|501:222|501:222|467:365,1,153.99999420929,0|2,3:2|0:2,0:0:0:0:
385,359,81106,1,2,0:2:0:0:
323,289,81337,1,8,0:2:0:0:
323,289,81568,1,2,0:2:0:0:
243,335,81799,2,0,B|144:374|40:358|40:358|62:259|62:259|146:285|229:237,1,461.999982627869,0|8,3:2|0:2,0:2:0:0:
244,64,83645,2,2,P|206:26|157:35,1,76.9999971046448,2|0,1:2|0:0,0:1:0:0:
177,113,84106,6,0,P|257:96|354:93,1,153.99999420929,0|2,3:2|0:2,0:2:0:0:
402,35,84799,1,2,0:2:0:0:
474,92,85029,1,8,0:2:0:0:
474,92,85260,1,2,0:2:0:0:
462,183,85491,2,0,B|420:259|434:353|434:353|329:283|264:315|264:315|242:375|158:367,1,461.999982627869,0|8,3:2|0:2,0:2:0:0:
52,236,87337,2,2,L|75:150,1,76.9999971046448,2|0,1:2|0:0,0:1:0:0:
53,70,87799,6,0,B|110:62|110:62|134:88|134:88|220:74,1,153.99999420929,0|2,3:2|0:2,0:0:0:0:
270,25,88491,1,2,0:2:0:0:
353,64,88722,1,8,0:2:0:0:
353,64,88952,1,2,0:2:0:0:
435,22,89183,2,0,L|459:103,1,76.9999971046448,2|2,3:2|0:2,0:2:0:0:
399,168,89645,2,0,L|375:249,1,76.9999971046448,2|2,0:2|0:2,0:2:0:0:
432,315,90106,1,2,0:2:0:0:
351,361,90337,1,2,0:2:0:0:
272,311,90568,1,10,0:2:0:0:
95,363,91029,1,2,1:2:0:0:
28,208,91491,6,2,P|91:209|138:17,1,279.999980926514,6|8,3:2|0:2,0:1:0:0:
320,11,92876,2,0,P|395:30|440:103,1,139.999990463257,2|0,0:2|0:0,0:0:0:0:
467,153,93568,2,0,P|466:201|470:247,1,69.9999952316285,2|2,3:2|3:2,0:0:0:0:
495,254,93914,2,0,P|446:263|410:331,1,104.999992847443,2|10,3:2|0:2,0:2:0:0:
374,379,94491,1,0,0:0:0:0:
303,333,94722,1,0,0:2:0:0:
139,369,95183,6,0,L|104:71,1,279.999980926514,0|8,3:2|0:2,0:2:0:0:
351,31,96799,1,0,3:2:0:0:
351,31,97029,2,0,P|399:38|491:8,2,139.999990463257,2|2|10,3:2|3:2|0:2,0:2:0:0:
294,189,98414,2,0,P|271:232|265:277,1,69.9999952316285
187,283,98876,6,2,P|227:346|398:328,1,244.9999833107,4|0,3:2|0:2,0:1:0:0:
419,365,99799,2,2,B|404:299|404:299|418:290|418:290|404:216,1,139.999990463257,8|0,0:2|3:2,0:1:0:0:
256,33,100952,2,0,P|199:27|168:22,1,69.9999952316285,0|2,3:2|3:2,0:2:0:0:
143,26,101299,2,0,P|160:89|176:159,1,104.999992847443,2|10,3:2|0:2,0:2:0:0:
233,181,101876,1,0,0:0:0:0:
232,264,102106,2,0,P|188:314|167:318,1,69.9999952316285,0|2,0:2|3:2,0:0:0:0:
110,280,102568,6,0,P|52:299|22:358,2,104.999992847443,2|0|0,3:2|3:2|3:2,0:2:0:0:
114,196,103491,1,10,0:2:0:0:
43,43,103952,2,0,B|168:32|99:131|246:115,1,209.999985694886,0|2,3:2|0:2,0:2:0:0:
308,93,104876,2,0,P|328:54|351:25,1,69.9999952316285,2|0,3:2|0:2,0:2:0:0:
427,26,105337,1,10,0:2:0:0:
486,183,105799,1,0,0:0:0:0:
408,331,106260,6,2,P|362:266|217:250,1,209.999985694886,4|0,3:2|0:2,0:1:0:0:
169,286,107183,1,10,0:2:0:0:
40,177,107645,2,0,L|30:107,2,69.9999952316285,2|2|2,0:2|0:2|0:2,0:2:0:0:
113,136,108337,2,0,P|170:112|196:102,1,69.9999952316285,0|2,3:2|3:2,0:2:0:0:
205,140,108683,2,0,L|223:16,1,104.999992847443,2|8,3:2|0:2,0:2:0:0:
303,12,109260,1,0,0:0:0:0:
303,12,109491,2,0,L|376:27,1,69.9999952316285,2|0,0:2|3:2,0:2:0:0:
453,45,109952,6,2,B|484:85|484:85|448:180,1,139.999990463257,2|0,3:2|0:2,0:1:0:0:
421,247,110645,1,0,0:2:0:0:
448,326,110876,2,0,P|401:349|368:355,1,69.9999952316285,10|2,0:2|0:2,0:2:0:0:
299,350,111337,2,0,P|265:340|235:323,1,69.9999952316285,2|2,0:2|3:2,0:2:0:0:
181,257,111799,2,0,P|126:281|47:348,2,139.999990463257,0|2|10,3:2|3:2|0:2,0:2:0:0:
274,117,113183,2,0,P|278:42|276:28,1,69.9999952316285,2|0,0:2|0:0,0:2:0:0:
201,12,113645,6,2,P|140:17|31:148,1,209.999985694886,6|0,3:2|0:2,0:1:0:0:
62,202,114568,1,10,0:2:0:0:
62,202,114799,1,0,0:0:0:0:
16,272,115029,2,0,P|58:262|123:338,1,139.999990463257,0|2,3:2|0:2,0:2:0:0:
199,357,115722,2,0,P|224:328|269:313,1,69.9999952316285,2|2,3:2|3:2,0:2:0:0:
274,278,116068,2,0,P|323:279|378:332,1,104.999992847443,2|10,3:2|0:2,0:2:0:0:
498,205,116876,2,0,P|479:148|465:111,1,69.9999952316285,2|0,0:2|3:2,0:2:0:0:
429,68,117337,6,0,P|475:22|527:9,2,104.999992847443,2|0|0,3:2|3:2|3:2,0:2:0:0:
347,87,118260,2,0,P|291:77|280:21,1,104.999992847443,10|0,3:2|0:0,0:2:0:0:
241,11,118722,1,0,3:0:0:0:
178,66,118952,1,0,0:0:0:0:
91,47,119183,6,0,P|57:98|38:115,1,69.9999952316285,2|2,0:2|0:2,0:2:0:0:
123,147,119645,2,0,P|157:198|176:215,1,69.9999952316285,2|2,3:2|0:2,0:2:0:0:
96,255,120106,2,0,P|62:306|43:323,1,69.9999952316285,8|2,0:2|0:2,0:2:0:0:
120,366,120568,1,2,0:2:0:0:
285,339,121029,6,0,P|359:331|433:308,1,139.999990463257,4|0,3:2|0:0,0:2:0:0:
474,152,121952,2,0,P|400:144|326:121,1,139.999990463257,0|0,3:2|0:0,2:0:0:0:
214,10,122876,2,0,P|198:91|172:162,1,139.999990463257,0|0,3:2|0:0,2:0:0:0:
38,236,123799,2,0,P|54:317|80:388,1,139.999990463257,0|0,3:2|0:0,2:0:0:0:
226,307,124722,5,0,3:2:0:0:
179,145,125183,1,0,3:2:0:0:
346,157,125645,5,0,3:2:0:0:
393,0,126106,1,0,3:2:0:0:
506,124,126568,5,0,3:2:0:0:
346,157,127029,1,0,3:2:0:0:
227,276,127491,5,0,3:2:0:0:
387,309,127952,1,0,3:2:0:0:
256,192,128414,12,4,132106,3:2:0:0:
47,356,135799,6,0,P|81:334|201:285,1,153.99999420929,4|2,3:2|0:2,0:2:0:0:
275,312,136491,1,2,0:2:0:0:
353,360,136722,1,8,0:2:0:0:
353,360,136952,1,2,0:2:0:0:
428,304,137183,2,0,L|457:122,1,153.99999420929,2|0,3:2|0:0,1:2:0:0:
475,61,137876,2,0,B|321:98|321:98|301:178,1,230.999991313934,0|8,0:2|0:2,3:0:0:0:
132,237,139029,2,2,P|122:166|115:152,1,76.9999971046448,2|0,1:2|0:0,0:1:0:0:
55,95,139491,6,0,P|109:65|196:-6,1,153.99999420929,0|2,3:2|0:2,0:0:0:0:
274,51,140183,1,2,0:2:0:0:
364,32,140414,1,8,0:2:0:0:
364,32,140645,1,2,0:2:0:0:
432,93,140876,2,0,B|415:116|418:138|418:138|367:127|321:151|321:151|340:198|292:244,1,230.999991313934,2|0,3:2|0:2,1:2:0:0:
377,289,141799,2,0,P|311:287|251:372,1,153.99999420929,2|10,0:2|0:2,0:0:0:0:
70,324,142722,1,0,1:2:0:0:
81,139,143183,6,0,L|252:187,1,153.99999420929,0|2,3:2|0:2,0:2:0:0:
307,127,143876,1,2,0:2:0:0:
386,174,144106,1,8,0:2:0:0:
386,174,144337,1,2,0:2:0:0:
475,149,144568,2,0,P|495:91|515:0,1,153.99999420929,0|0,3:2|0:0,1:2:0:0:
424,19,145260,2,0,B|365:28|365:28|341:10|341:10|247:25,1,153.99999420929,0|0,0:2|0:0,3:2:0:0:
186,35,145952,1,8,0:2:0:0:
1,19,146414,2,2,P|43:65|51:93,1,76.9999971046448,2|0,1:2|0:0,0:1:0:0:
134,112,146876,6,0,P|116:170|44:245,1,153.99999420929,0|2,3:2|0:2,0:0:0:0:
29,327,147568,1,2,0:2:0:0:
111,368,147799,1,8,0:2:0:0:
111,368,148029,1,2,0:2:0:0:
175,302,148260,2,0,B|202:266|202:266|343:288|343:288|360:353,1,230.999991313934,2|0,3:2|0:2,1:2:0:0:
438,375,149183,2,0,P|456:291|479:200,1,153.99999420929,2|10,0:2|0:2,0:0:0:0:
487,40,150106,2,2,P|431:55|399:63,1,76.9999971046448,0|0,1:2|0:0,0:1:0:0:
335,7,150568,6,0,P|281:37|230:134,1,153.99999420929,2|2,3:2|0:2,0:2:0:0:
274,198,151260,1,2,0:2:0:0:
359,232,151491,1,8,0:2:0:0:
359,232,151722,1,2,0:2:0:0:
405,311,151952,2,0,B|385:363|385:363|268:339,1,153.99999420929,0|0,3:2|0:0,1:2:0:0:
218,282,152645,2,0,B|62:313|62:313|78:387,1,230.999991313934,0|8,0:2|0:2,3:2:0:0:
112,201,153799,2,2,L|132:107,1,76.9999971046448,2|0,0:2|0:0,0:1:0:0:
209,168,154260,6,0,L|375:146,1,153.99999420929,0|2,3:2|0:2,0:0:0:0:
446,202,154952,1,2,0:2:0:0:
491,121,155183,1,8,0:2:0:0:
491,121,155414,1,2,0:2:0:0:
460,33,155645,2,0,B|370:21|370:21|329:56|329:56|236:38,1,230.999991313934,2|0,3:2|0:2,1:2:0:0:
174,100,156568,2,0,B|146:57|146:57|82:62|82:62|70:103,1,153.99999420929,2|10,0:2|0:2,0:0:0:0:
133,273,157491,1,0,1:2:0:0:
287,172,157952,6,0,B|359:162|359:162|394:254,1,153.99999420929,0|2,3:2|0:2,0:2:0:0:
423,329,158645,1,2,0:2:0:0:
483,259,158876,1,8,0:2:0:0:
483,259,159106,1,2,0:2:0:0:
458,169,159337,2,0,B|486:58|486:58|426:38,1,153.99999420929,0|0,3:2|0:0,1:2:0:0:
361,14,160029,2,0,L|332:194,1,153.99999420929,0|0,0:2|0:0,3:2:0:0:
258,216,160722,1,8,0:2:0:0:
168,54,161183,2,2,P|129:40|89:29,1,76.9999971046448,2|0,1:2|0:0,0:1:0:0:
37,103,161645,6,0,P|62:152|98:254,1,153.99999420929,0|2,3:2|0:2,0:0:0:0:
98,337,162337,1,2,0:2:0:0:
185,365,162568,1,8,0:2:0:0:
185,365,162799,1,2,0:2:0:0:
250,299,163029,2,0,B|271:287|291:280|291:280|307:312|332:336|332:336|343:317|375:313|375:313|388:352|418:366,1,230.999991313934,2|0,3:2|0:2,1:2:0:0:
473,293,163952,2,0,P|492:244|405:187,1,153.99999420929,2|10,0:2|0:2,0:0:0:0:
243,146,164876,2,0,P|236:111|266:68,1,76.9999971046448,0|0,1:2|0:0,0:2:0:0:
332,44,165337,5,0,3:2:0:0:
