osu file format v14

[General]
AudioFilename: audio.mp3
AudioLeadIn: 0
PreviewTime:59529
Countdown: 0
SampleSet: Soft
StackLeniency: 0.4
Mode: 0
LetterboxInBreaks: 0
WidescreenStoryboard: 1

[Editor]
Bookmarks: 17645,47183,61952,91491,121029,135799,165337
DistanceSpacing: 0.6
BeatDivisor: 4
GridSize: 32
TimelineZoom: 2.4

[Metadata]
Title:REDLIGHT (VIP)
TitleUnicode:REDLIGHT (VIP)
Artist:NGHTMRE & A$AP Ferg
ArtistUnicode:NGHTMRE & A$AP Ferg
Creator:Mir
Version:HARD
Source:
Tags:rap hiphop hip hop hip-hop electronic english altai -_heatwave_- nfs heat need for speed asap ultra music undeadphoneguy heatwave trap thzz nightmare and
BeatmapID:2824918
BeatmapSetID:1358547

[Difficulty]
HPDrainRate:4
CircleSize:4
OverallDifficulty:6
ApproachRate:7.5
SliderMultiplier:1.59999990463257
SliderTickRate:1

[Events]
//Background and Video events
0,0,"red light.jpg",0,0
//Break Periods
//Storyboard Layer 0 (Background)
//Storyboard Layer 1 (Fail)
//Storyboard Layer 2 (Pass)
//Storyboard Layer 3 (Foreground)
//Storyboard Layer 4 (Overlay)
//Storyboard Sound Samples

[TimingPoints]
2876,461.538461538462,4,2,1,50,1,0
15914,-100,4,2,1,5,0,0
16029,-100,4,2,1,50,0,0
16376,-100,4,2,1,5,0,0
16491,-100,4,2,1,50,0,0
16837,-100,4,2,1,5,0,0
16952,-100,4,2,1,50,0,0
17645,-83.3333333333333,4,2,1,50,0,0
18106,-100,4,2,1,50,0,0
20010,-100,4,2,1,5,0,0
20068,-100,4,2,1,50,0,0
20356,-100,4,2,1,5,0,0
20414,-100,4,2,1,50,0,0
21049,-100,4,2,1,5,0,0
21106,-100,4,2,1,50,0,0
23356,-100,4,2,1,5,0,0
23414,-100,4,2,1,50,0,0
25029,-83.3333333333333,4,2,1,50,0,0
25491,-100,4,2,1,50,0,0
26356,-100,4,2,1,5,0,0
26414,-100,4,2,1,50,0,0
28433,-100,4,2,1,5,0,0
28491,-100,4,2,1,50,0,0
32414,-83.3333333333333,4,2,1,50,0,0
32876,-100,4,2,1,50,0,0
35587,-100,4,2,1,5,0,0
35645,-100,4,2,1,50,0,0
38491,-100,4,2,1,5,0,0
38568,-100,4,2,1,50,0,0
38645,-100,4,2,1,5,0,0
38722,-100,4,2,1,50,0,0
38799,-100,4,2,1,5,0,0
38876,-100,4,2,1,50,0,0
38952,-100,4,2,1,5,0,0
39029,-100,4,2,1,50,0,0
39106,-100,4,2,1,5,0,0
39183,-100,4,2,1,50,0,0
39260,-100,4,2,1,5,0,0
39337,-100,4,2,1,50,0,0
39799,-83.3333333333333,4,2,1,50,0,0
40260,-100,4,2,1,50,0,0
41126,-100,4,2,1,5,0,0
41183,-100,4,2,1,50,0,0
42164,-100,4,2,1,5,0,0
42222,-100,4,2,1,50,0,0
43202,-100,4,2,1,5,0,0
43260,-100,4,2,1,50,0,0
44491,-100,4,2,1,5,0,0
44568,-100,4,2,1,50,0,0
44645,-100,4,2,1,5,0,0
44722,-100,4,2,1,50,0,0
44799,-100,4,2,1,5,0,0
44876,-100,4,2,1,50,0,0
45722,-100,4,2,1,5,0,0
45799,-100,4,2,1,50,0,0
45972,-100,4,2,1,5,0,0
46029,-100,4,2,1,50,0,0
47183,-83.3333333333333,4,2,1,50,0,0
47645,-125,4,1,1,35,0,0
54568,-125,4,2,1,50,0,0
61895,-125,4,1,1,5,0,0
61952,-83.3333333333333,4,2,1,80,0,0
62472,-83.3333333333333,4,2,1,5,0,0
62529,-83.3333333333333,4,2,1,80,0,0
62587,-83.3333333333333,4,2,1,5,0,0
62644,-83.3333333333333,4,2,1,80,0,0
62702,-83.3333333333333,4,2,1,5,0,0
62759,-83.3333333333333,4,2,1,80,0,0
62818,-83.3333333333333,4,2,1,5,0,0
62875,-83.3333333333333,4,2,1,80,0,0
63337,-83.3333333333333,4,2,1,80,0,1
64664,-83.3333333333333,4,2,1,5,0,0
64722,-83.3333333333333,4,2,1,80,0,0
65126,-83.3333333333333,4,2,1,5,0,0
65183,-83.3333333333333,4,2,1,80,0,0
65299,-83.3333333333333,4,2,1,5,0,0
65356,-83.3333333333333,4,2,1,80,0,0
66164,-83.3333333333333,4,2,1,5,0,0
66221,-83.3333333333333,4,2,1,80,0,0
66279,-83.3333333333333,4,2,1,5,0,0
66336,-83.3333333333333,4,2,1,80,0,0
66395,-83.3333333333333,4,2,1,5,0,0
66452,-83.3333333333333,4,2,1,80,0,0
66510,-83.3333333333333,4,2,1,5,0,0
66567,-83.3333333333333,4,2,1,80,0,0
67029,-83.3333333333333,4,2,1,80,0,1
68356,-83.3333333333333,4,2,1,5,0,0
68414,-83.3333333333333,4,2,1,80,0,0
68991,-83.3333333333333,4,2,1,5,0,0
69106,-83.3333333333333,4,2,1,80,0,0
69337,-83.3333333333333,4,2,1,80,0,0
69856,-83.3333333333333,4,2,1,5,0,0
69913,-83.3333333333333,4,2,1,80,0,0
69972,-83.3333333333333,4,2,1,5,0,0
70029,-83.3333333333333,4,2,1,80,0,0
70087,-83.3333333333333,4,2,1,5,0,0
70144,-83.3333333333333,4,2,1,80,0,0
70202,-83.3333333333333,4,2,1,5,0,0
70259,-83.3333333333333,4,2,1,80,0,0
70722,-83.3333333333333,4,2,1,80,0,1
72049,-83.3333333333333,4,2,1,5,0,0
72106,-83.3333333333333,4,2,1,80,0,0
72279,-83.3333333333333,4,2,1,5,0,0
72337,-83.3333333333333,4,2,1,80,0,0
73549,-83.3333333333333,4,2,1,5,0,0
73606,-83.3333333333333,4,2,1,80,0,0
73664,-83.3333333333333,4,2,1,5,0,0
73721,-83.3333333333333,4,2,1,80,0,0
73779,-83.3333333333333,4,2,1,5,0,0
73836,-83.3333333333333,4,2,1,80,0,0
73895,-83.3333333333333,4,2,1,5,0,0
73952,-83.3333333333333,4,2,1,80,0,0
74414,-83.3333333333333,4,2,1,80,0,1
74587,-83.3333333333333,4,2,1,5,0,1
74645,-83.3333333333333,4,2,1,80,0,1
74818,-83.3333333333333,4,2,1,5,0,1
74876,-83.3333333333333,4,2,1,80,0,1
75049,-83.3333333333333,4,2,1,5,0,1
75107,-83.3333333333333,4,2,1,80,0,1
75279,-83.3333333333333,4,2,1,5,0,1
75337,-83.3333333333333,4,2,1,80,0,1
75510,-83.3333333333333,4,2,1,5,0,1
75568,-83.3333333333333,4,2,1,80,0,1
75741,-83.3333333333333,4,2,1,5,0,1
75799,-83.3333333333333,4,2,1,80,0,0
75972,-83.3333333333333,4,2,1,5,0,0
76029,-83.3333333333333,4,2,1,80,0,0
77241,-83.3333333333333,4,2,1,5,0,0
77298,-83.3333333333333,4,2,1,80,0,0
77356,-83.3333333333333,4,2,1,5,0,0
77413,-83.3333333333333,4,2,1,80,0,0
77472,-83.3333333333333,4,2,1,5,0,0
77529,-83.3333333333333,4,2,1,80,0,0
77587,-83.3333333333333,4,2,1,5,0,0
77644,-83.3333333333333,4,2,1,80,0,0
78106,-83.3333333333333,4,2,1,80,0,1
79433,-83.3333333333333,4,2,1,5,0,0
79491,-83.3333333333333,4,2,1,80,0,0
80068,-83.3333333333333,4,2,1,5,0,0
80183,-83.3333333333333,4,2,1,80,0,0
80933,-83.3333333333333,4,2,1,5,0,0
80990,-83.3333333333333,4,2,1,80,0,0
81049,-83.3333333333333,4,2,1,5,0,0
81106,-83.3333333333333,4,2,1,80,0,0
81164,-83.3333333333333,4,2,1,5,0,0
81221,-83.3333333333333,4,2,1,80,0,0
81279,-83.3333333333333,4,2,1,5,0,0
81336,-83.3333333333333,4,2,1,80,0,0
81799,-83.3333333333333,4,2,1,80,0,1
83126,-83.3333333333333,4,2,1,5,0,0
83183,-83.3333333333333,4,2,1,80,0,0
83587,-83.3333333333333,4,2,1,5,0,0
83645,-83.3333333333333,4,2,1,80,0,0
83760,-83.3333333333333,4,2,1,5,0,0
83876,-83.3333333333333,4,2,1,80,0,0
84626,-83.3333333333333,4,2,1,5,0,0
84683,-83.3333333333333,4,2,1,80,0,0
84741,-83.3333333333333,4,2,1,5,0,0
84798,-83.3333333333333,4,2,1,80,0,0
84856,-83.3333333333333,4,2,1,5,0,0
84913,-83.3333333333333,4,2,1,80,0,0
84972,-83.3333333333333,4,2,1,5,0,0
85029,-83.3333333333333,4,2,1,80,0,0
85491,-83.3333333333333,4,2,1,80,0,1
86818,-83.3333333333333,4,2,1,80,0,0
86876,-83.3333333333333,4,2,1,50,0,0
87049,-83.3333333333333,4,2,1,5,0,0
87106,-83.3333333333333,4,2,1,80,0,0
88318,-83.3333333333333,4,2,1,5,0,0
88375,-83.3333333333333,4,2,1,80,0,0
88433,-83.3333333333333,4,2,1,5,0,0
88490,-83.3333333333333,4,2,1,80,0,0
88549,-83.3333333333333,4,2,1,5,0,0
88606,-83.3333333333333,4,2,1,80,0,0
88664,-83.3333333333333,4,2,1,5,0,0
88721,-83.3333333333333,4,2,1,80,0,0
89183,-83.3333333333333,4,2,1,80,0,1
89356,-83.3333333333333,4,2,1,5,0,1
89414,-83.3333333333333,4,2,1,80,0,1
89587,-83.3333333333333,4,2,1,5,0,1
89645,-83.3333333333333,4,2,1,80,0,1
89818,-83.3333333333333,4,2,1,5,0,1
89876,-83.3333333333333,4,2,1,80,0,1
90049,-83.3333333333333,4,2,1,5,0,1
90107,-83.3333333333333,4,2,1,80,0,1
90279,-83.3333333333333,4,2,1,5,0,1
90337,-83.3333333333333,4,2,1,80,0,1
90510,-83.3333333333333,4,2,1,5,0,1
90568,-83.3333333333333,4,2,1,80,0,0
91145,-83.3333333333333,4,2,1,5,0,0
91202,-83.3333333333333,4,2,1,80,0,0
91491,-83.3333333333333,4,2,1,50,0,0
91952,-100,4,2,1,50,0,0
93856,-100,4,2,1,5,0,0
93914,-100,4,2,1,50,0,0
94352,-100,4,2,1,5,0,0
94445,-100,4,2,1,50,0,0
94537,-100,4,2,1,5,0,0
94629,-100,4,2,1,50,0,0
94814,-100,4,2,1,50,0,0
95126,-100,4,2,1,5,0,0
95183,-100,4,2,1,50,0,0
98810,-100,4,2,1,5,0,0
98876,-83.3333333333333,4,2,1,50,0,0
99337,-100,4,2,1,50,0,0
100202,-100,4,2,1,5,0,0
100260,-100,4,2,1,50,0,0
100664,-100,4,2,1,5,0,0
100722,-100,4,2,1,50,0,0
101241,-100,4,2,1,5,0,0
101299,-100,4,2,1,50,0,0
101737,-100,4,2,1,5,0,0
101829,-100,4,2,1,50,0,0
101922,-100,4,2,1,5,0,0
102014,-100,4,2,1,50,0,0
102198,-100,4,2,1,50,0,0
103895,-100,4,2,1,5,0,0
103952,-100,4,2,1,50,0,0
106194,-100,4,2,1,5,0,0
106260,-83.3333333333333,4,2,1,50,0,0
106722,-100,4,2,1,50,0,0
108279,-100,4,2,1,5,0,0
108337,-100,4,2,1,50,0,0
108626,-100,4,2,1,5,0,0
108683,-100,4,2,1,50,0,0
108972,-100,4,2,1,5,0,0
109029,-100,4,2,1,50,0,0
111510,-100,4,2,1,5,0,0
111568,-100,4,2,1,50,0,0
111741,-100,4,2,1,5,0,0
111799,-100,4,2,1,50,0,0
113299,-100,4,2,1,5,0,0
113414,-100,4,2,1,50,0,0
113645,-83.3333333333333,4,2,1,50,0,0
114106,-100,4,2,1,50,0,0
114972,-100,4,2,1,5,0,0
115029,-100,4,2,1,50,0,0
116010,-100,4,2,1,5,0,0
116068,-100,4,2,1,50,0,0
116356,-100,4,2,1,5,0,0
116414,-100,4,2,1,50,0,0
118664,-100,4,2,1,5,0,0
118722,-100,4,2,1,50,0,0
120279,-100,4,2,1,5,0,0
120337,-100,4,2,1,50,0,0
120510,-100,4,2,1,5,0,0
120568,-100,4,2,1,50,0,0
121029,-83.3333333333333,4,2,1,50,0,0
121491,-100,4,1,1,35,0,0
128414,-100,4,2,1,50,0,0
135741,-100,4,2,1,5,0,0
135799,-83.3333333333333,4,2,1,80,0,0
136318,-83.3333333333333,4,2,1,5,0,0
136376,-83.3333333333333,4,2,1,80,0,0
136433,-83.3333333333333,4,2,1,5,0,0
136491,-83.3333333333333,4,2,1,80,0,0
136549,-83.3333333333333,4,2,1,5,0,0
136607,-83.3333333333333,4,2,1,80,0,0
136664,-83.3333333333333,4,2,1,5,0,0
136722,-83.3333333333333,4,2,1,80,0,0
137183,-83.3333333333333,4,2,1,80,0,1
137818,-83.3333333333333,4,2,1,5,0,1
137876,-83.3333333333333,4,2,1,80,0,1
138510,-83.3333333333333,4,2,1,5,0,1
138568,-83.3333333333333,4,2,1,80,0,0
139145,-83.3333333333333,4,2,1,5,0,0
139260,-83.3333333333333,4,2,1,80,0,0
140010,-83.3333333333333,4,2,1,5,0,0
140068,-83.3333333333333,4,2,1,80,0,0
140126,-83.3333333333333,4,2,1,5,0,0
140184,-83.3333333333333,4,2,1,80,0,0
140241,-83.3333333333333,4,2,1,5,0,0
140299,-83.3333333333333,4,2,1,80,0,0
140356,-83.3333333333333,4,2,1,5,0,0
140414,-83.3333333333333,4,2,1,80,0,0
140876,-83.3333333333333,4,2,1,80,0,1
142260,-83.3333333333333,4,2,1,80,0,0
142837,-83.3333333333333,4,2,1,5,0,0
142952,-83.3333333333333,4,2,1,80,0,0
143587,-83.3333333333333,4,2,1,5,0,0
143645,-83.3333333333333,4,2,1,80,0,0
143702,-83.3333333333333,4,2,1,5,0,0
143760,-83.3333333333333,4,2,1,80,0,0
143818,-83.3333333333333,4,2,1,5,0,0
143876,-83.3333333333333,4,2,1,80,0,0
143933,-83.3333333333333,4,2,1,5,0,0
143991,-83.3333333333333,4,2,1,80,0,0
144049,-83.3333333333333,4,2,1,5,0,0
144107,-83.3333333333333,4,2,1,80,0,0
144568,-83.3333333333333,4,2,1,80,0,1
145202,-83.3333333333333,4,2,1,5,0,1
145260,-83.3333333333333,4,2,1,80,0,1
145895,-83.3333333333333,4,2,1,5,0,1
145952,-83.3333333333333,4,2,1,80,0,0
146126,-83.3333333333333,4,2,1,5,0,0
146183,-83.3333333333333,4,2,1,80,0,0
146356,-83.3333333333333,4,2,1,5,0,0
146414,-83.3333333333333,4,2,1,80,0,0
146529,-83.3333333333333,4,2,1,5,0,0
146644,-83.3333333333333,4,2,1,80,0,0
147395,-83.3333333333333,4,2,1,5,0,0
147453,-83.3333333333333,4,2,1,80,0,0
147510,-83.3333333333333,4,2,1,5,0,0
147568,-83.3333333333333,4,2,1,80,0,0
147626,-83.3333333333333,4,2,1,5,0,0
147684,-83.3333333333333,4,2,1,80,0,0
147741,-83.3333333333333,4,2,1,5,0,0
147799,-83.3333333333333,4,2,1,80,0,0
148260,-83.3333333333333,4,2,1,80,0,1
149645,-83.3333333333333,4,2,1,80,0,0
150222,-83.3333333333333,4,2,1,5,0,0
150337,-83.3333333333333,4,2,1,80,0,0
151087,-83.3333333333333,4,2,1,5,0,0
151145,-83.3333333333333,4,2,1,80,0,0
151202,-83.3333333333333,4,2,1,5,0,0
151260,-83.3333333333333,4,2,1,80,0,0
151318,-83.3333333333333,4,2,1,5,0,0
151376,-83.3333333333333,4,2,1,80,0,0
151433,-83.3333333333333,4,2,1,5,0,0
151491,-83.3333333333333,4,2,1,80,0,0
151952,-83.3333333333333,4,2,1,80,0,1
152587,-83.3333333333333,4,2,1,5,0,1
152645,-83.3333333333333,4,2,1,80,0,1
153279,-83.3333333333333,4,2,1,5,0,1
153337,-83.3333333333333,4,2,1,80,0,0
153914,-83.3333333333333,4,2,1,5,0,0
154029,-83.3333333333333,4,2,1,80,0,0
154779,-83.3333333333333,4,2,1,5,0,0
154837,-83.3333333333333,4,2,1,80,0,0
154895,-83.3333333333333,4,2,1,5,0,0
154953,-83.3333333333333,4,2,1,80,0,0
155010,-83.3333333333333,4,2,1,5,0,0
155068,-83.3333333333333,4,2,1,80,0,0
155126,-83.3333333333333,4,2,1,5,0,0
155184,-83.3333333333333,4,2,1,80,0,0
155645,-83.3333333333333,4,2,1,80,0,1
157029,-83.3333333333333,4,2,1,80,0,0
157606,-83.3333333333333,4,2,1,5,0,0
157721,-83.3333333333333,4,2,1,80,0,0
158472,-83.3333333333333,4,2,1,5,0,0
158530,-83.3333333333333,4,2,1,80,0,0
158587,-83.3333333333333,4,2,1,5,0,0
158645,-83.3333333333333,4,2,1,80,0,0
158702,-83.3333333333333,4,2,1,5,0,0
158760,-83.3333333333333,4,2,1,80,0,0
158818,-83.3333333333333,4,2,1,5,0,0
158876,-83.3333333333333,4,2,1,80,0,0
159279,-83.3333333333333,4,2,1,5,0,0
159337,-83.3333333333333,4,2,1,80,0,1
159972,-83.3333333333333,4,2,1,5,0,1
160029,-83.3333333333333,4,2,1,80,0,1
160664,-83.3333333333333,4,2,1,5,0,1
160722,-83.3333333333333,4,2,1,80,0,0
160895,-83.3333333333333,4,2,1,5,0,0
160952,-83.3333333333333,4,2,1,80,0,0
161299,-83.3333333333333,4,2,1,5,0,0
161414,-83.3333333333333,4,2,1,80,0,0
162164,-83.3333333333333,4,2,1,5,0,0
162222,-83.3333333333333,4,2,1,80,0,0
162279,-83.3333333333333,4,2,1,5,0,0
162337,-83.3333333333333,4,2,1,80,0,0
162395,-83.3333333333333,4,2,1,5,0,0
162453,-83.3333333333333,4,2,1,80,0,0
162510,-83.3333333333333,4,2,1,5,0,0
162568,-83.3333333333333,4,2,1,80,0,0
163029,-83.3333333333333,4,2,1,80,0,1
164414,-83.3333333333333,4,2,1,80,0,0
164991,-83.3333333333333,4,2,1,5,0,0
165106,-83.3333333333333,4,2,1,80,0,0

[Colours]
Combo1 : 0,166,166
Combo2 : 191,15,41
Combo3 : 134,13,255
Combo4 : 210,0,105

[HitObjects]
58,328,15799,5,0,0:2:0:0:
72,334,16260,1,0,0:2:0:0:
86,340,16722,1,0,0:2:0:0:
173,372,17183,6,0,P|200:324|163:257,1,119.999992847443,0|0,0:2|0:2,0:2:0:0:
177,267,17645,6,2,B|226:256|226:256|238:264|238:264|346:243,1,143.9999870224,6|0,3:2|0:2,0:1:0:0:
343,211,18106,2,0,L|352:176,6,19.9999988079071,0|0|0|0|0|0|0,0:2|0:2|0:2|0:2|0:2|0:2|0:2,0:0:0:0:
395,215,18568,2,0,B|426:245|426:245|397:287,1,79.9999952316285,8|0,0:2|0:2,0:2:0:0:
397,285,18914,1,0,0:2:0:0:
390,294,19029,1,0,0:2:0:0:
372,384,19260,2,0,P|342:361|287:361,1,79.9999952316285,0|0,0:2|0:2,0:2:0:0:
206,384,19722,1,2,3:2:0:0:
116,363,19952,5,2,3:2:0:0:
116,363,20068,2,0,P|91:325|102:286,1,79.9999952316285,2|0,3:2|0:0,0:2:0:0:
107,286,20414,1,8,0:2:0:0:
74,206,20645,2,0,P|32:205|-8:229,2,79.9999952316285,0|0|0,0:2|0:2|3:2,0:2:0:0:
166,161,21337,6,0,P|176:115|191:29,1,119.999992847443,2|0,3:2|0:2,0:2:0:0:
214,25,21799,2,0,L|207:-8,6,19.9999988079071,0|0|0|0|0|0|0,0:2|0:2|0:2|0:2|0:2|0:2|0:2,0:0:0:0:
270,44,22260,1,10,0:2:0:0:
270,44,22376,1,0,0:2:0:0:
270,44,22491,2,0,P|309:57|350:65,1,79.9999952316285,0|2,0:2|0:2,0:2:0:0:
419,150,22952,1,2,3:2:0:0:
406,273,23183,6,0,B|345:259|378:215|307:202,1,119.999992847443,0|0,3:2|0:2,0:2:0:0:
305,195,23645,2,0,P|246:204|248:262,1,119.999992847443,2|0,3:2|0:2,0:0:0:0:
250,264,24106,2,0,P|269:290|271:309,2,39.9999976158142,10|0|2,0:2|0:2|0:2,0:0:0:0:
161,201,24568,2,0,P|124:194|72:189,1,79.9999952316285,2|2,0:2|0:2,0:2:0:0:
0,358,25029,6,2,B|56:340|56:340|68:301|68:301|124:286,1,143.9999870224,4|0,3:2|0:2,0:1:0:0:
154,321,25491,2,0,L|158:346,6,19.9999988079071,0|0|0|0|0|0|0,0:2|0:2|0:2|0:2|0:2|0:2|0:2,0:0:0:0:
197,291,25952,2,2,P|234:271|273:324,1,119.999992847443,10|0,0:2|0:0,0:1:0:0:
272,324,26414,2,0,L|254:159,1,159.999990463257,0|0,3:2|0:2,0:2:0:0:
299,86,27106,1,2,0:2:0:0:
203,24,27337,5,0,3:2:0:0:
203,24,27452,1,0,3:2:0:0:
203,24,27568,2,0,L|118:41,1,79.9999952316285,2|10,0:2|0:2,0:2:0:0:
49,92,28029,5,2,0:2:0:0:
162,133,28260,1,2,0:2:0:0:
71,209,28491,1,2,3:2:0:0:
71,209,28722,2,0,P|78:248|81:347,2,119.999992847443,2|2|2,3:2|3:2|3:2,0:2:0:0:
162,133,29645,2,0,P|201:119|243:188,1,119.999992847443,10|0,3:2|0:2,0:2:0:0:
240,182,30106,6,0,L|401:229,1,159.999990463257,0|0,0:2|0:2,0:2:0:0:
427,313,30799,1,0,0:2:0:0:
427,313,30914,1,0,0:2:0:0:
427,313,31029,2,0,P|421:339|406:366,2,39.9999976158142,2|0|0,3:2|0:2|0:2,0:0:0:0:
344,300,31491,2,0,P|318:337|247:360,1,119.999992847443,10|0,0:2|0:2,0:0:0:0:
242,350,31952,2,0,P|206:301|142:304,1,119.999992847443,2|0,0:2|0:2,0:2:0:0:
146,313,32414,6,2,B|159:226|159:226|144:207|144:207|153:159,1,143.9999870224,6|0,3:2|0:2,0:1:0:0:
176,133,32876,2,0,L|206:124,6,19.9999988079071,0|0|0|0|0|0|0,0:2|0:2|0:2|0:2|0:2|0:2|0:2,0:0:0:0:
162,88,33337,2,2,P|119:69|51:149,1,159.999990463257,10|2,0:2|0:2,0:2:0:0:
288,185,34491,5,0,3:2:0:0:
356,96,34722,1,2,3:2:0:0:
356,96,34837,2,0,P|397:84|426:119,1,79.9999952316285,0|0,3:2|0:2,0:0:0:0:
428,117,35183,2,0,L|446:31,2,79.9999952316285,10|0|2,0:2|0:0|0:2,0:2:0:0:
482,197,35876,1,2,3:2:0:0:
413,262,36106,1,0,3:2:0:0:
484,358,36337,5,0,0:0:0:0:
484,358,36452,1,0,0:2:0:0:
484,358,36568,2,0,P|509:328|500:280,1,79.9999952316285,0|0,0:2|0:2,0:0:0:0:
413,262,37029,5,8,0:2:0:0:
413,262,37144,1,0,0:2:0:0:
413,262,37260,2,0,P|399:278|404:305,2,39.9999976158142,0|0|0,0:2|0:2|0:2,0:0:0:0:
482,197,37722,1,2,3:2:0:0:
428,117,37952,6,0,L|365:128,1,53.333330154419,2|0,3:2|0:0,0:2:0:0:
324,96,38260,1,0,0:0:0:0:
286,68,38414,2,0,P|284:28|281:5,2,53.333330154419,2|0|0,3:2|0:2|0:2,0:2:0:0:
210,94,38876,2,0,P|208:134|205:157,2,53.333330154419,10|0|0,0:2|0:2|0:2,0:2:0:0:
143,19,39337,1,2,0:2:0:0:
58,64,39568,1,0,0:0:0:0:
108,140,39799,6,2,B|137:188|137:188|110:308,1,143.9999870224,6|0,3:2|0:2,0:1:0:0:
83,306,40260,2,0,L|51:317,6,19.9999988079071,0|0|0|0|0|0|0,0:2|0:2|0:2|0:2|0:2|0:2|0:2,0:0:0:0:
117,273,40722,2,0,B|189:289|146:327|218:344,1,119.999992847443,10|0,0:2|0:0,0:2:0:0:
208,353,41183,2,0,L|298:330,1,79.9999952316285,2|0,3:2|0:2,0:2:0:0:
368,281,41645,1,2,0:2:0:0:
450,321,41876,5,0,3:2:0:0:
512,254,42106,1,2,3:2:0:0:
512,254,42222,1,2,3:2:0:0:
512,254,42337,1,0,0:0:0:0:
471,173,42568,1,10,0:2:0:0:
471,173,42683,1,0,0:2:0:0:
471,173,42799,2,0,L|487:121,2,39.9999976158142,0|0|2,0:2|0:2|0:2,0:0:0:0:
373,191,43260,1,2,3:2:0:0:
300,125,43491,6,0,P|285:83|265:2,2,119.999992847443,2|2|2,3:2|3:2|3:2,0:2:0:0:
239,185,44414,2,0,P|221:170|179:155,2,53.333330154419,8|0|0,0:2|0:2|0:2,0:2:0:0:
270,260,44876,1,2,3:2:0:0:
244,351,45106,2,0,P|193:309|114:305,1,119.999992847443,0|0,0:2|0:0,0:2:0:0:
130,306,45568,1,0,0:0:0:0:
43,354,45799,6,0,P|34:305|15:264,1,79.9999952316285,2|2,3:2|0:2,0:2:0:0:
26,265,46145,1,2,0:2:0:0:
29,253,46260,1,10,0:2:0:0:
103,207,46491,1,0,0:2:0:0:
103,207,46606,1,0,0:2:0:0:
103,207,46722,2,0,P|93:155|93:125,1,79.9999952316285,2|2,0:2|0:2,0:0:0:0:
20,13,47183,6,0,B|89:30|89:30|92:38|92:38|220:69,1,191.999982696534,6|0,3:2|0:2,0:2:0:0:
301,124,48106,2,0,P|311:83|399:45,1,127.999992370606,0|0,3:2|0:2,2:2:0:0:
482,22,49029,2,0,P|501:71|498:157,1,127.999992370606,0|0,3:2|0:2,2:0:0:0:
483,254,49952,2,0,P|446:225|362:215,1,127.999992370606,0|0,3:2|0:2,2:0:0:0:
299,282,50876,5,0,3:2:0:0:
201,322,51337,1,0,3:2:0:0:
51,204,51799,5,0,3:2:0:0:
149,244,52260,1,0,3:2:0:0:
241,148,52722,6,0,L|250:198,1,31.9999980926514,0|0,3:2|0:0,2:0:0:0:
139,117,53183,2,0,L|130:167,1,31.9999980926514,0|0,3:2|0:0,2:0:0:0:
263,60,53645,6,0,P|301:52|336:41,1,63.9999961853028,0|0,3:2|0:2,2:0:0:0:
176,20,54106,2,0,P|138:12|103:1,1,63.9999961853028,0|0,3:2|0:2,2:0:0:0:
66,73,54568,6,0,L|54:115,3,31.9999980926514,0|0|0|0,3:2|1:2|3:2|1:2,0:2:0:0:
23,123,55029,2,0,L|35:165,3,31.9999980926514,0|0|0|0,3:2|1:2|3:2|1:2,0:2:0:0:
60,176,55491,2,0,L|48:218,3,31.9999980926514,0|0|0|0,3:2|1:2|3:2|1:2,0:2:0:0:
17,226,55952,2,0,L|29:268,3,31.9999980926514,0|0|0|0,3:2|1:2|3:2|1:2,0:2:0:0:
63,291,56414,6,0,P|60:307|39:326,3,31.9999980926514,0|0|0|0,3:2|1:2|3:2|1:2,0:2:0:0:
104,312,56876,2,0,P|113:325|111:353,3,31.9999980926514,0|0|0|0,3:2|1:2|3:2|1:2,0:2:0:0:
147,297,57337,2,0,P|163:300|182:320,3,31.9999980926514,0|0|0|0,3:2|1:2|3:2|1:2,0:2:0:0:
166,255,57799,2,0,P|179:245|207:247,3,31.9999980926514,0|0|0|0,3:2|1:2|3:2|1:2,0:2:0:0:
140,216,58260,5,0,3:2:0:0:
506,32,61722,5,0,1:2:0:0:
499,111,61952,2,0,P|469:70|404:49,1,95.9999913482669,6|0,3:2|0:0,0:2:0:0:
327,12,62414,5,2,0:2:0:0:
324,26,62529,1,2,0:2:0:0:
321,40,62645,1,2,0:2:0:0:
318,54,62760,1,2,0:2:0:0:
316,68,62876,1,8,0:2:0:0:
251,114,63106,1,2,0:2:0:0:
181,51,63337,6,0,B|69:32|69:32|112:215|112:215|61:213|61:213|90:363|90:363|-20:344,1,575.999948089602,0|10,3:2|0:2,0:2:0:0:
114,214,65183,2,2,B|169:247|169:247|166:264|166:264|232:310,1,143.9999870224,2|0,1:2|0:0,0:1:0:0:
229,320,65645,6,0,L|361:345,1,95.9999913482669,0|0,3:2|0:0,0:0:0:0:
453,382,66106,5,2,0:2:0:0:
469,364,66221,1,2,0:2:0:0:
479,343,66336,1,2,0:2:0:0:
481,319,66452,1,2,0:2:0:0:
475,296,66567,1,10,0:2:0:0:
418,237,66799,1,0,0:2:0:0:
472,170,67029,6,0,B|335:200|335:200|311:167|311:167|229:184|229:184|193:137|193:137|64:163|64:163|104:240|104:240|156:227,1,575.999948089602,2|8,3:2|0:2,0:2:0:0:
263,93,68876,2,2,P|273:41|286:-12,1,95.9999913482669,2|0,1:2|0:0,0:1:0:0:
413,12,69337,6,0,P|475:14|491:74,1,95.9999913482669,0|0,3:2|0:2,0:2:0:0:
436,120,69799,5,2,0:2:0:0:
421,138,69914,1,2,0:2:0:0:
414,160,70029,1,2,0:2:0:0:
414,184,70145,1,2,0:2:0:0:
419,207,70260,1,8,0:2:0:0:
484,266,70491,1,2,0:2:0:0:
452,345,70722,6,0,B|394:354|353:312|353:312|347:353|347:353|228:275|85:312|85:312|130:266|130:266|59:250|61:167,1,575.999948089602,0|8,3:2|0:2,0:2:0:0:
113,132,72337,1,2,0:2:0:0:
128,45,72568,2,2,P|76:10|39:3,1,95.9999913482669,2|0,1:2|0:2,0:1:0:0:
113,132,73029,6,0,P|178:123|211:65,1,95.9999913482669,0|0,3:2|0:0,0:0:0:0:
286,15,73491,5,2,0:2:0:0:
308,21,73606,1,2,0:2:0:0:
331,27,73722,1,2,0:2:0:0:
353,33,73837,1,2,0:2:0:0:
375,40,73952,1,8,0:2:0:0:
457,12,74183,1,2,0:2:0:0:
502,80,74414,6,0,P|484:128|449:136,1,47.9999956741335,2|0,3:2|0:0,0:2:0:0:
512,156,74645,2,0,P|465:177|434:158,1,47.9999956741335,2|0,0:2|0:0,0:2:0:0:
465,216,74876,2,0,P|417:198|409:163,1,47.9999956741335,2|0,0:2|0:0,0:2:0:0:
389,225,75106,2,0,P|367:178|386:147,1,47.9999956741335,2|0,0:2|0:0,0:2:0:0:
328,177,75337,2,0,P|346:129|380:121,1,47.9999956741335,2|0,0:2|0:0,0:2:0:0:
318,99,75568,2,0,P|364:77|395:96,1,47.9999956741335,2|0,0:2|0:0,0:2:0:0:
375,40,75799,5,8,0:2:0:0:
415,126,76029,1,0,3:2:0:0:
328,177,76260,2,0,P|274:139|172:113,1,143.9999870224,2|0,1:2|0:2,0:2:0:0:
157,49,76722,6,0,P|139:110|82:134,1,95.9999913482669,0|0,3:2|0:2,0:2:0:0:
35,180,77183,5,2,0:2:0:0:
37,204,77299,1,2,0:2:0:0:
39,227,77414,1,2,0:2:0:0:
41,250,77529,1,2,0:2:0:0:
43,274,77645,1,8,0:2:0:0:
82,351,77876,1,2,0:2:0:0:
134,287,78106,6,0,B|159:247|216:235|216:235|195:293|230:344|230:344|262:288|335:296|335:296|319:332|344:366|344:366|378:320|441:334|441:334|451:374|512:400,1,575.999948089602,0|8,3:2|0:2,0:2:0:0:
512,116,79952,2,2,P|425:112|414:142,1,95.9999913482669,2|0,1:2|0:0,0:1:0:0:
356,199,80414,6,0,P|346:133|341:90,1,95.9999913482669,0|0,3:2|0:0,0:0:0:0:
296,29,80876,5,2,0:2:0:0:
272,26,80991,1,2,0:2:0:0:
248,24,81106,1,2,0:2:0:0:
223,22,81222,1,2,0:2:0:0:
199,20,81337,1,8,0:2:0:0:
152,87,81568,1,2,0:2:0:0:
49,37,81799,6,0,B|102:91|57:138|57:138|-13:212|66:293|66:293|96:197|205:194|205:194|157:252|167:305,1,575.999948089602,0|8,3:2|0:2,0:2:0:0:
327,381,83645,2,2,P|295:313|309:267,1,95.9999913482669,2|0,1:2|0:0,0:1:0:0:
369,244,84106,6,0,P|361:181|336:131,1,95.9999913482669,0|0,3:2|0:2,0:2:0:0:
270,37,84568,5,2,0:2:0:0:
293,34,84683,1,2,0:2:0:0:
317,32,84799,1,2,0:2:0:0:
340,30,84914,1,2,0:2:0:0:
363,28,85029,1,8,0:2:0:0:
448,21,85260,1,2,0:2:0:0:
496,101,85491,6,0,B|400:109|400:109|399:113|399:113|267:123|267:123|221:38|221:38|108:39|108:39|185:180,1,575.999948089602,0|8,3:2|0:2,0:2:0:0:
219,227,87106,1,2,0:2:0:0:
186,298,87337,2,2,P|150:359|108:360,1,95.9999913482669,2|0,1:2|0:0,0:1:0:0:
29,379,87799,6,0,L|70:258,1,95.9999913482669,0|0,3:2|0:0,0:0:0:0:
136,194,88260,5,2,0:2:0:0:
121,174,88376,1,2,0:2:0:0:
99,164,88491,1,2,0:2:0:0:
75,162,88606,1,2,0:2:0:0:
52,168,88722,1,8,0:2:0:0:
14,96,88952,1,2,0:2:0:0:
55,25,89183,6,0,P|103:43|111:78,1,47.9999956741335,2|0,3:2|0:0,0:2:0:0:
131,15,89414,2,0,P|152:62|133:93,1,47.9999956741335,2|0,0:2|0:0,0:2:0:0:
191,62,89645,2,0,P|173:110|138:118,1,47.9999956741335,2|0,0:2|0:0,0:2:0:0:
200,138,89875,2,0,P|153:160|122:141,1,47.9999956741335,2|0,0:2|0:0,0:2:0:0:
152,199,90106,2,0,P|104:181|96:147,1,47.9999956741335,2|0,0:2|0:0,0:2:0:0:
74,208,90337,2,0,P|52:162|71:131,1,47.9999956741335,2|0,0:2|0:0,0:2:0:0:
15,152,90568,6,0,P|63:227|68:310,1,143.9999870224,10|0,0:2|0:0,0:0:0:0:
53,296,91029,2,2,P|82:362|118:346,1,95.9999913482669,2|0,1:2|0:0,0:1:0:0:
196,362,91491,6,2,B|190:299|190:299|194:293|194:293|182:181,1,143.9999870224,6|0,3:2|0:2,0:1:0:0:
181,174,91952,2,0,L|148:162,6,19.9999988079071,0|0|0|0|0|0|0,0:2|0:2|0:2|0:2|0:2|0:2|0:2,0:0:0:0:
207,139,92414,2,0,P|256:133|370:75,1,159.999990463257,8|2,0:2|0:2,0:0:0:0:
443,35,93106,1,0,0:0:0:0:
498,133,93337,1,0,0:0:0:0:
409,166,93568,5,2,3:2:0:0:
321,199,93799,1,2,3:2:0:0:
321,199,93914,2,0,P|318:242|311:327,1,119.999992847443,2|10,3:2|0:2,0:2:0:0:
227,369,94491,1,0,0:0:0:0:
160,312,94722,2,0,P|137:293|81:282,1,79.9999952316285,0|0,0:2|3:2,0:0:0:0:
21,224,95183,6,0,P|69:145|74:109,1,119.999992847443,0|0,3:2|0:2,0:2:0:0:
71,68,95645,2,0,P|58:71|35:80,6,19.9999988079071,0|0|0|0|0|0|0,0:2|0:2|0:2|0:2|0:2|0:2|0:2,0:0:0:0:
118,37,96106,2,0,P|181:49|214:139,1,159.999990463257,8|0,0:2|0:0,0:0:0:0:
162,204,96799,1,0,3:2:0:0:
217,290,97029,6,0,P|256:281|308:265,1,79.9999952316285,2|0,3:2|0:0,0:2:0:0:
386,328,97491,2,0,P|418:345|473:252,1,159.999990463257,2|10,3:2|0:2,0:2:0:0:
412,87,98414,2,0,P|428:44|447:7,1,79.9999952316285
508,95,98876,6,2,B|415:108|466:153|383:167,1,143.9999870224,4|0,3:2|0:2,0:1:0:0:
342,150,99337,2,0,P|334:166|333:181,6,19.9999988079071,0|0|0|0|0|0|0,0:2|0:2|0:2|0:2|0:2|0:2|0:2,0:0:0:0:
323,112,99799,2,2,B|228:102|228:102|225:118|209:136,1,119.999992847443,8|0,0:2|0:0,0:1:0:0:
187,82,100260,2,0,P|121:78|68:-3,1,159.999990463257,0|0,3:2|0:2,0:2:0:0:
0,82,100952,1,0,3:2:0:0:
63,147,101183,5,2,3:2:0:0:
63,147,101299,2,0,P|89:184|114:263,1,119.999992847443,2|10,3:2|0:2,0:2:0:0:
109,353,101876,1,0,0:0:0:0:
207,384,102106,2,0,P|213:348|231:305,1,79.9999952316285,0|2,0:2|3:2,0:0:0:0:
306,231,102568,6,0,P|265:209|194:160,2,119.999992847443,2|0|0,3:2|3:2|3:2,0:2:0:0:
387,282,103491,2,0,P|401:242|467:196,1,119.999992847443,10|0,0:2|0:0,0:2:0:0:
470,179,103952,6,0,P|504:221|474:331,1,159.999990463257,0|2,3:2|0:2,0:2:0:0:
405,374,104645,1,2,0:2:0:0:
309,331,104876,2,0,P|280:324|222:310,1,79.9999952316285,2|0,3:2|0:2,0:2:0:0:
152,357,105337,1,10,0:2:0:0:
55,220,105799,2,0,P|47:170|81:152,1,79.9999952316285
18,295,106260,6,2,P|68:256|158:218,1,143.9999870224,4|0,3:2|0:2,0:1:0:0:
190,218,106722,2,0,L|205:247,6,19.9999988079071,0|0|0|0|0|0|0,0:2|0:2|0:2|0:2|0:2|0:2|0:2,0:0:0:0:
212,179,107183,2,0,P|223:139|235:95,1,79.9999952316285,10|2,0:2|0:2,0:0:0:0:
248,96,107529,1,2,0:2:0:0:
267,93,107645,2,0,P|326:85|360:81,1,79.9999952316285,2|2,0:2|0:2,0:2:0:0:
412,152,108106,1,2,0:2:0:0:
493,103,108337,5,0,3:2:0:0:
478,217,108568,1,2,3:2:0:0:
478,217,108683,2,0,P|470:258|461:305,1,79.9999952316285,2|0,3:2|0:0,0:2:0:0:
473,312,109029,2,0,P|404:334|396:348,1,79.9999952316285,8|0,0:2|0:0,0:2:0:0:
394,354,109376,1,0,0:2:0:0:
395,373,109491,1,2,0:2:0:0:
317,323,109722,1,0,3:2:0:0:
234,366,109952,6,2,P|228:329|227:242,1,119.999992847443,2|0,3:2|0:0,0:1:0:0:
254,217,110414,2,0,P|270:242|273:249,6,19.9999988079071,0|0|0|0|0|0|0,0:2|0:2|0:2|0:2|0:2|0:2|0:2,0:0:0:0:
251,182,110876,2,0,P|242:149|205:122,1,79.9999952316285,10|2,0:2|0:2,0:2:0:0:
184,120,111222,1,2,0:2:0:0:
164,125,111337,1,2,0:2:0:0:
95,65,111568,2,0,P|74:88|52:132,1,79.9999952316285,2|0,3:2|3:2,0:2:0:0:
141,209,112029,5,0,0:0:0:0:
141,209,112145,1,0,0:2:0:0:
141,209,112260,2,0,P|157:238|163:249,2,39.9999976158142,2|2|2,3:2|0:2|0:2,0:0:0:0:
52,131,112722,2,0,P|32:167|23:204,1,79.9999952316285,10|2,0:2|0:2,0:0:0:0:
34,220,113068,1,2,0:2:0:0:
46,235,113183,2,0,P|72:287|45:341,1,119.999992847443,2|0,0:2|0:0,0:2:0:0:
34,354,113645,6,2,L|191:320,1,143.9999870224,6|0,3:2|0:2,0:1:0:0:
194,338,114106,2,0,L|187:374,6,19.9999988079071,0|0|0|0|0|0|0,0:2|0:2|0:2|0:2|0:2|0:2|0:2,0:0:0:0:
236,316,114568,2,0,P|229:269|239:221,1,79.9999952316285,10|0,0:2|0:0,0:2:0:0:
249,218,114914,1,0,0:0:0:0:
264,206,115029,1,0,3:2:0:0:
358,168,115260,2,0,P|399:162|438:129,1,79.9999952316285,0|2,0:2|0:2,0:0:0:0:
453,36,115722,1,2,3:2:0:0:
360,46,115952,5,2,3:2:0:0:
360,46,116068,1,2,3:2:0:0:
360,46,116183,2,0,L|368:89,2,39.9999976158142,0|0|10,0:0|0:0|0:2,0:0:0:0:
259,8,116645,1,2,0:2:0:0:
259,8,116760,1,2,0:2:0:0:
259,8,116876,1,2,0:2:0:0:
179,85,117106,1,0,3:2:0:0:
72,112,117337,6,0,P|54:70|11:2,2,119.999992847443,2|0|0,3:2|3:2|3:2,0:2:0:0:
15,206,118260,2,0,P|65:205|95:271,1,119.999992847443,10|0,3:2|0:0,0:2:0:0:
88,278,118722,2,0,P|136:303|204:329,1,119.999992847443,2|0,3:2|0:0,0:2:0:0:
206,344,119183,6,0,P|215:283|219:253,1,79.9999952316285,2|2,0:2|0:2,0:2:0:0:
309,245,119645,2,0,P|300:184|296:154,1,79.9999952316285,2|2,3:2|0:2,0:2:0:0:
223,116,120106,2,0,P|232:55|236:25,1,79.9999952316285,8|2,0:2|0:2,0:2:0:0:
331,50,120568,2,0,P|392:33|444:71,1,119.999992847443,2|0,0:2|0:0,0:0:0:0:
458,50,121029,6,0,B|491:86|491:86|446:227,1,191.999982696534,4|0,3:2|0:0,0:2:0:0:
402,350,121952,2,0,L|230:372,1,159.999990463257,0|0,3:2|0:0,2:0:0:0:
100,352,122876,2,0,P|74:292|90:192,1,159.999990463257,0|0,3:2|0:0,2:0:0:0:
30,42,123799,2,0,P|78:68|112:83,1,79.9999952316285,0|0,3:2|0:2,2:0:0:0:
183,123,124260,2,0,P|219:106|254:86,1,79.9999952316285,0|0,0:0|0:2,2:0:0:0:
352,30,124722,5,0,3:2:0:0:
490,104,125183,1,0,3:2:0:0:
482,221,125645,5,0,3:2:0:0:
344,295,126106,1,0,3:2:0:0:
178,339,126568,6,0,L|187:293,1,39.9999976158142,0|0,3:0|0:0,2:0:0:0:
261,207,127029,2,0,L|252:161,1,39.9999976158142,0|0,3:0|0:0,2:0:0:0:
59,11,127491,6,0,P|38:72|19:119,1,79.9999952316285,0|0,3:0|1:0,2:0:0:0:
121,135,127952,2,0,P|142:196|161:243,1,79.9999952316285,0|0,1:0|1:0,2:0:0:0:
50,310,128414,6,0,L|63:352,3,39.9999976158142,0|0|0|0,3:2|1:2|3:2|1:2,0:2:0:0:
100,306,128876,2,0,L|101:349,3,39.9999976158142,0|0|0|0,3:2|1:2|3:2|1:2,0:2:0:0:
149,315,129337,2,0,L|139:357,3,39.9999976158142,0|0|0|0,3:2|1:2|3:2|1:2,0:2:0:0:
194,336,129799,2,0,L|173:374,3,39.9999976158142,0|0|0|0,3:2|1:2|3:2|1:2,0:2:0:0:
240,318,130260,6,0,L|253:276,3,39.9999976158142,0|0|0|0,3:2|1:2|3:2|1:2,0:2:0:0:
290,322,130722,2,0,L|291:278,3,39.9999976158142,0|0|0|0,3:2|1:2|3:2|1:2,0:2:0:0:
339,313,131183,2,0,L|329:270,3,39.9999976158142,0|0|0|0,3:2|1:2|3:2|1:2,0:2:0:0:
384,292,131645,2,0,L|363:253,3,39.9999976158142,0|0|0|0,3:2|1:2|3:2|1:2,0:2:0:0:
423,269,132106,5,4,3:2:0:0:
44,116,135568,5,0,1:2:0:0:
51,200,135799,2,0,P|91:149|135:148,1,95.9999913482669,4|0,3:2|0:2,0:2:0:0:
201,162,136260,5,2,0:2:0:0:
207,143,136376,1,2,0:2:0:0:
214,124,136491,1,2,0:2:0:0:
221,105,136606,1,2,0:2:0:0:
228,86,136722,1,8,0:2:0:0:
255,13,136952,1,2,0:2:0:0:
315,72,137183,6,0,B|501:104|501:104|519:151,1,239.999978370667,2|0,3:2|0:0,1:2:0:0:
496,161,137876,2,0,B|429:176|429:176|394:261|394:261|305:280,1,239.999978370667,0|0,0:2|0:0,3:0:0:0:
292,280,138568,1,8,0:2:0:0:
474,361,139029,2,2,P|489:290|500:259,1,95.9999913482669,2|0,1:2|0:0,0:1:0:0:
293,182,139491,6,0,L|171:162,1,95.9999913482669,0|0,3:2|0:0,0:0:0:0:
128,107,139952,5,2,0:2:0:0:
105,114,140067,1,2,0:2:0:0:
82,121,140183,1,2,0:2:0:0:
59,128,140298,1,2,0:2:0:0:
36,135,140413,1,8,0:2:0:0:
0,206,140645,1,2,0:2:0:0:
51,270,140876,6,0,B|126:277|188:366|188:366|187:260|251:216,1,335.999969718934,2|0,3:2|0:2,1:2:0:0:
326,212,141799,2,0,P|328:223|326:235,8,23.9999978370667,2|2|2|2|2|2|2|2|10,0:2|0:2|0:2|0:2|0:2|0:2|0:2|0:2|0:2,0:0:0:0:
507,354,142722,2,2,P|494:315|473:249,1,95.9999913482669,0|0,1:2|0:0,0:1:0:0:
512,127,143183,6,0,P|491:81|434:69,1,95.9999913482669,0|0,3:2|0:0,0:2:0:0:
396,131,143645,5,2,0:2:0:0:
401,154,143760,1,2,0:2:0:0:
406,177,143876,1,2,0:2:0:0:
411,200,143991,1,2,0:2:0:0:
417,223,144106,1,8,0:2:0:0:
486,276,144337,1,2,0:2:0:0:
440,359,144568,6,0,B|261:331|261:331|323:296,1,239.999978370667,0|0,3:2|0:0,1:2:0:0:
324,322,145260,2,0,L|293:81,1,239.999978370667,0|0,0:2|0:0,3:2:0:0:
288,60,145952,1,8,0:2:0:0:
196,20,146183,1,2,0:2:0:0:
124,69,146414,2,2,P|86:62|35:32,1,95.9999913482669,2|0,1:2|0:0,0:1:0:0:
50,154,146876,6,0,P|59:156|90:258,1,95.9999913482669,0|0,3:2|0:0,0:0:0:0:
28,269,147337,5,2,0:2:0:0:
39,289,147452,1,2,0:2:0:0:
57,305,147567,1,2,0:2:0:0:
79,314,147683,1,2,0:2:0:0:
103,316,147798,1,8,0:2:0:0:
163,366,148029,1,2,0:2:0:0:
243,358,148260,6,0,B|260:296|260:296|251:271|251:271|278:167|278:167|267:149|267:149|292:64|292:64|339:51,1,335.999969718934,2|0,3:2|0:2,1:2:0:0:
402,49,149183,2,0,L|392:10,8,23.9999978370667,2|2|2|2|2|2|2|2|10,0:2|0:2|0:2|0:2|0:2|0:2|0:2|0:2|0:2,0:0:0:0:
503,142,150106,2,2,P|492:189|482:244,1,95.9999913482669,0|0,1:2|0:0,0:1:0:0:
479,368,150568,6,0,P|436:321|379:291,1,95.9999913482669,2|0,3:2|0:2,0:2:0:0:
311,323,151029,5,2,0:2:0:0:
307,299,151145,1,2,0:2:0:0:
303,275,151260,1,2,0:2:0:0:
299,251,151376,1,2,0:2:0:0:
295,227,151491,1,8,0:2:0:0:
354,157,151722,1,2,0:2:0:0:
450,159,151952,6,0,B|497:155|497:155|476:9|476:9|412:18,1,239.999978370667,0|0,3:2|0:0,1:2:0:0:
432,39,152645,2,0,L|182:68,1,239.999978370667,0|0,0:2|0:0,3:2:0:0:
183,44,153337,1,8,0:2:0:0:
18,33,153799,2,2,P|36:83|61:130,1,95.9999913482669,2|0,0:2|0:0,0:1:0:0:
29,226,154260,6,0,P|90:235|154:259,1,95.9999913482669,0|0,3:2|0:0,0:0:0:0:
221,290,154722,5,2,0:2:0:0:
239,275,154837,1,2,0:2:0:0:
255,257,154952,1,2,0:2:0:0:
268,237,155068,1,2,0:2:0:0:
277,214,155183,1,8,0:2:0:0:
258,130,155414,1,2,0:2:0:0:
285,47,155645,6,0,B|360:69|452:21|452:21|394:97|396:185,1,335.999969718934,2|0,3:2|0:2,1:2:0:0:
470,201,156568,2,0,P|485:192|491:173,8,23.9999978370667,2|2|2|2|2|2|2|2|10,0:2|0:2|0:2|0:2|0:2|0:2|0:2|0:2|0:2,0:0:0:0:
494,345,157491,2,2,P|446:349|390:363,1,95.9999913482669,0|0,1:2|0:0,0:1:0:0:
299,342,157952,6,0,P|290:323|236:222,1,95.9999913482669,0|0,3:2|0:2,0:2:0:0:
199,175,158414,5,2,0:2:0:0:
218,161,158529,1,2,0:2:0:0:
238,147,158645,1,2,0:2:0:0:
258,134,158760,1,2,0:2:0:0:
277,120,158876,1,8,0:2:0:0:
344,173,159106,1,2,0:2:0:0:
417,231,159337,6,0,B|477:291|477:291|375:355|375:355|371:304,1,239.999978370667,0|0,3:2|0:0,1:2:0:0:
394,309,160029,2,0,B|286:326|286:326|278:348|278:348|152:368,1,239.999978370667,0|0,0:2|0:0,3:2:0:0:
149,356,160722,1,8,0:2:0:0:
114,288,160952,1,2,0:2:0:0:
49,246,161183,2,2,P|27:288|23:341,1,95.9999913482669,2|0,1:2|0:0,0:1:0:0:
200,271,161645,6,0,P|197:217|154:164,1,95.9999913482669,0|0,3:2|0:0,0:0:0:0:
85,123,162106,5,2,0:2:0:0:
92,100,162222,1,2,0:2:0:0:
99,77,162337,1,2,0:2:0:0:
106,54,162452,1,2,0:2:0:0:
114,31,162568,1,8,0:2:0:0:
201,6,162799,1,2,0:2:0:0:
291,24,163029,6,0,B|331:48|331:48|357:339,1,335.999969718934,2|0,3:2|0:2,1:2:0:0:
437,368,163952,2,0,L|449:331,8,23.9999978370667,2|2|2|2|2|2|2|2|10,0:2|0:2|0:2|0:2|0:2|0:2|0:2|0:2|0:2,0:0:0:0:
499,200,164876,2,0,P|477:156|458:107,1,95.9999913482669,0|0,1:2|0:0,0:2:0:0:
490,36,165337,5,0,3:2:0:0:
