osu file format v14

[General]
AudioFilename: audio.mp3
AudioLeadIn: 0
PreviewTime: 59529
Countdown: 0
SampleSet: Soft
StackLeniency: 0.2
Mode: 0
LetterboxInBreaks: 0
WidescreenStoryboard: 1

[Editor]
Bookmarks: 17645,47183,61952,91491,121029,135799,165337
DistanceSpacing: 0.6
BeatDivisor: 8
GridSize: 32
TimelineZoom: 2.4

[Metadata]
Title:REDLIGHT (VIP)
TitleUnicode:REDLIGHT (VIP)
Artist:NGHTMRE & A$AP Ferg
ArtistUnicode:NGHTMRE & A$AP Ferg
Creator:Mir
Version:EASY
Source:
Tags:rap hiphop hip hop hip-hop electronic english altai -_heatwave_- nfs heat need for speed asap ultra music undeadphoneguy heatwave trap thzz nightmare and
BeatmapID:2816600
BeatmapSetID:1358547

[Difficulty]
HPDrainRate:1
CircleSize:3
OverallDifficulty:2
ApproachRate:4
SliderMultiplier:0.999999904632568
SliderTickRate:1

[Events]
//Background and Video events
0,0,"red light.jpg",0,0
//Break Periods
//Storyboard Layer 0 (Background)
//Storyboard Layer 1 (Fail)
//Storyboard Layer 2 (Pass)
//Storyboard Layer 3 (Foreground)
//Storyboard Layer 4 (Overlay)
//Storyboard Sound Samples

[TimingPoints]
2876,461.538461538462,4,2,1,50,1,0
15914,-100,4,2,1,5,0,0
16029,-100,4,2,1,50,0,0
16376,-100,4,2,1,5,0,0
16491,-100,4,2,1,50,0,0
16837,-100,4,2,1,5,0,0
16952,-100,4,2,1,50,0,0
20010,-100,4,2,1,5,0,0
20068,-100,4,2,1,50,0,0
20356,-100,4,2,1,5,0,0
20414,-100,4,2,1,50,0,0
21049,-100,4,2,1,5,0,0
21106,-100,4,2,1,50,0,0
23356,-100,4,2,1,5,0,0
23414,-100,4,2,1,50,0,0
26356,-100,4,2,1,5,0,0
26414,-100,4,2,1,50,0,0
28433,-100,4,2,1,5,0,0
28491,-100,4,2,1,50,0,0
35587,-100,4,2,1,5,0,0
35645,-100,4,2,1,50,0,0
38491,-100,4,2,1,5,0,0
38568,-100,4,2,1,50,0,0
38645,-100,4,2,1,5,0,0
38722,-100,4,2,1,50,0,0
38799,-100,4,2,1,5,0,0
38876,-100,4,2,1,50,0,0
38952,-100,4,2,1,5,0,0
39029,-100,4,2,1,50,0,0
39106,-100,4,2,1,5,0,0
39183,-100,4,2,1,50,0,0
39260,-100,4,2,1,5,0,0
39337,-100,4,2,1,50,0,0
41126,-100,4,2,1,5,0,0
41183,-100,4,2,1,50,0,0
42164,-100,4,2,1,5,0,0
42222,-100,4,2,1,50,0,0
43202,-100,4,2,1,5,0,0
43260,-100,4,2,1,50,0,0
44491,-100,4,2,1,5,0,0
44568,-100,4,2,1,50,0,0
44645,-100,4,2,1,5,0,0
44722,-100,4,2,1,50,0,0
44799,-100,4,2,1,5,0,0
44876,-100,4,2,1,50,0,0
45722,-100,4,2,1,5,0,0
45799,-100,4,2,1,50,0,0
45972,-100,4,2,1,5,0,0
46029,-100,4,2,1,50,0,0
47645,-100,4,1,1,35,0,0
54568,-100,4,2,1,50,0,0
61895,-100,4,1,1,5,0,0
61952,-90.9090909090909,4,2,1,80,0,1
62472,-90.9090909090909,4,2,1,5,0,1
62529,-90.9090909090909,4,2,1,80,0,1
62587,-90.9090909090909,4,2,1,5,0,1
62644,-90.9090909090909,4,2,1,80,0,1
62702,-90.9090909090909,4,2,1,5,0,1
62759,-90.9090909090909,4,2,1,80,0,1
62818,-90.9090909090909,4,2,1,5,0,1
62875,-90.9090909090909,4,2,1,80,0,1
64664,-90.9090909090909,4,2,1,5,0,1
64722,-90.9090909090909,4,2,1,80,0,1
65126,-90.9090909090909,4,2,1,5,0,1
65183,-90.9090909090909,4,2,1,80,0,1
65299,-90.9090909090909,4,2,1,5,0,1
65356,-90.9090909090909,4,2,1,80,0,1
66164,-90.9090909090909,4,2,1,5,0,1
66221,-90.9090909090909,4,2,1,80,0,1
66279,-90.9090909090909,4,2,1,5,0,1
66336,-90.9090909090909,4,2,1,80,0,1
66395,-90.9090909090909,4,2,1,5,0,1
66452,-90.9090909090909,4,2,1,80,0,1
66510,-90.9090909090909,4,2,1,5,0,1
66567,-90.9090909090909,4,2,1,80,0,1
68356,-90.9090909090909,4,2,1,5,0,1
68414,-90.9090909090909,4,2,1,80,0,1
68991,-90.9090909090909,4,2,1,5,0,1
69106,-90.9090909090909,4,2,1,80,0,1
69337,-90.9090909090909,4,2,1,80,0,1
69856,-90.9090909090909,4,2,1,5,0,1
69913,-90.9090909090909,4,2,1,80,0,1
69972,-90.9090909090909,4,2,1,5,0,1
70029,-90.9090909090909,4,2,1,80,0,1
70087,-90.9090909090909,4,2,1,5,0,1
70144,-90.9090909090909,4,2,1,80,0,1
70202,-90.9090909090909,4,2,1,5,0,1
70259,-90.9090909090909,4,2,1,80,0,1
72049,-90.9090909090909,4,2,1,5,0,1
72106,-90.9090909090909,4,2,1,80,0,1
72279,-90.9090909090909,4,2,1,5,0,1
72337,-90.9090909090909,4,2,1,80,0,1
73549,-90.9090909090909,4,2,1,5,0,1
73606,-90.9090909090909,4,2,1,80,0,1
73664,-90.9090909090909,4,2,1,5,0,1
73721,-90.9090909090909,4,2,1,80,0,1
73779,-90.9090909090909,4,2,1,5,0,1
73836,-90.9090909090909,4,2,1,80,0,1
73895,-90.9090909090909,4,2,1,5,0,1
73952,-90.9090909090909,4,2,1,80,0,1
74587,-90.9090909090909,4,2,1,5,0,1
74645,-90.9090909090909,4,2,1,80,0,1
74818,-90.9090909090909,4,2,1,5,0,1
74876,-90.9090909090909,4,2,1,80,0,1
75049,-90.9090909090909,4,2,1,5,0,1
75107,-90.9090909090909,4,2,1,80,0,1
75279,-90.9090909090909,4,2,1,5,0,1
75337,-90.9090909090909,4,2,1,80,0,1
75510,-90.9090909090909,4,2,1,5,0,1
75568,-90.9090909090909,4,2,1,80,0,1
75741,-90.9090909090909,4,2,1,5,0,1
75799,-90.9090909090909,4,2,1,80,0,1
75972,-90.9090909090909,4,2,1,5,0,1
76029,-90.9090909090909,4,2,1,80,0,1
77241,-90.9090909090909,4,2,1,5,0,1
77298,-90.9090909090909,4,2,1,80,0,1
77356,-90.9090909090909,4,2,1,5,0,1
77413,-90.9090909090909,4,2,1,80,0,1
77472,-90.9090909090909,4,2,1,5,0,1
77529,-90.9090909090909,4,2,1,80,0,1
77587,-90.9090909090909,4,2,1,5,0,1
77644,-90.9090909090909,4,2,1,80,0,1
79433,-90.9090909090909,4,2,1,5,0,1
79491,-90.9090909090909,4,2,1,80,0,1
80068,-90.9090909090909,4,2,1,5,0,1
80183,-90.9090909090909,4,2,1,80,0,1
80933,-90.9090909090909,4,2,1,5,0,1
80990,-90.9090909090909,4,2,1,80,0,1
81049,-90.9090909090909,4,2,1,5,0,1
81106,-90.9090909090909,4,2,1,80,0,1
81164,-90.9090909090909,4,2,1,5,0,1
81221,-90.9090909090909,4,2,1,80,0,1
81279,-90.9090909090909,4,2,1,5,0,1
81336,-90.9090909090909,4,2,1,80,0,1
83126,-90.9090909090909,4,2,1,5,0,1
83183,-90.9090909090909,4,2,1,80,0,1
83587,-90.9090909090909,4,2,1,5,0,1
83645,-90.9090909090909,4,2,1,80,0,1
83760,-90.9090909090909,4,2,1,5,0,1
83876,-90.9090909090909,4,2,1,80,0,1
84626,-90.9090909090909,4,2,1,5,0,1
84683,-90.9090909090909,4,2,1,80,0,1
84741,-90.9090909090909,4,2,1,5,0,1
84798,-90.9090909090909,4,2,1,80,0,1
84856,-90.9090909090909,4,2,1,5,0,1
84913,-90.9090909090909,4,2,1,80,0,1
84972,-90.9090909090909,4,2,1,5,0,1
85029,-90.9090909090909,4,2,1,80,0,1
86818,-90.9090909090909,4,2,1,80,0,1
86876,-90.9090909090909,4,2,1,50,0,1
87049,-90.9090909090909,4,2,1,5,0,1
87106,-90.9090909090909,4,2,1,80,0,1
88318,-90.9090909090909,4,2,1,5,0,1
88375,-90.9090909090909,4,2,1,80,0,1
88433,-90.9090909090909,4,2,1,5,0,1
88490,-90.9090909090909,4,2,1,80,0,1
88549,-90.9090909090909,4,2,1,5,0,1
88606,-90.9090909090909,4,2,1,80,0,1
88664,-90.9090909090909,4,2,1,5,0,1
88721,-90.9090909090909,4,2,1,80,0,1
89356,-90.9090909090909,4,2,1,5,0,1
89414,-90.9090909090909,4,2,1,80,0,1
89587,-90.9090909090909,4,2,1,5,0,1
89645,-90.9090909090909,4,2,1,80,0,1
89818,-90.9090909090909,4,2,1,5,0,1
89876,-90.9090909090909,4,2,1,80,0,1
90049,-90.9090909090909,4,2,1,5,0,1
90107,-90.9090909090909,4,2,1,80,0,1
90279,-90.9090909090909,4,2,1,5,0,1
90337,-90.9090909090909,4,2,1,80,0,1
90510,-90.9090909090909,4,2,1,5,0,1
90568,-90.9090909090909,4,2,1,80,0,1
91145,-90.9090909090909,4,2,1,5,0,1
91202,-90.9090909090909,4,2,1,80,0,1
91491,-100,4,2,1,50,0,0
93856,-100,4,2,1,5,0,0
93914,-100,4,2,1,50,0,0
94352,-100,4,2,1,5,0,0
94445,-100,4,2,1,50,0,0
94537,-100,4,2,1,5,0,0
94629,-100,4,2,1,50,0,0
94814,-100,4,2,1,50,0,0
95126,-100,4,2,1,5,0,0
95183,-100,4,2,1,50,0,0
98810,-100,4,2,1,5,0,0
98876,-100,4,2,1,50,0,0
100202,-100,4,2,1,5,0,0
100260,-100,4,2,1,50,0,0
100664,-100,4,2,1,5,0,0
100722,-100,4,2,1,50,0,0
101241,-100,4,2,1,5,0,0
101299,-100,4,2,1,50,0,0
101737,-100,4,2,1,5,0,0
101829,-100,4,2,1,50,0,0
101922,-100,4,2,1,5,0,0
102014,-100,4,2,1,50,0,0
102198,-100,4,2,1,50,0,0
103895,-100,4,2,1,5,0,0
103952,-100,4,2,1,50,0,0
106194,-100,4,2,1,5,0,0
106260,-100,4,2,1,50,0,0
108279,-100,4,2,1,5,0,0
108337,-100,4,2,1,50,0,0
108626,-100,4,2,1,5,0,0
108683,-100,4,2,1,50,0,0
108972,-100,4,2,1,5,0,0
109029,-100,4,2,1,50,0,0
111510,-100,4,2,1,5,0,0
111568,-100,4,2,1,50,0,0
111741,-100,4,2,1,5,0,0
111799,-100,4,2,1,50,0,0
113299,-100,4,2,1,5,0,0
113414,-100,4,2,1,50,0,0
114972,-100,4,2,1,5,0,0
115029,-100,4,2,1,50,0,0
116010,-100,4,2,1,5,0,0
116068,-100,4,2,1,50,0,0
116356,-100,4,2,1,5,0,0
116414,-100,4,2,1,50,0,0
118664,-100,4,2,1,5,0,0
118722,-100,4,2,1,50,0,0
120279,-100,4,2,1,5,0,0
120337,-100,4,2,1,50,0,0
120510,-100,4,2,1,5,0,0
120568,-100,4,2,1,50,0,0
121491,-100,4,1,1,35,0,0
128414,-100,4,2,1,50,0,0
135741,-100,4,2,1,5,0,0
135799,-90.9090909090909,4,2,1,80,0,1
136318,-90.9090909090909,4,2,1,5,0,1
136376,-90.9090909090909,4,2,1,80,0,1
136433,-90.9090909090909,4,2,1,5,0,1
136491,-90.9090909090909,4,2,1,80,0,1
136549,-90.9090909090909,4,2,1,5,0,1
136607,-90.9090909090909,4,2,1,80,0,1
136664,-90.9090909090909,4,2,1,5,0,1
136722,-90.9090909090909,4,2,1,80,0,1
137818,-90.9090909090909,4,2,1,5,0,1
137876,-90.9090909090909,4,2,1,80,0,1
138510,-90.9090909090909,4,2,1,5,0,1
138568,-90.9090909090909,4,2,1,80,0,1
139145,-90.9090909090909,4,2,1,5,0,1
139260,-90.9090909090909,4,2,1,80,0,1
140010,-90.9090909090909,4,2,1,5,0,1
140068,-90.9090909090909,4,2,1,80,0,1
140126,-90.9090909090909,4,2,1,5,0,1
140184,-90.9090909090909,4,2,1,80,0,1
140241,-90.9090909090909,4,2,1,5,0,1
140299,-90.9090909090909,4,2,1,80,0,1
140356,-90.9090909090909,4,2,1,5,0,1
140414,-90.9090909090909,4,2,1,80,0,1
142837,-90.9090909090909,4,2,1,5,0,1
142952,-90.9090909090909,4,2,1,80,0,1
143587,-90.9090909090909,4,2,1,5,0,1
143645,-90.9090909090909,4,2,1,80,0,1
143702,-90.9090909090909,4,2,1,5,0,1
143760,-90.9090909090909,4,2,1,80,0,1
143818,-90.9090909090909,4,2,1,5,0,1
143876,-90.9090909090909,4,2,1,80,0,1
143933,-90.9090909090909,4,2,1,5,0,1
143991,-90.9090909090909,4,2,1,80,0,1
144049,-90.9090909090909,4,2,1,5,0,1
144107,-90.9090909090909,4,2,1,80,0,1
145202,-90.9090909090909,4,2,1,5,0,1
145260,-90.9090909090909,4,2,1,80,0,1
145895,-90.9090909090909,4,2,1,5,0,1
145952,-90.9090909090909,4,2,1,80,0,1
146126,-90.9090909090909,4,2,1,5,0,1
146183,-90.9090909090909,4,2,1,80,0,1
146356,-90.9090909090909,4,2,1,5,0,1
146414,-90.9090909090909,4,2,1,80,0,1
146529,-90.9090909090909,4,2,1,5,0,1
146644,-90.9090909090909,4,2,1,80,0,1
147395,-90.9090909090909,4,2,1,5,0,1
147453,-90.9090909090909,4,2,1,80,0,1
147510,-90.9090909090909,4,2,1,5,0,1
147568,-90.9090909090909,4,2,1,80,0,1
147626,-90.9090909090909,4,2,1,5,0,1
147684,-90.9090909090909,4,2,1,80,0,1
147741,-90.9090909090909,4,2,1,5,0,1
147799,-90.9090909090909,4,2,1,80,0,1
150222,-90.9090909090909,4,2,1,5,0,1
150337,-90.9090909090909,4,2,1,80,0,1
151087,-90.9090909090909,4,2,1,5,0,1
151145,-90.9090909090909,4,2,1,80,0,1
151202,-90.9090909090909,4,2,1,5,0,1
151260,-90.9090909090909,4,2,1,80,0,1
151318,-90.9090909090909,4,2,1,5,0,1
151376,-90.9090909090909,4,2,1,80,0,1
151433,-90.9090909090909,4,2,1,5,0,1
151491,-90.9090909090909,4,2,1,80,0,1
152587,-90.9090909090909,4,2,1,5,0,1
152645,-90.9090909090909,4,2,1,80,0,1
153279,-90.9090909090909,4,2,1,5,0,1
153337,-90.9090909090909,4,2,1,80,0,1
153914,-90.9090909090909,4,2,1,5,0,1
154029,-90.9090909090909,4,2,1,80,0,1
154779,-90.9090909090909,4,2,1,5,0,1
154837,-90.9090909090909,4,2,1,80,0,1
154895,-90.9090909090909,4,2,1,5,0,1
154953,-90.9090909090909,4,2,1,80,0,1
155010,-90.9090909090909,4,2,1,5,0,1
155068,-90.9090909090909,4,2,1,80,0,1
155126,-90.9090909090909,4,2,1,5,0,1
155184,-90.9090909090909,4,2,1,80,0,1
157606,-90.9090909090909,4,2,1,5,0,1
157721,-90.9090909090909,4,2,1,80,0,1
158472,-90.9090909090909,4,2,1,5,0,1
158530,-90.9090909090909,4,2,1,80,0,1
158587,-90.9090909090909,4,2,1,5,0,1
158645,-90.9090909090909,4,2,1,80,0,1
158702,-90.9090909090909,4,2,1,5,0,1
158760,-90.9090909090909,4,2,1,80,0,1
158818,-90.9090909090909,4,2,1,5,0,1
158876,-90.9090909090909,4,2,1,80,0,1
159279,-90.9090909090909,4,2,1,5,0,1
159337,-90.9090909090909,4,2,1,80,0,1
159972,-90.9090909090909,4,2,1,5,0,1
160029,-90.9090909090909,4,2,1,80,0,1
160664,-90.9090909090909,4,2,1,5,0,1
160722,-90.9090909090909,4,2,1,80,0,1
160895,-90.9090909090909,4,2,1,5,0,1
160952,-90.9090909090909,4,2,1,80,0,1
161299,-90.9090909090909,4,2,1,5,0,1
161414,-90.9090909090909,4,2,1,80,0,1
162164,-90.9090909090909,4,2,1,5,0,1
162222,-90.9090909090909,4,2,1,80,0,1
162279,-90.9090909090909,4,2,1,5,0,1
162337,-90.9090909090909,4,2,1,80,0,1
162395,-90.9090909090909,4,2,1,5,0,1
162453,-90.9090909090909,4,2,1,80,0,1
162510,-90.9090909090909,4,2,1,5,0,1
162568,-90.9090909090909,4,2,1,80,0,1
164991,-90.9090909090909,4,2,1,5,0,1
165106,-90.9090909090909,4,2,1,80,0,1
165337,-100,4,2,1,80,0,0

[Colours]
Combo1 : 0,166,166
Combo2 : 191,15,41
Combo3 : 134,13,255
Combo4 : 210,0,105

[HitObjects]
153,334,15799,5,0,0:2:0:0:
58,303,16260,1,0,0:2:0:0:
58,203,16722,1,0,0:2:0:0:
153,172,17183,1,0,0:2:0:0:
212,253,17645,6,2,P|291:203|412:217,1,199.999980926514,6|8,3:2|0:2,0:1:0:0:
454,287,19029,1,0,0:2:0:0:
327,364,19722,1,2,3:2:0:0:
327,364,19952,2,0,P|297:332|309:259,1,99.9999904632568,2|8,3:2|0:2,0:2:0:0:
289,178,20876,2,0,P|284:150|270:114,1,49.9999952316284,0|0,0:2|3:2,0:2:0:0:
291,90,21337,6,0,L|71:64,1,199.999980926514,2|10,3:2|0:2,0:2:0:0:
31,146,22722,1,2,0:2:0:0:
96,221,23183,2,0,P|104:252|119:337,2,99.9999904632568,0|2|10,3:2|3:2|0:2,0:2:0:0:
193,196,24568,1,2,0:2:0:0:
263,267,25029,6,2,B|310:232|310:232|289:120,1,149.999985694885,4|0,3:2|0:2,0:1:0:0:
284,92,25952,2,2,B|315:68|315:68|391:96,1,99.9999904632568,10|0,0:2|3:2,0:1:0:0:
500,214,27337,2,0,L|483:312,1,99.9999904632568,0|10,3:2|0:2,0:0:0:0:
442,342,28029,1,2,0:2:0:0:
442,342,28260,1,2,0:2:0:0:
351,299,28722,6,0,P|327:337|309:381,2,74.9999928474426,2|2|2,3:2|3:2|3:2,0:2:0:0:
332,252,29645,1,10,3:2:0:0:
244,299,30106,2,0,P|163:320|90:345,1,149.999985694885,0|0,0:2|0:2,0:2:0:0:
52,356,31029,1,2,3:2:0:0:
11,264,31491,1,10,0:2:0:0:
65,71,32414,6,2,B|115:80|115:80|142:237,1,199.999980926514,6|10,3:2|0:2,0:1:0:0:
140,227,34491,5,0,3:2:0:0:
140,227,34722,2,0,L|254:248,1,99.9999904632568,2|10,3:2|0:2,0:0:0:0:
332,210,35645,2,0,P|337:182|352:149,1,49.9999952316284,2|2,0:2|3:2,0:2:0:0:
313,122,36106,6,0,P|380:126|451:240,1,199.999980926514,0|8,3:2|0:2,0:2:0:0:
427,324,37491,1,0,0:2:0:0:
332,355,37952,2,0,P|267:343|219:321,2,99.9999904632568,2|2|10,3:2|3:2|0:2,0:2:0:0:
427,324,39337,1,2,0:2:0:0:
355,253,39799,6,2,L|326:46,1,199.999980926514,6|10,3:2|0:2,0:1:0:0:
235,16,41183,2,0,P|175:30|122:39,1,99.9999904632568,2|2,3:2|0:2,0:2:0:0:
78,52,41876,1,0,3:2:0:0:
52,90,42106,2,0,P|71:144|82:196,1,99.9999904632568,2|10,3:2|0:2,0:2:0:0:
163,241,43029,2,0,P|145:282|137:302,1,49.9999952316284,2|2,0:2|3:2,0:2:0:0:
117,329,43491,6,0,P|65:321|26:315,2,74.9999928474426,2|2|2,3:2|3:2|3:2,0:2:0:0:
143,371,44414,1,8,0:2:0:0:
242,378,44876,2,0,P|251:340|283:269,1,99.9999904632568,2|0,3:2|0:2,0:2:0:0:
327,199,45799,1,2,3:2:0:0:
412,250,46261,2,0,L|507:221,1,99.9999904632568,10|2,0:2|0:2,0:2:0:0:
501,121,47183,5,6,3:2:0:0:
369,70,48106,1,0,3:2:0:0:
257,129,49029,1,0,3:2:0:0:
263,253,49952,1,0,3:2:0:0:
375,324,50876,6,0,P|385:278|397:208,1,99.9999904632568,0|0,3:2|3:2,2:2:0:0:
477,169,51799,2,0,P|467:123|455:53,1,99.9999904632568,0|0,3:2|3:2,2:0:0:0:
365,32,52722,2,0,P|314:52|256:68,1,99.9999904632568,0|0,3:2|3:2,2:0:0:0:
191,126,53645,1,0,3:2:0:0:
96,92,54106,1,0,3:2:0:0:
256,192,54568,12,0,58260,3:2:0:0:
128,339,61722,5,0,1:2:0:0:
128,339,61952,1,6,3:2:0:0:
90,235,62414,2,0,P|65:253|33:286,2,54.9999964332579,2|2|8,0:2|0:2|0:2,0:2:0:0:
73,126,63337,2,0,B|112:91|112:91|189:121|189:121|256:90|256:90|258:158|258:158|272:192|272:192|306:200,1,329.999978599548,0|10,3:2|0:2,0:2:0:0:
371,123,65183,1,2,1:2:0:0:
476,154,65645,5,0,3:2:0:0:
470,263,66106,2,0,P|462:291|457:320,2,54.9999964332579,2|2|10,0:2|0:2|0:2,0:2:0:0:
362,239,67029,2,0,B|320:263|280:255|280:255|311:283|318:348|318:348|262:344|231:352|231:352|221:321|186:289|186:289,1,329.999978599548,2|8,3:2|0:2,0:2:0:0:
97,341,68876,1,2,1:2:0:0:
24,258,69337,5,0,3:2:0:0:
114,194,69799,2,0,L|183:208,2,54.9999964332579,2|2|8,0:2|0:2|0:2,0:2:0:0:
58,98,70722,2,0,B|111:52|111:52|133:72|133:72|199:53|199:53|213:76|213:76|279:92|279:92|276:115|276:115|309:162,1,329.999978599548,0|8,3:2|0:2,0:2:0:0:
261,253,72568,1,2,1:2:0:0:
319,346,73029,5,0,3:2:0:0:
415,293,73491,2,0,P|431:339|435:348,2,54.9999964332579,2|2|8,0:2|0:2|0:2,0:2:0:0:
472,199,74414,2,0,L|482:141,1,54.9999964332579,2|2,3:2|0:2,0:2:0:0:
430,122,74876,2,0,L|420:64,1,54.9999964332579,2|2,0:2|0:2,0:2:0:0:
395,18,75337,1,2,0:2:0:0:
395,18,75568,1,2,0:2:0:0:
395,18,75799,1,8,0:2:0:0:
307,85,76260,1,2,1:2:0:0:
207,38,76722,5,0,3:2:0:0:
122,108,77183,2,0,P|100:85|91:53,2,54.9999964332579,2|2|8,0:2|0:2|0:2,0:2:0:0:
187,196,78106,2,0,B|297:197|297:197|276:248|276:248|279:252|279:252|264:299|264:299|383:305,1,329.999978599548,0|8,3:2|0:2,0:2:0:0:
483,320,79952,1,2,1:2:0:0:
508,212,80414,5,0,3:2:0:0:
492,102,80876,2,0,L|517:46,2,54.9999964332579,2|2|8,0:2|0:2|0:2,0:2:0:0:
392,53,81799,2,0,B|339:7|339:7|317:27|317:27|251:8|251:8|237:31|237:31|171:47|171:47|174:70|174:70|141:117,1,329.999978599548,0|8,3:2|0:2,0:2:0:0:
41,82,83645,1,2,1:2:0:0:
61,189,84106,5,0,3:2:0:0:
139,266,84568,2,0,P|109:322|107:329,2,54.9999964332579,2|2|8,0:2|0:2|0:2,0:2:0:0:
207,352,85491,2,0,B|240:302|240:302|227:154|227:154|285:88|285:88|246:52,1,329.999978599548,0|8,3:2|0:2,0:2:0:0:
358,15,87337,1,2,1:2:0:0:
459,58,87799,5,0,3:2:0:0:
466,167,88260,2,0,P|490:197|508:217,2,54.9999964332579,2|2|8,0:2|0:2|0:2,0:2:0:0:
377,233,89183,2,0,L|306:260,1,54.9999964332579,2|2,3:2|0:2,0:2:0:0:
301,302,89645,2,0,L|249:282,1,54.9999964332579,2|2,0:2|0:2,0:2:0:0:
207,317,90106,1,2,0:2:0:0:
207,317,90337,1,2,0:2:0:0:
207,317,90568,1,10,0:2:0:0:
100,344,91029,1,2,1:2:0:0:
31,258,91491,6,2,B|51:250|51:250|63:99|63:99|90:88,1,199.999980926514,6|8,3:2|0:2,0:1:0:0:
279,148,93337,6,0,P|326:150|360:130,1,74.9999928474426
400,136,93914,2,0,P|424:181|422:213,1,74.9999928474426,2|10,3:2|0:2,0:2:0:0:
465,294,94722,2,0,P|434:310|414:328,1,49.9999952316284,0|0,0:2|3:2,0:0:0:0:
392,359,95183,6,0,P|353:334|195:305,1,199.999980926514,0|8,3:2|0:2,0:2:0:0:
63,347,96799,1,0,3:2:0:0:
63,347,97029,2,0,P|64:305|55:276,1,49.9999952316284,2|0,3:2|0:0,0:2:0:0:
51,248,97491,2,0,P|72:206|121:149,1,99.9999904632568,2|10,3:2|0:2,0:2:0:0:
182,100,98414,1,0,0:0:0:0:
243,179,98876,6,2,B|260:227|260:227|255:275|255:275|274:339,1,149.999985694885,4|0,3:2|0:2,0:1:0:0:
306,357,99799,2,2,P|338:320|396:326,1,99.9999904632568,8|0,0:2|3:2,0:1:0:0:
485,277,100722,2,0,L|481:207,1,49.9999952316284,0|0,0:2|3:2,0:0:0:0:
490,140,101299,2,0,P|448:113|414:84,1,74.9999928474426,2|10,3:2|0:2,0:2:0:0:
366,18,102106,1,0,0:2:0:0:
268,42,102568,6,0,P|209:56|181:62,2,74.9999928474426,2|0|0,3:2|3:2|3:2,0:2:0:0:
292,85,103491,1,10,0:2:0:0:
338,173,103952,2,0,P|328:240|226:344,1,199.999980926514,0|2,3:2|3:2,0:2:0:0:
147,306,105337,1,10,0:2:0:0:
116,210,105799,1,0,0:0:0:0:
78,117,106260,6,2,B|151:130|151:130|154:168|154:168|259:189,1,199.999980926514,4|10,3:2|0:2,0:1:0:0:
333,234,107645,1,2,0:2:0:0:
333,234,107876,2,0,P|342:179|372:133,1,99.9999904632568,2|0,0:2|3:2,0:2:0:0:
360,66,108683,2,0,P|310:102|280:103,1,74.9999928474426,2|8,3:2|0:2,0:2:0:0:
229,36,109491,2,0,P|205:33|182:42,1,49.9999952316284,2|0,0:2|0:0,0:2:0:0:
132,42,109952,6,2,P|176:94|202:226,1,199.999980926514,2|10,3:2|0:2,0:1:0:0:
89,317,111568,1,2,3:2:0:0:
89,317,111799,2,0,P|52:318|-6:373,2,99.9999904632568,0|2|10,3:2|3:2|0:2,0:2:0:0:
177,363,113183,1,2,0:2:0:0:
269,323,113645,6,2,B|311:299|311:299|279:182,1,149.999985694885,6|0,3:2|0:2,0:1:0:0:
286,150,114568,2,0,P|332:121|381:133,1,99.9999904632568,10|0,0:2|3:2,0:2:0:0:
441,203,115491,1,2,0:2:0:0:
436,302,115952,2,0,P|405:335|335:353,1,99.9999904632568,2|10,3:2|0:2,0:2:0:0:
259,319,116876,1,2,0:2:0:0:
160,302,117337,6,0,P|87:330|71:341,2,74.9999928474426,2|0|0,3:2|3:2|3:2,0:2:0:0:
168,252,118260,2,0,P|172:205|127:164,1,99.9999904632568,10|2,3:2|3:2,0:2:0:0:
67,97,119183,5,2,0:2:0:0:
176,87,119645,1,2,3:2:0:0:
285,77,120106,1,8,0:2:0:0:
394,66,120568,1,2,0:2:0:0:
461,152,121029,5,4,3:2:0:0:
444,300,121952,1,0,3:2:0:0:
305,369,122876,1,0,3:2:0:0:
306,194,123799,1,0,3:2:0:0:
178,103,124722,6,0,P|133:96|63:78,1,99.9999904632568,0|0,3:2|3:2,2:0:0:0:
60,181,125645,2,0,P|105:188|175:206,1,99.9999904632568,0|0,3:2|3:2,2:0:0:0:
240,257,126568,2,0,P|256:314|272:370,1,99.9999904632568,0|0,3:2|3:2,2:0:0:0:
366,363,127491,1,0,3:2:0:0:
465,372,127952,1,0,3:2:0:0:
256,192,128414,12,4,132106,3:2:0:0:
468,66,135568,5,0,1:2:0:0:
468,66,135799,1,4,3:2:0:0:
358,60,136260,2,0,P|337:31|329:12,2,54.9999964332579,2|2|8,0:2|0:2|0:2,0:2:0:0:
413,154,137183,2,0,B|423:201|423:201|431:208|431:208|444:273,1,109.999992866516,2|0,3:2|0:0,1:2:0:0:
471,304,137876,2,0,L|298:281,1,164.999989299774,0|8,0:2|0:2,3:0:0:0:
222,352,139029,1,2,1:2:0:0:
141,276,139491,5,0,3:2:0:0:
31,282,139952,2,0,P|17:331|15:345,2,54.9999964332579,2|2|8,0:2|0:2|0:2,0:2:0:0:
95,192,140876,2,0,B|115:94|115:94|56:51,1,164.999989299774,2|0,3:2|0:2,1:2:0:0:
9,40,141799,2,0,L|132:18,1,109.999992866516,2|10,0:2|0:2,0:0:0:0:
217,66,142722,1,0,1:2:0:0:
309,6,143183,5,0,3:2:0:0:
417,26,143645,2,0,P|463:39|483:46,2,54.9999964332579,2|2|8,0:2|0:2|0:2,0:2:0:0:
345,109,144568,2,0,B|348:145|348:145|435:171,1,109.999992866516,0|0,3:2|0:0,1:2:0:0:
466,193,145260,2,0,L|292:243,1,164.999989299774,0|8,0:2|0:2,3:2:0:0:
284,345,146414,1,2,1:2:0:0:
196,278,146876,5,0,3:2:0:0:
113,350,147337,2,0,L|46:366,2,54.9999964332579,2|2|8,0:2|0:2|0:2,0:2:0:0:
187,269,148260,2,0,B|225:228|225:228|183:119,1,164.999989299774,2|0,3:2|0:2,1:2:0:0:
211,77,149183,2,0,B|234:27|234:27|306:48,1,109.999992866516,2|10,0:2|0:2,0:0:0:0:
353,129,150106,1,0,1:2:0:0:
315,232,150568,5,2,3:2:0:0:
387,314,151029,2,0,P|379:339|369:373,2,54.9999964332579,2|2|8,0:2|0:2|0:2,0:2:0:0:
491,277,151952,2,0,B|504:249|504:249|445:165,1,109.999992866516,0|0,3:2|0:0,1:2:0:0:
409,158,152645,2,0,L|455:-19,1,164.999989299774,0|8,0:2|0:2,3:2:0:0:
345,31,153799,1,2,0:2:0:0:
239,62,154260,5,0,3:2:0:0:
256,170,154722,2,0,L|315:183,2,54.9999964332579,2|2|8,0:2|0:2|0:2,0:2:0:0:
220,274,155645,2,0,B|105:355|105:355|96:310,1,164.999989299774,2|0,3:2|0:2,1:2:0:0:
47,316,156568,2,0,B|96:290|96:290|79:235,1,109.999992866516,2|10,0:2|0:2,0:0:0:0:
43,134,157491,1,0,1:2:0:0:
149,159,157952,5,0,3:2:0:0:
248,110,158414,2,0,L|237:54,2,54.9999964332579,2|2|8,0:2|0:2|0:2,0:2:0:0:
353,140,159337,2,0,B|402:153|402:153|406:160|406:160|456:176,1,109.999992866516,0|0,3:2|0:0,1:2:0:0:
490,217,160029,2,0,B|446:228|446:228|470:351,1,164.999989299774,0|8,0:2|0:2,3:2:0:0:
364,381,161183,1,2,1:2:0:0:
284,305,161645,5,0,3:2:0:0:
174,306,162106,2,0,P|161:332|162:363,2,54.9999964332579,2|2|8,0:2|0:2|0:2,0:2:0:0:
242,219,163029,2,0,B|262:96|262:96|211:84,1,164.999989299774,2|0,3:2|0:2,1:2:0:0:
210,33,163952,2,0,B|140:25|140:25|122:70,1,109.999992866516,2|10,0:2|0:2,0:0:0:0:
87,165,164876,1,0,1:2:0:0:
59,271,165337,5,0,3:2:0:0:
