osu file format v14

[General]
AudioFilename: audio (online-audio-converter.com).mp3
AudioLeadIn: 0
PreviewTime: 287414
Countdown: 0
SampleSet: Soft
StackLeniency: 0.5
Mode: 0
LetterboxInBreaks: 0
WidescreenStoryboard: 0

[Editor]
Bookmarks: 39539,39727,39914,40102,40289,40477,40664,40852,41039,41227,41414,41602,41789,41977,42164,42352,42539,42727,42914,43102,43289,43477,43664,43852,44039,44227,44414,44602,44789,44977,45164,45352,45539,45727,45914,46102,46289,46477,46664,46852,47039,47227,47414,47602,47789,192539,192727,192914,193102,193289,193477,193664,193852,194039,194227,194414,194602,194789,194977,195164,195352,195539,195727,195914,196102,196289,196477,196664,196852,197039,197227,197414,197602,197789,197977,198164,198352,198539,198727,198914,199102,199289,199477,199664,199852,200039,200227,200414,200602,200789,200977,201164,201352,201539,201727,201914,202102,202289,202477,202664
DistanceSpacing: 1
BeatDivisor: 4
GridSize: 4
TimelineZoom: 1.2

[Metadata]
Title:Forsaken
TitleUnicode:Forsaken
Artist:NGC 3.14 x Aika
ArtistUnicode:NGC 3.14 x Aika
Creator:Troponoop
Version:Hurricane
Source:
Tags:electronic Nekomura Iroha 猫村いろは
BeatmapID:1437926
BeatmapSetID:680011

[Difficulty]
HPDrainRate:6
CircleSize:3.9
OverallDifficulty:8
ApproachRate:9
SliderMultiplier:1.69
SliderTickRate:1

[Events]
//Background and Video events
0,0,"anime griiill.png",0,0
//Break Periods
2,39551,47377
2,192552,202252
//Storyboard Layer 0 (Background)
//Storyboard Layer 1 (Fail)
//Storyboard Layer 2 (Pass)
//Storyboard Layer 3 (Foreground)
//Storyboard Sound Samples

[TimingPoints]
352,375,4,3,1,15,1,0
352,-200,4,3,1,15,0,0
445,-200,4,2,1,15,0,0
3164,-200,4,3,1,5,0,0
3352,-200,4,3,1,15,0,0
3445,-200,4,2,1,15,0,0
6164,-200,4,3,1,5,0,0
6352,-200,4,3,1,15,0,0
6445,-200,4,2,1,15,0,0
9164,-200,4,3,1,5,0,0
9352,-200,4,3,1,15,0,0
9445,-200,4,2,1,15,0,0
10664,-200,4,3,1,5,0,0
12352,-200,4,2,1,25,0,0
12820,-200,4,2,1,5,0,0
12914,-200,4,2,1,25,0,0
13477,-100,4,2,1,25,0,0
14414,-66.6666666666667,4,2,1,25,0,0
14789,-66.6666666666667,4,2,1,5,0,0
14977,-100,4,2,1,25,0,0
15352,-200,4,2,1,25,0,0
15820,-200,4,2,1,5,0,0
15914,-200,4,2,1,25,0,0
16477,-100,4,2,1,25,0,0
18352,-200,4,2,1,25,0,0
18820,-200,4,2,1,5,0,0
18914,-200,4,2,1,25,0,0
19477,-100,4,2,1,25,0,0
20414,-66.6666666666667,4,2,1,25,0,0
20789,-66.6666666666667,4,2,1,5,0,0
20977,-100,4,2,1,25,0,0
21352,-200,4,2,1,25,0,0
21820,-200,4,2,1,5,0,0
21914,-200,4,2,1,25,0,0
22477,-100,4,2,1,25,0,0
24352,-100,4,2,1,25,0,0
24539,-100,4,2,1,5,0,0
24727,-100,4,2,1,25,0,0
24914,-100,4,2,1,5,0,0
25102,-100,4,2,1,25,0,0
27352,-100,4,2,1,25,0,0
27727,-100,4,2,1,25,0,0
27914,-100,4,2,1,5,0,0
28102,-100,4,2,1,25,0,0
28289,-100,4,2,1,25,0,0
28389,-100,4,2,1,5,0,0
28477,-100,4,2,1,25,0,0
30352,-200,4,2,1,25,0,0
30727,-100,4,2,1,25,0,0
30914,-100,4,2,1,5,0,0
31102,-100,4,2,1,25,0,0
31289,-100,4,2,1,5,0,0
31477,-100,4,2,1,25,0,0
31852,-200,4,2,1,25,0,0
32414,-100,4,2,1,25,0,0
33352,-200,4,2,1,25,0,0
33727,-100,4,2,1,25,0,0
33914,-100,4,2,1,5,0,0
34102,-100,4,2,1,25,0,0
34289,-100,4,2,1,5,0,0
34477,-100,4,2,1,25,0,0
35602,-100,4,2,1,25,0,0
35977,-100,4,2,1,25,0,0
36352,-200,4,2,1,25,0,0
36727,-200,4,2,1,25,0,0
37477,-200,4,2,1,20,0,0
38227,-200,4,2,1,15,0,0
38977,-200,4,2,1,10,0,0
39352,-200,4,2,1,6,0,0
47977,-200,4,3,1,30,0,0
48164,-200,4,3,1,5,0,0
48352,-200,4,3,1,30,0,0
48445,-200,4,1,1,30,0,0
49289,-200,4,3,1,5,0,0
49477,-200,4,3,1,30,0,0
49852,-200,4,3,1,5,0,0
50039,-200,4,3,1,30,0,0
50414,-200,4,3,1,5,0,0
50602,-200,4,3,1,30,0,0
50789,-200,4,3,1,5,0,0
50977,-200,4,3,1,30,0,0
51164,-200,4,3,1,5,0,0
51352,-200,4,3,1,30,0,0
51445,-200,4,1,1,30,0,0
51820,-200,4,3,1,5,0,0
51914,-200,4,3,1,30,0,0
52008,-200,4,1,1,30,0,0
52383,-200,4,3,1,5,0,0
52477,-200,4,3,1,30,0,0
52570,-200,4,1,1,30,0,0
53789,-200,4,3,1,5,0,0
53977,-200,4,3,1,30,0,0
54445,-200,4,1,1,30,0,0
55289,-200,4,3,1,5,0,0
55477,-200,4,3,1,30,0,0
55852,-200,4,3,1,5,0,0
56039,-200,4,3,1,30,0,0
56414,-200,4,3,1,5,0,0
56602,-200,4,3,1,30,0,0
57727,-200,4,1,1,5,0,0
57914,-200,4,1,1,30,0,0
58289,-200,4,1,1,5,0,0
58477,-200,4,1,1,30,0,0
58852,-200,4,1,1,5,0,0
59977,-200,4,3,1,30,0,0
60727,-200,4,3,1,5,0,0
60914,-200,4,3,1,30,0,0
61289,-200,4,3,1,5,0,0
61477,-200,4,3,1,30,0,0
61664,-200,4,3,1,5,0,0
61852,-200,4,3,1,30,0,0
62414,-200,4,3,1,5,0,0
62602,-200,4,3,1,30,0,0
62789,-200,4,3,1,5,0,0
62977,-200,4,3,1,30,0,0
63164,-200,4,3,1,5,0,0
63352,-200,4,3,1,30,0,0
63727,-200,4,3,1,5,0,0
63914,-200,4,3,1,30,0,0
64289,-200,4,3,1,5,0,0
64477,-200,4,3,1,30,0,0
64664,-200,4,3,1,5,0,0
64852,-200,4,3,1,30,0,0
65039,-200,4,3,1,5,0,0
65227,-200,4,3,1,30,0,0
65414,-200,4,3,1,5,0,0
65602,-200,4,3,1,30,0,0
66727,-200,4,3,1,5,0,0
66914,-200,4,3,1,30,0,0
67664,-200,4,3,1,5,0,0
67852,-200,4,3,1,30,0,0
68789,-200,4,3,1,5,0,0
68977,-200,4,3,1,30,0,0
69164,-200,4,3,1,5,0,0
69352,-200,4,3,1,30,0,0
69727,-200,4,3,1,5,0,0
69914,-200,4,3,1,30,0,0
70852,-200,4,3,1,5,0,0
72352,-133.333333333333,4,2,1,40,0,0
96352,-100,4,3,1,45,0,0
96633,-100,4,3,1,5,0,0
96727,-80,4,3,1,45,0,0
97008,-80,4,3,1,5,0,0
97102,-66.6666666666667,4,3,1,45,0,0
97383,-66.6666666666667,4,3,1,5,0,0
97477,-200,4,3,1,45,0,0
97758,-200,4,3,1,5,0,0
97852,-100,4,3,1,45,0,0
98133,-100,4,3,1,5,0,0
98227,-80,4,3,1,45,0,0
98508,-80,4,3,1,5,0,0
98602,-66.6666666666667,4,3,1,45,0,0
98883,-66.6666666666667,4,3,1,5,0,0
98977,-200,4,3,1,45,0,0
99258,-200,4,3,1,5,0,0
99352,-100,4,3,1,45,0,0
99633,-100,4,3,1,5,0,0
99727,-80,4,3,1,45,0,0
100008,-80,4,3,1,5,0,0
100102,-66.6666666666667,4,3,1,45,0,0
100383,-66.6666666666667,4,3,1,5,0,0
100477,-200,4,3,1,45,0,0
100758,-200,4,3,1,5,0,0
100852,-100,4,3,1,45,0,0
101133,-100,4,3,1,5,0,0
101227,-80,4,3,1,45,0,0
101508,-80,4,3,1,5,0,0
101602,-66.6666666666667,4,3,1,45,0,0
101883,-66.6666666666667,4,3,1,5,0,0
101977,-200,4,3,1,45,0,0
102352,-100,4,3,1,45,0,0
102633,-100,4,3,1,5,0,0
102727,-80,4,3,1,45,0,0
103008,-80,4,3,1,5,0,0
103102,-66.6666666666667,4,3,1,45,0,0
103383,-66.6666666666667,4,3,1,5,0,0
103477,-200,4,3,1,45,0,0
103758,-200,4,3,1,5,0,0
103852,-100,4,3,1,45,0,0
104133,-100,4,3,1,5,0,0
104227,-80,4,3,1,45,0,0
104508,-80,4,3,1,5,0,0
104602,-66.6666666666667,4,3,1,45,0,0
104883,-66.6666666666667,4,3,1,5,0,0
104977,-200,4,3,1,45,0,0
105258,-200,4,3,1,5,0,0
105352,-100,4,3,1,45,0,0
105633,-100,4,3,1,5,0,0
105727,-80,4,3,1,45,0,0
106008,-80,4,3,1,5,0,0
106102,-66.6666666666667,4,3,1,45,0,0
106383,-66.6666666666667,4,3,1,5,0,0
106477,-200,4,3,1,45,0,0
106758,-200,4,3,1,5,0,0
106852,-100,4,3,1,45,0,0
107133,-100,4,3,1,5,0,0
107227,-80,4,3,1,45,0,0
107508,-80,4,3,1,5,0,0
107602,-66.6666666666667,4,3,1,45,0,0
108352,-80,4,2,1,50,0,0
118852,-200,4,3,1,30,0,0
120352,-100,4,3,1,80,0,0
132352,-100,4,3,1,80,0,0
142852,-100,4,3,1,50,0,0
143414,-133.333333333333,4,3,1,48,0,0
143602,-100,4,3,1,56,0,0
143789,-80,4,3,1,64,0,0
143977,-66.6666666666667,4,3,1,72,0,0
144164,-57.1428571428571,4,3,1,80,0,0
144352,-50,4,2,1,84,0,1
145852,-66.6666666666667,4,2,1,84,0,0
147352,-50,4,2,1,84,0,1
148852,-66.6666666666667,4,2,1,84,0,0
150352,-50,4,2,1,84,0,1
151852,-66.6666666666667,4,2,1,84,0,0
153352,-50,4,2,1,84,0,1
154852,-66.6666666666667,4,2,1,84,0,0
156352,-50,4,2,1,84,0,1
157852,-50,4,2,1,84,0,1
159352,-50,4,2,1,84,0,1
160852,-50,4,2,1,84,0,1
162352,-50,4,2,1,84,0,1
163852,-50,4,2,1,84,0,1
165352,-50,4,2,1,84,0,1
166852,-50,4,3,1,84,0,0
167602,-100,4,3,1,84,0,0
168352,-200,4,2,1,84,0,0
169102,-50,4,2,1,84,0,0
169477,-200,4,2,1,84,0,0
170227,-100,4,2,1,84,0,0
170602,-66.6666666666667,4,2,1,84,0,0
171352,-200,4,2,1,84,0,0
172102,-50,4,2,1,84,0,0
172477,-200,4,2,1,84,0,0
173227,-100,4,2,1,84,0,0
173602,-66.6666666666667,4,2,1,84,0,0
174352,-200,4,2,1,84,0,0
175102,-50,4,2,1,84,0,0
175477,-200,4,2,1,84,0,0
176227,-100,4,2,1,84,0,0
176602,-66.6666666666667,4,2,1,84,0,0
177352,-200,4,2,1,84,0,0
178102,-50,4,2,1,84,0,0
178477,-200,4,2,1,84,0,0
179227,-100,4,2,1,84,0,0
179602,-66.6666666666667,4,2,1,84,0,0
180352,-100,4,2,1,84,0,0
181102,-66.6666666666667,4,2,1,84,0,0
181477,-100,4,2,1,84,0,0
182602,-50,4,2,1,84,0,0
182977,-100,4,2,1,84,0,0
183352,-100,4,2,1,84,0,0
184102,-66.6666666666667,4,2,1,84,0,0
184477,-100,4,2,1,84,0,0
185602,-50,4,2,1,84,0,0
185977,-100,4,2,1,84,0,0
186352,-100,4,2,1,84,0,0
187102,-66.6666666666667,4,2,1,84,0,0
187477,-100,4,2,1,84,0,0
188602,-50,4,2,1,84,0,0
188977,-100,4,2,1,84,0,0
190102,-66.6666666666667,4,2,1,84,0,0
190477,-100,4,2,1,84,0,0
190852,-66.6666666666667,4,2,1,84,0,0
192352,-200,4,2,1,84,0,0
202852,-200,4,2,1,5,0,0
204164,-200,4,3,1,5,0,0
204352,-200,4,2,1,25,0,0
204820,-200,4,2,1,5,0,0
204914,-200,4,2,1,25,0,0
205852,-100,4,2,1,25,0,0
206227,-100,4,2,1,5,0,0
206414,-100,4,2,1,25,0,0
206789,-100,4,2,1,5,0,0
206977,-100,4,2,1,25,0,0
207352,-200,4,2,1,25,0,0
207820,-200,4,2,1,5,0,0
207914,-200,4,2,1,25,0,0
208852,-200,4,2,1,25,0,0
209227,-200,4,2,1,5,0,0
209414,-100,4,2,1,25,0,0
210352,-200,4,2,1,25,0,0
210820,-200,4,2,1,5,0,0
210914,-200,4,2,1,25,0,0
211852,-100,4,2,1,25,0,0
212227,-100,4,2,1,5,0,0
212414,-100,4,2,1,25,0,0
212789,-100,4,2,1,5,0,0
212977,-100,4,2,1,25,0,0
213352,-200,4,2,1,25,0,0
213820,-200,4,2,1,5,0,0
213914,-200,4,2,1,25,0,0
216352,-200,4,2,1,25,0,0
216727,-200,4,2,1,5,0,0
216914,-200,4,2,1,45,0,0
217383,-200,4,2,1,5,0,0
217477,-200,4,2,1,45,0,0
217945,-200,4,2,1,5,0,0
218039,-200,4,2,1,45,0,0
219727,-200,4,2,1,5,0,0
219914,-200,4,2,1,45,0,0
220383,-200,4,2,1,5,0,0
220477,-200,4,2,1,45,0,0
221508,-200,4,2,1,5,0,0
221602,-200,4,2,1,45,0,0
222727,-200,4,2,1,5,0,0
222914,-200,4,2,1,45,0,0
223289,-200,4,2,1,5,0,0
223477,-200,4,2,1,45,0,0
223852,-200,4,2,1,5,0,0
224039,-200,4,2,1,45,0,0
225727,-200,4,2,1,5,0,0
225914,-200,4,2,1,45,0,0
226289,-200,4,2,1,5,0,0
226477,-200,4,2,1,45,0,0
226852,-200,4,2,1,5,0,0
227039,-200,4,2,1,45,0,0
228352,-133.333333333333,4,3,1,45,0,0
252352,-100,4,3,1,85,0,0
258352,-100,4,3,1,80,0,0
261352,-50,4,3,1,85,0,0
262852,-200,4,3,1,20,0,0
263414,-133.333333333333,4,3,1,20,0,0
263977,-100,4,3,1,20,0,0
264352,-50,4,2,1,84,0,1
265102,-200,4,2,1,84,0,1
265477,-100,4,2,1,84,0,0
267352,-50,4,2,1,84,0,1
268477,-100,4,2,1,84,0,0
270352,-50,4,2,1,84,0,1
271477,-100,4,2,1,84,0,0
273352,-50,4,2,1,84,0,1
274477,-100,4,2,1,84,0,0
276352,-50,4,2,1,84,0,1
277477,-100,4,2,1,84,0,0
279352,-50,4,2,1,84,0,1
280477,-100,4,2,1,84,0,0
282352,-50,4,2,1,84,0,1
283477,-100,4,2,1,84,0,0
285352,-57.1428571428571,4,3,1,84,0,1
285727,-100,4,3,1,84,0,0
287039,-100,4,3,1,84,0,0
287602,-133.333333333333,4,3,1,84,0,0
287789,-100,4,3,1,84,0,0
287977,-80,4,3,1,84,0,0
288164,-66.6666666666667,4,3,1,84,0,0
288352,-100,4,3,1,84,0,1
289102,-50,4,2,1,84,0,1
289477,-100,4,2,1,84,0,1
290977,-100,4,2,1,84,0,1
292477,-100,4,2,1,84,0,1
294352,-100,4,3,1,84,0,1
295102,-50,4,2,1,84,0,1
295477,-100,4,2,1,84,0,1
296977,-100,4,2,1,84,0,1
298477,-100,4,2,1,84,0,1
300352,-100,4,3,1,84,0,1
301102,-50,4,2,1,84,0,1
301477,-100,4,2,1,84,0,1
302602,-50,4,2,1,84,0,1
302977,-100,4,2,1,84,0,1
304477,-100,4,2,1,84,0,1
306352,-100,4,3,1,84,0,1
307102,-50,4,2,1,84,0,1
307477,-100,4,2,1,84,0,1
308602,-50,4,2,1,84,0,1
308977,-100,4,2,1,84,0,1
310477,-100,4,2,1,84,0,1
311602,-100,4,2,1,84,0,1
312352,-200,4,3,1,15,0,0
313852,-200,4,3,1,5,0,0
314039,-200,4,3,1,15,0,0
315727,-200,4,3,1,5,0,0
315914,-200,4,3,1,15,0,0
316570,-200,4,1,1,15,0,0
317602,-200,4,3,1,5,0,0
317977,-200,4,3,1,15,0,0
318445,-200,4,1,1,15,0,0
319102,-200,4,3,1,5,0,0
319477,-200,4,3,1,15,0,0
319852,-200,4,3,1,5,0,0
320039,-200,4,3,1,15,0,0
321914,-200,4,3,1,15,0,0
322289,-200,4,3,1,5,0,0
322477,-200,4,3,1,15,0,0
322570,-200,4,1,1,15,0,0
323414,-200,4,3,1,5,0,0
323977,-200,4,3,1,15,0,0
324727,-200,4,3,1,5,0,0
324914,-200,4,3,1,15,0,0
325289,-200,4,3,1,5,0,0
325477,-200,4,3,1,15,0,0
325852,-200,4,3,1,5,0,0
326039,-200,4,3,1,15,0,0
327727,-200,4,3,1,5,0,0
327914,-200,4,3,1,15,0,0
328289,-200,4,3,1,5,0,0
328477,-200,4,3,1,15,0,0
328852,-200,4,3,1,5,0,0
329602,-200,4,3,1,15,0,0
330727,-200,4,3,1,5,0,0
330914,-200,4,3,1,15,0,0
333727,-200,4,3,1,5,0,0
333914,-200,4,3,1,15,0,0
334289,-200,4,3,1,5,0,0
334477,-200,4,3,1,15,0,0
334852,-200,4,3,1,5,0,0
335039,-200,4,3,1,15,0,0
335602,-200,4,3,1,14,0,0
335789,-200,4,3,1,13,0,0
335977,-200,4,3,1,12,0,0
336164,-200,4,3,1,11,0,0
336352,-200,4,3,1,10,0,0
336445,-200,4,2,1,5,0,0
343102,-200,4,2,1,5,0,0

[Colours]
Combo1 : 227,155,213
Combo2 : 52,203,128
Combo3 : 207,228,58
Combo4 : 175,97,80

[HitObjects]
302,342,352,6,0,P|200:147|252:354,1,633.75,2|0,0:0|0:0,0:0:0:0:
252,243,3352,6,0,B|216:227|216:227|150:215|150:215|76:291|76:291|32:145|182:9|335:78,1,633.75,2|0,0:0|0:0,0:0:0:0:
312,149,6352,6,0,B|245:119|198:149|198:149|236:158|236:158|306:186|306:186|252:243|252:243|215:227|215:227|150:215|150:215|76:291|76:291|60:233|78:182,1,633.75,2|0,0:0|0:0,0:0:0:0:
102,101,9352,6,0,B|93:63|93:63|153:82|199:149|199:149|245:119|312:149,1,295.75,2|0,0:0|0:0,0:0:0:0:
256,192,10852,12,0,12164,0:0:0:0:
153,218,12352,6,0,B|156:195|156:195|168:176|168:176|157:145|160:117,1,105.625,2|0,3:0|0:0,0:0:0:0:
257,129,12914,2,0,L|229:133,1,21.125,4|0,0:0|0:0,0:0:0:0:
81,147,13102,1,4,0:0:0:0:
153,218,13289,5,0,0:0:0:0:
153,245,13383,1,0,0:0:0:0:
153,272,13477,2,0,B|212:251|253:266|253:266|221:276,1,126.75,8|0,0:0|0:0,0:0:0:0:
101,333,13852,2,0,P|76:294|75:253,1,84.5,8|0,0:0|0:0,0:0:0:0:
255,363,14227,1,0,0:0:0:0:
101,333,14414,6,0,P|76:295|221:229,1,253.500009670258,8|0,0:0|0:0,0:0:0:0:
255,363,14977,2,0,P|247:348|262:355,1,42.25,8|0,0:0|0:0,0:0:0:0:
174,282,15164,2,0,P|182:297|167:290,1,42.25,8|0,0:0|0:0,0:0:0:0:
206,211,15352,6,0,B|232:200|249:182|249:182|283:190|311:182,1,105.625,2|0,3:0|0:0,0:0:0:0:
281,91,15914,2,0,L|281:123,1,21.125,4|0,0:0|0:0,0:0:0:0:
285,260,16102,1,4,0:0:0:0:
185,136,16289,5,0,0:0:0:0:
168,118,16383,1,0,0:0:0:0:
151,100,16477,2,0,P|93:113|89:180,1,126.75,8|0,0:0|0:0,0:0:0:0:
74,253,16852,2,0,P|115:244|151:223,1,84.5,8|0,0:0|0:0,0:0:0:0:
224,72,17227,1,0,0:0:0:0:
320,208,17414,1,0,0:0:0:0:
301,89,17602,6,0,L|308:130,1,42.25,4|0,3:0|3:0,3:0:0:0:
320,208,17789,2,0,L|312:256,1,42.25,4|0,3:0|3:0,3:0:0:0:
383,309,17977,6,0,P|368:302|376:317,1,42.25,8|0,0:0|0:0,0:0:0:0:
241,308,18164,2,0,P|257:301|249:316,1,42.25,8|0,0:0|0:0,0:0:0:0:
173,348,18352,6,0,P|165:296|186:249,1,105.625,2|0,3:0|0:0,0:0:0:0:
262,311,18914,2,0,L|241:307,1,21.125,4|0,0:0|0:0,0:0:0:0:
86,289,19102,1,4,0:0:0:0:
187,249,19289,5,0,0:0:0:0:
212,238,19383,1,0,0:0:0:0:
237,225,19477,2,0,B|288:221|333:254|333:254|299:214,1,126.75,8|0,0:0|0:0,0:0:0:0:
266,149,19852,2,0,P|260:191|237:226,1,84.5,8|0,0:0|0:0,0:0:0:0:
168,156,20227,1,0,0:0:0:0:
266,149,20414,6,0,P|254:204|68:172,1,253.500009670258,8|0,0:0|0:0,0:0:0:0:
139,84,20977,2,0,P|132:68|147:75,1,42.25,8|0,0:0|0:0,0:0:0:0:
168,156,21164,2,0,P|176:171|161:164,1,42.25,8|0,0:0|0:0,0:0:0:0:
89,218,21352,6,0,P|103:277|80:325,1,105.625,2|0,3:0|0:0,0:0:0:0:
6,266,21914,2,0,L|45:266,1,21.125,4|0,0:0|0:0,0:0:0:0:
181,266,22102,1,4,0:0:0:0:
89,218,22289,5,0,0:0:0:0:
100,194,22383,1,0,0:0:0:0:
98,167,22477,2,0,B|111:123|95:73|95:73|88:104,1,126.75,8|0,0:0|0:0,0:0:0:0:
178,75,22852,2,0,P|122:67|90:75,1,84.5,8|0,0:0|0:0,0:0:0:0:
21,147,23227,1,0,0:0:0:0:
258,72,23414,1,0,0:0:0:0:
132,196,23602,5,4,0:0:0:0:
165,222,23695,1,0,0:0:0:0:
203,222,23789,1,4,0:0:0:0:
241,222,23883,1,0,0:0:0:0:
270,190,23977,2,0,P|280:171|286:151,1,42.25,6|0,0:0|0:0,0:0:0:0:
200,141,24164,2,0,P|184:126|166:115,1,42.25,6|0,0:0|0:0,0:0:0:0:
132,196,24352,6,0,P|112:224|96:288,1,84.5,4|0,0:0|0:0,0:0:0:0:
207,344,24727,2,0,P|202:310|168:253,1,84.5,4|0,0:0|0:0,0:0:0:0:
35,199,25102,1,0,0:0:0:0:
90,119,25289,1,0,0:0:0:0:
249,220,25477,1,0,0:0:0:0:
176,160,25664,1,0,0:0:0:0:
321,276,25852,6,0,P|362:268|402:278,2,84.5,8|0|0,0:0|0:0|0:0,0:0:0:0:
249,220,26414,1,8,0:0:0:0:
176,160,26602,1,0,0:0:0:0:
162,253,26789,1,0,0:0:0:0:
321,276,26977,6,0,P|328:260|313:267,1,42.25,8|0,0:0|0:0,0:0:0:0:
249,220,27164,2,0,P|242:204|257:211,1,42.25,8|0,0:0|0:0,0:0:0:0:
176,160,27352,1,2,0:0:0:0:
176,160,27727,6,0,P|176:112|192:64,1,84.5,4|0,0:0|0:0,0:0:0:0:
34,56,28102,2,0,P|68:89|114:112,1,84.5,4|0,0:3|0:0,0:0:0:0:
256,129,28477,1,0,0:0:0:0:
176,160,28664,1,0,0:0:0:0:
288,48,28852,1,8,0:0:0:0:
186,77,29039,1,0,0:0:0:0:
343,116,29227,1,0,0:0:0:0:
176,160,29414,5,8,0:0:0:0:
256,129,29602,1,4,0:0:0:0:
343,116,29789,1,4,0:0:0:0:
288,48,29977,6,0,P|295:32|280:39,1,42.25,8|0,0:0|0:0,0:0:0:0:
256,129,30164,2,0,P|269:140|252:140,1,42.25,8|0,0:0|0:0,0:0:0:0:
315,207,30352,1,2,0:0:0:0:
315,207,30727,6,0,P|357:200|399:204,1,84.5,4|0,0:0|0:0,0:0:0:0:
425,329,31102,2,0,P|389:308|360:277,1,84.5,4|0,0:0|0:0,0:0:0:0:
277,132,31477,1,0,0:0:0:0:
399,205,31664,1,0,0:0:0:0:
263,119,31852,1,2,0:0:0:0:
263,119,32414,5,0,0:0:0:0:
358,135,32602,1,0,0:0:0:0:
175,153,32789,1,0,0:0:0:0:
358,135,32977,6,0,P|365:119|350:126,1,42.25,8|0,0:0|0:0,0:0:0:0:
263,119,33164,2,0,P|248:124|256:109,1,42.25,8|0,0:0|0:0,0:0:0:0:
175,153,33352,1,2,0:0:0:0:
175,153,33727,6,0,P|184:203|207:249,1,84.5,4|0,0:3|0:0,0:0:0:0:
51,282,34102,2,0,P|84:243|127:214,1,84.5,4|0,0:0|0:0,0:0:0:0:
287,242,34477,1,0,0:0:0:0:
175,153,34664,1,0,0:0:0:0:
294,140,34852,1,2,0:0:0:0:
294,140,35414,5,0,0:0:0:0:
413,267,35602,1,4,0:0:0:0:
436,233,35695,1,0,0:0:0:0:
443,195,35789,1,4,0:0:0:0:
435,155,35883,1,0,0:0:0:0:
406,125,35977,2,0,P|388:115|368:111,1,42.25,6|0,0:0|0:0,0:0:0:0:
358,197,36164,2,0,P|343:213|331:230,1,42.25,6|0,0:0|0:0,0:0:0:0:
413,267,36352,6,0,B|487:266|487:266|448:182|266:253|325:345|325:345|381:251|224:182|167:266|167:266|253:267,1,676,4|0,0:0|0:0,0:0:0:0:
320,296,47977,6,0,L|264:296,1,42.25
248,183,48352,2,0,P|341:203|320:295,1,211.25,2|0,2:0|0:0,0:0:0:0:
193,240,49477,2,0,P|174:202|172:160,1,84.5
225,104,50039,1,0,0:0:0:0:
225,104,50227,2,0,L|224:48,1,42.25
147,81,50602,2,0,L|116:52,1,42.25
70,119,50977,2,0,L|27:120,1,42.25
49,196,51352,6,0,B|24:240|24:240|55:246|80:232,1,105.625,2|0,2:0|0:0,0:0:0:0:
118,171,51914,2,0,P|170:179|212:211,1,105.625
139,249,52477,2,0,B|213:213|280:248|280:248|355:227|363:136,1,295.75
270,150,53977,1,0,0:0:0:0:
210,309,54352,6,0,B|232:189|167:224|188:104,1,211.25,2|0,2:0|0:0,0:0:0:0:
270,150,55477,2,0,L|368:160,1,84.5
320,277,56039,1,0,0:0:0:0:
320,277,56227,2,0,L|299:227,1,42.25
270,150,56602,1,0,0:0:0:0:
132,263,56977,1,0,0:0:0:0:
52,113,57352,6,0,P|41:153|51:194,1,84.5,2|0,2:0|3:0,0:0:0:0:
121,153,57914,2,0,P|161:142|201:154,1,84.5,0|0,3:0|3:0,0:0:0:0:
270,194,58477,2,0,P|282:140|200:161,1,169,0|0,3:0|3:0,0:0:0:0:
256,280,59977,5,0,0:0:0:0:
265,288,60164,1,0,0:0:0:0:
273,296,60352,2,0,L|374:310,1,84.5,2|0,2:0|0:0,0:0:0:0:
366,226,60914,1,0,0:0:0:0:
316,158,61102,2,0,L|275:152,1,42.25
354,86,61477,2,0,L|395:80,1,42.25
275,152,61852,5,4,0:0:0:0:
366,226,62039,1,0,0:0:0:0:
273,296,62227,2,0,L|232:289,1,42.25
183,224,62602,2,0,P|176:204|172:183,1,42.25
252,179,62977,2,0,P|267:163|279:146,1,42.25
318,5,63352,6,0,L|335:100,1,84.5,2|0,2:0|0:0,0:0:0:0:
406,39,63914,1,0,0:0:0:0:
464,127,64102,2,0,L|408:112,1,42.25
324,161,64477,2,0,P|351:166|367:174,1,42.25
437,255,64852,6,0,P|438:236|434:208,1,42.25,4|0,0:0|0:0,0:0:0:0:
402,323,65227,2,0,P|386:310|372:294,1,42.25
294,254,65602,1,0,0:0:0:0:
294,260,65695,1,0,0:0:0:0:
294,266,65789,1,0,0:0:0:0:
218,231,65977,1,0,0:0:0:0:
292,345,66164,1,0,0:0:0:0:
222,309,66352,6,0,B|184:323|184:323|171:351|152:366|152:366,1,84.5,6|0,2:0|0:0,0:0:0:0:
104,296,66914,1,0,0:0:0:0:
177,243,67102,1,0,0:0:0:0:
101,219,67289,1,0,0:0:0:0:
221,177,67477,2,0,P|236:191|250:207,1,42.25
312,280,67852,5,6,2:0:0:0:
360,201,68039,1,0,0:0:0:0:
336,112,68227,1,0,0:0:0:0:
424,136,68414,1,0,0:0:0:0:
353,37,68602,2,0,P|333:34|312:39,1,42.25
296,125,68977,2,0,P|316:121|335:112,1,42.25
234,27,69352,6,0,L|218:123,1,84.5,6|0,2:0|0:0,0:0:0:0:
190,207,69914,1,0,0:0:0:0:
122,132,70102,1,0,0:0:0:0:
220,110,70289,1,0,0:0:0:0:
190,207,70477,2,0,L|206:303,1,84.5
256,192,70945,12,0,72164,0:0:0:0:
511,246,72352,6,0,L|292:253,1,190.125007252693,2|0,0:0|0:0,0:0:0:0:
336,178,73102,2,0,L|463:174,2,126.750004835129,4|0|0,0:0|0:0|0:0,0:0:0:0:
380,321,74227,2,0,L|444:321,1,63.3750024175645,4|0,0:0|0:0,0:0:0:0:
511,246,74602,2,0,L|384:248,1,126.750004835129,2|0,0:0|0:0,0:0:0:0:
54,251,75352,6,0,P|160:276|266:249,1,190.125007252693,2|0,0:0|0:0,0:0:0:0:
219,190,76102,2,0,P|157:203|96:189,2,126.750004835129,4|0|0,0:0|0:0|0:0,0:0:0:0:
181,350,77227,2,0,P|149:350|117:347,1,63.3750024175645,4|0,0:0|0:0,0:0:0:0:
54,251,77602,2,0,P|114:272|179:276,1,126.750004835129,2|0,0:0|0:0,0:0:0:0:
503,278,78352,6,0,B|404:306|404:306|290:278,1,190.125007252693,2|0,0:0|0:0,0:0:0:0:
341,213,79102,2,0,B|401:229|401:229|464:212,2,126.750004835129,4|0|0,0:0|0:0|0:0,0:0:0:0:
375,375,80227,2,0,B|406:382|406:382|436:374,1,63.3750024175645,4|0,0:0|0:0,0:0:0:0:
468,288,80602,2,0,B|404:305|404:305|342:290,1,126.750004835129,2|0,0:0|0:0,0:0:0:0:
81,265,81352,6,0,B|105:262|105:262|147:272|147:272|208:248|267:275,1,190.125007252693,2|0,0:0|0:0,0:0:0:0:
231,339,82102,2,0,B|199:324|154:348|154:348|109:338,2,126.750004835129,4|0|0,0:0|0:0|0:0,0:0:0:0:
175,190,83227,2,0,B|161:192|144:197|144:197|114:189,1,63.3750024175645,4|0,0:0|0:0,0:0:0:0:
266,191,83602,1,2,0:0:0:0:
357,123,83789,5,0,0:0:0:0:
340,105,83977,1,0,0:0:0:0:
323,122,84164,1,0,0:0:0:0:
291,340,84352,6,0,P|287:308|290:277,1,63.3750024175645,8|0,0:0|0:0,0:0:0:0:
399,277,84727,2,0,P|374:256|355:232,1,63.3750024175645
357,123,85102,2,0,P|404:113|449:126,1,95.0625036263467,2|0,3:0|0:0,0:0:0:0:
401,189,85477,2,0,P|381:212|355:231,1,63.3750024175645,4|0,0:0|0:0,0:0:0:0:
264,168,85852,2,0,P|232:164|201:167,1,63.3750024175645
157,230,86227,2,0,P|182:250|202:275,1,63.3750024175645,8|0,0:0|0:0,0:0:0:0:
51,324,86602,2,0,P|37:278|47:232,1,95.0625036263467,2|0,3:0|0:0,0:0:0:0:
114,276,86977,2,0,P|137:255|156:229,1,63.3750024175645,4|0,0:0|0:0,0:0:0:0:
224,144,87352,6,0,B|265:146|299:164,1,63.3750024175645,8|0,0:0|0:0,0:0:0:0:
340,57,87727,2,0,B|299:59|265:77,1,63.3750024175645
224,144,88102,2,0,P|204:101|169:69,1,95.0625036263467,2|0,3:0|0:0,0:0:0:0:
81,129,88477,2,0,P|111:141|143:144,1,63.3750024175645,4|0,0:0|0:0,0:0:0:0:
245,220,88852,2,0,B|205:223|184:211,1,63.3750024175645
136,311,89227,2,0,B|177:306|210:287,1,63.3750024175645,8|0,0:0|0:0,0:0:0:0:
246,220,89602,2,0,P|269:261|306:291,1,95.0625036263467,2|0,3:0|0:0,0:0:0:0:
391,226,89977,2,0,P|361:215|329:212,1,63.3750024175645,4|0,0:0|0:0,0:0:0:0:
256,136,90352,6,0,B|216:136|216:136|192:128,1,63.3750024175645,8|0,0:0|0:0,0:0:0:0:
110,197,90727,2,0,B|150:197|150:197|173:204,1,63.3750024175645
205,312,91102,2,0,B|180:318|155:314|155:314|140:300|133:276,1,95.0625036263467,2|0,3:0|0:0,0:0:0:0:
172,203,91477,2,0,B|212:203|212:203|236:211,1,63.3750024175645,4|0,0:0|0:0,0:0:0:0:
312,287,91852,2,0,B|352:287|352:287|376:295,1,63.3750024175645
458,226,92227,2,0,B|418:226|418:226|396:218,1,63.3750024175645,8|0,0:0|0:0,0:0:0:0:
361,111,92602,2,0,B|387:104|412:108|412:108|427:122|434:146,1,95.0625036263467,2|0,3:0|0:0,0:0:0:0:
396,218,92977,2,0,B|356:218|356:218|332:210,1,63.3750024175645,4|0,0:0|0:0,0:0:0:0:
264,128,93352,6,0,B|192:136,1,63.3750024175645,8|0,0:0|0:0,0:0:0:0:
95,136,93727,2,0,L|119:64,1,63.3750024175645
220,45,94102,2,0,P|234:90|263:127,1,95.0625036263467,2|0,3:0|0:0,0:0:0:0:
365,64,94477,2,0,B|335:53|335:53|303:53,1,63.3750024175645,4|0,0:0|0:0,0:0:0:0:
168,212,94852,2,0,B|240:204,1,63.3750024175645
334,204,95227,2,0,L|310:276,1,63.3750024175645,8|0,0:0|0:0,0:0:0:0:
209,294,95602,2,0,P|196:248|167:211,1,95.0625036263467,2|0,3:0|0:0,0:0:0:0:
64,276,95977,2,0,B|95:286|95:286|127:286,1,63.3750024175645,4|0,0:0|0:0,0:0:0:0:
345,276,96352,6,0,P|401:315|425:382,1,126.75,0|0,0:0|0:0,0:0:0:0:
345,256,96727,2,0,P|417:259|482:329,1,158.4375,0|0,0:0|0:0,0:0:0:0:
345,236,97102,2,0,P|436:198|515:239,1,190.125007252693,0|0,0:0|0:0,0:0:0:0:
266,276,97477,6,0,L|267:199,1,63.375,4|0,0:0|0:0,0:0:0:0:
188,276,97852,6,0,P|133:315|109:382,1,126.75
188,256,98227,2,0,P|117:259|52:329,1,158.4375,0|0,0:0|0:0,0:0:0:0:
188,236,98602,2,0,P|98:198|18:239,1,190.125007252693,0|0,0:0|0:0,0:0:0:0:
267,212,98977,6,0,L|268:135,1,63.375,4|0,0:0|0:0,0:0:0:0:
346,212,99352,6,0,B|402:251|402:251|426:318,1,126.75
346,192,99727,2,0,B|418:195|418:195|487:267,1,158.4375,0|0,0:0|0:0,0:0:0:0:
339,172,100102,2,0,B|429:134|429:134|511:177,1,190.125007252693
266,202,100477,6,0,L|267:125,1,63.375,4|0,0:0|0:0,0:0:0:0:
186,203,100852,6,0,B|131:242|131:242|107:309,1,126.75
186,183,101227,2,0,B|115:186|115:186|50:256,1,158.4375,0|0,0:0|0:0,0:0:0:0:
186,163,101602,2,0,B|96:125|96:125|14:168,1,190.125007252693
262,138,101977,5,4,0:0:0:0:
262,138,102164,1,4,0:0:0:0:
341,134,102352,6,0,P|397:94|421:27,1,126.75,0|0,0:0|0:0,0:0:0:0:
341,154,102727,2,0,P|413:150|478:80,1,158.4375,0|0,0:0|0:0,0:0:0:0:
341,174,103102,2,0,P|432:211|511:170,1,190.125007252693,0|0,0:0|0:0,0:0:0:0:
262,138,103477,6,0,L|262:201,1,63.375,4|0,0:0|0:0,0:0:0:0:
182,131,103852,6,0,P|127:91|103:24,1,126.75
182,151,104227,2,0,P|111:147|46:77,1,158.4375,0|0,0:0|0:0,0:0:0:0:
182,171,104602,2,0,P|92:208|12:167,1,190.125007252693,0|0,0:0|0:0,0:0:0:0:
262,201,104977,6,0,L|262:264,1,63.375,4|0,0:0|0:0,0:0:0:0:
338,200,105352,6,0,B|394:160|394:160|418:93,1,126.75
338,220,105727,2,0,B|410:216|410:216|475:146,1,158.4375,0|0,0:0|0:0,0:0:0:0:
338,240,106102,2,0,B|429:277|429:277|510:235,1,190.125007252693,0|0,0:0|0:0,0:0:0:0:
262,201,106477,6,0,L|262:264,1,63.375,4|0,0:0|0:0,0:0:0:0:
185,200,106852,6,0,B|130:160|130:160|106:93,1,126.75
185,220,107227,2,0,B|114:216|114:216|49:146,1,158.4375,0|0,0:0|0:0,0:0:0:0:
185,240,107602,2,0,B|95:277|95:277|22:241,1,126.750004835129
41,248,107883,1,4,0:0:0:0:
18,225,107977,1,0,0:0:0:0:
111,104,108164,1,4,0:0:0:0:
185,240,108352,6,0,L|295:246,1,105.625,2|0,0:0|0:0,0:0:0:0:
388,148,108727,2,0,L|283:153,1,105.625
186,56,109102,2,0,L|296:62,1,105.625
440,145,109383,1,0,0:0:0:0:
440,145,109477,2,0,L|383:148,1,52.8125,0|0,0:0|0:0,0:0:0:0:
325,234,109664,2,0,L|251:207,1,52.8125
178,168,109852,6,0,P|127:178|75:173,1,105.625,2|0,0:0|0:0,0:0:0:0:
172,270,110227,2,0,P|186:219|178:168,1,105.625
4,146,110602,2,0,P|19:123|39:106,1,52.8125
82,33,110789,1,0,0:0:0:0:
100,53,110883,1,0,0:0:0:0:
115,77,110977,1,0,0:0:0:0:
177,167,111164,1,0,0:0:0:0:
255,86,111352,6,0,P|316:80|375:94,1,105.625,2|0,0:0|0:0,0:0:0:0:
457,185,111727,2,0,P|406:176|353:182,1,105.625
256,280,112102,2,0,P|309:273|361:282,1,105.625
509,182,112383,1,0,0:0:0:0:
509,182,112477,2,0,L|452:185,1,52.8125
384,110,112664,2,0,L|336:143,1,52.8125
247,193,112852,6,0,P|192:204|142:198,1,105.625,2|0,0:0|0:0,0:0:0:0:
253,90,113227,2,0,P|261:141|247:192,1,105.625
74,229,113602,2,0,P|89:251|109:268,1,52.8125
163,333,113789,1,0,0:0:0:0:
181,313,113883,1,0,0:0:0:0:
195,291,113977,1,0,0:0:0:0:
246,192,114164,1,0,0:0:0:0:
248,218,114352,5,8,0:0:0:0:
290,7,114539,1,0,0:0:0:0:
248,238,114727,5,8,0:0:0:0:
208,27,114914,1,0,0:0:0:0:
248,258,115102,5,8,0:0:0:0:
365,77,115289,1,0,0:0:0:0:
248,278,115477,5,8,0:0:0:0:
134,98,115664,1,0,0:0:0:0:
248,298,115852,5,8,0:0:0:0:
424,174,116039,1,0,0:0:0:0:
248,318,116227,5,8,0:0:0:0:
75,195,116414,1,0,0:0:0:0:
248,338,116602,5,8,0:0:0:0:
457,290,116789,1,0,0:0:0:0:
248,358,116977,5,8,0:0:0:0:
42,309,117164,1,0,0:0:0:0:
248,378,117352,5,8,0:0:0:0:
293,367,117445,1,0,0:0:0:0:
327,335,117539,1,4,0:0:0:0:
339,288,117633,1,0,0:0:0:0:
320,244,117727,1,8,0:0:0:0:
281,215,117820,1,0,0:0:0:0:
234,213,117914,1,4,0:0:0:0:
192,240,118008,1,0,0:0:0:0:
168,298,118102,5,8,0:0:0:0:
144,356,118195,1,0,0:0:0:0:
85,380,118289,1,4,0:0:0:0:
28,355,118383,1,0,0:0:0:0:
5,297,118477,1,8,0:0:0:0:
30,239,118570,1,0,0:0:0:0:
89,215,118664,1,4,0:0:0:0:
148,240,118758,1,0,0:0:0:0:
168,298,118852,6,0,L|80:299,1,84.5
239,337,119414,2,0,P|247:295|238:254,1,84.5
125,298,119977,2,0,L|168:298,1,42.25
325,294,120352,6,0,B|343:289|343:289|407:305,3,84.5,2|0|0|0,2:0|2:0|2:0|2:0,2:0:0:0:
316,138,121102,2,0,B|300:202|300:202|316:250,2,84.5,2|0|0,2:0|2:0|2:0,2:0:0:0:
305,219,121664,1,0,3:0:0:0:
407,305,121852,5,4,2:0:0:0:
407,305,122039,1,0,2:0:0:0:
316,138,122227,1,4,2:0:0:0:
316,138,122414,1,0,2:0:0:0:
407,305,122602,5,4,2:0:0:0:
464,240,122789,1,0,2:0:0:0:
464,155,122977,1,4,2:0:0:0:
394,104,123164,1,0,2:0:0:0:
237,162,123352,6,0,P|279:157|316:137,1,84.5,2|0,2:0|2:0,2:0:0:0:
469,68,123727,2,0,P|429:81|393:103,1,84.5,0|0,2:0|2:0,2:0:0:0:
198,25,124102,2,0,P|233:48|256:83,2,84.5,2|0|0,2:0|2:0|2:0,2:0:0:0:
256,83,124664,1,0,3:0:0:0:
308,236,124852,5,4,2:0:0:0:
308,236,125039,1,0,2:0:0:0:
176,106,125227,1,4,2:0:0:0:
176,106,125414,1,0,2:0:0:0:
308,236,125602,5,4,2:0:0:0:
245,296,125789,1,0,2:0:0:0:
184,237,125977,1,4,2:0:0:0:
123,179,126164,1,0,2:0:0:0:
257,110,126352,6,0,P|216:117|176:106,3,84.5,2|0|0|0,2:0|2:0|2:0|2:0,2:0:0:0:
364,215,127102,2,0,P|356:174|329:141,2,84.5,2|0|0,2:0|2:0|2:0,2:0:0:0:
329,141,127664,1,0,3:0:0:0:
218,38,127852,5,4,2:0:0:0:
218,38,128039,1,0,2:0:0:0:
285,211,128227,1,4,2:0:0:0:
285,211,128414,1,0,2:0:0:0:
218,38,128602,5,4,2:0:0:0:
305,25,128789,1,0,2:0:0:0:
366,93,128977,1,4,2:0:0:0:
366,179,129164,1,0,2:0:0:0:
201,221,129352,6,0,L|285:210,1,84.5,2|0,2:0|2:0,2:0:0:0:
449,168,129727,2,0,L|365:179,1,84.5,0|0,2:0|2:0,2:0:0:0:
283,373,130102,2,0,L|249:296,2,84.5,2|0|0,2:0|2:0|2:0,2:0:0:0:
248,295,130664,1,0,3:0:0:0:
233,136,130852,5,4,2:0:0:0:
249,296,131039,1,0,2:0:0:0:
343,284,131227,1,4,2:0:0:0:
285,211,131414,1,0,2:0:0:0:
237,336,131602,5,8,3:0:0:0:
237,336,131695,2,0,L|249:295,1,42.25,0|4,0:0|0:0,0:0:0:0:
58,296,131883,2,0,L|71:337,1,42.25,0|8,0:0|0:0,0:0:0:0:
154,278,132070,2,0,L|154:236,1,42.25,0|4,0:0|0:0,0:0:0:0:
197,168,132258,1,0,0:0:0:0:
197,168,132352,6,0,P|156:158|115:165,1,84.5,8|0,2:0|2:0,2:0:0:0:
350,217,132727,2,0,P|311:199|282:169,1,84.5,8|0,2:0|2:0,2:0:0:0:
357,133,133102,2,0,P|380:98|416:77,1,84.5,4|4,0:0|0:0,0:0:0:0:
426,73,133383,2,0,L|440:205,1,126.75
355,301,133852,6,0,L|350:217,1,84.5,2|0,0:0|0:0,0:0:0:0:
201,166,134227,2,0,L|206:250,1,84.5
290,338,134602,2,0,L|258:306,1,42.25,4|0,0:0|0:0,0:0:0:0:
129,220,134789,1,4,0:0:0:0:
130,219,134883,2,0,P|171:225|205:250,1,84.5
142,303,135164,1,4,0:0:0:0:
282,170,135352,6,0,L|400:160,1,84.5,8|0,2:0|2:0,2:0:0:0:
416,64,135727,2,0,L|332:71,1,84.5,8|0,2:0|2:0,2:0:0:0:
282,170,136102,2,0,L|260:259,1,84.5,4|4,0:0|0:0,0:0:0:0:
258,262,136383,2,0,P|196:270|148:231,1,126.75
128,118,136852,6,0,P|170:117|210:105,1,84.5,2|0,0:0|0:0,0:0:0:0:
363,148,137227,2,0,L|252:177,1,84.5
189,239,137602,2,0,L|216:198,1,42.25,4|0,0:0|0:0,0:0:0:0:
288,85,137789,1,4,0:0:0:0:
288,85,137883,2,0,L|281:169,1,84.5
212,203,138164,1,4,0:0:0:0:
447,228,138352,5,4,0:0:0:0:
367,254,138539,1,0,0:0:0:0:
423,131,138727,1,4,0:0:0:0:
344,277,138914,1,0,0:0:0:0:
495,163,139102,1,4,0:0:0:0:
321,300,139289,1,0,0:0:0:0:
374,194,139477,1,4,0:0:0:0:
298,323,139664,1,0,0:0:0:0:
217,126,139852,5,4,0:0:0:0:
298,323,140039,1,0,0:0:0:0:
240,149,140227,1,4,0:0:0:0:
275,300,140414,1,0,0:0:0:0:
263,172,140602,1,4,0:0:0:0:
252,277,140789,1,0,0:0:0:0:
286,195,140977,1,4,0:0:0:0:
229,254,141164,1,0,0:0:0:0:
193,102,141352,5,8,2:0:0:0:
193,110,141445,1,0,3:0:0:0:
193,118,141539,1,4,3:0:0:0:
193,126,141633,1,0,3:0:0:0:
175,143,141727,5,8,2:0:0:0:
192,160,141821,1,0,0:0:0:0:
209,177,141915,1,4,3:0:0:0:
226,194,142008,1,0,0:0:0:0:
226,236,142102,5,8,2:0:0:0:
267,236,142195,1,0,3:0:0:0:
309,236,142289,1,4,3:0:0:0:
351,236,142383,1,0,3:0:0:0:
392,194,142477,5,8,2:0:0:0:
392,135,142570,1,0,3:0:0:0:
350,93,142664,1,4,3:0:0:0:
290,93,142758,1,0,3:0:0:0:
232,151,142852,6,0,P|211:114|210:72,2,84.5
432,125,143414,6,0,P|420:113|408:103,1,31.6875012087822,4|0,3:0|3:0,3:0:0:0:
333,97,143602,2,0,P|314:106|297:119,1,42.25,4|0,3:0|3:0,3:0:0:0:
275,189,143789,2,0,P|282:214|296:236,1,52.8125,4|0,3:0|3:0,3:0:0:0:
364,269,143977,2,0,P|394:261|422:245,1,63.3750024175645,4|0,3:0|3:0,3:0:0:0:
451,177,144164,2,0,P|442:141|420:111,1,73.937500705123,4|0,3:0|3:0,3:0:0:0:
361,178,144352,6,0,B|296:236|225:184|225:184|212:122|165:104,1,253.5,8|0,0:0|0:0,0:0:0:0:
140,177,144727,2,0,B|206:236|277:183|277:183|289:120|335:102,1,253.5,8|0,0:0|0:0,0:0:0:0:
361,178,145102,6,0,B|421:243|368:314|368:314|305:326|288:371,1,253.5,8|0,0:0|0:0,0:0:0:0:
214,370,145477,2,0,B|198:324|135:312|135:312|82:241|139:175,1,253.5,8|0,0:0|0:0,0:0:0:0:
251,239,145852,6,0,P|220:245|188:241,1,63.3750024175645,6|0,3:0|3:0,3:0:0:0:
188,109,146039,2,0,P|208:133|217:163,1,63.3750024175645,4|0,3:0|3:0,3:0:0:0:
251,239,146227,6,0,P|280:251|311:252,1,63.3750024175645,6|0,3:0|3:0,3:0:0:0:
334,123,146414,2,0,P|309:142|295:171,1,63.3750024175645,4|0,3:0|3:0,3:0:0:0:
374,194,146602,6,0,B|424:160|424:160|424:116|452:80,1,126.750004835129,2|0,3:0|3:0,3:0:0:0:
374,194,146977,2,0,B|424:228|424:228|424:272|452:308,1,126.750004835129,2|0,3:0|3:0,3:0:0:0:
301,248,147352,6,0,B|284:201|222:188|222:188|170:117|228:52,1,253.5,8|0,0:0|0:0,0:0:0:0:
296,92,147727,2,0,B|279:138|217:151|217:151|165:222|223:287,1,253.5,8|0,0:0|0:0,0:0:0:0:
301,248,148102,6,0,B|342:220|400:246|400:246|484:219|475:133,1,253.5,8|0,0:0|0:0,0:0:0:0:
501,57,148477,2,0,B|453:65|411:18|411:18|323:8|296:91,1,253.5,8|0,0:0|0:0,0:0:0:0:
264,169,148852,6,0,P|238:150|220:124,1,63.3750024175645,6|0,3:0|3:0,3:0:0:0:
165,63,149039,2,0,P|145:87|138:118,1,63.3750024175645,4|0,3:0|3:0,3:0:0:0:
264,169,149227,6,0,P|236:183|214:206,1,63.3750024175645,6|0,3:0|3:0,3:0:0:0:
150,257,149414,2,0,P|134:229|132:198,1,63.3750024175645,4|0,3:0|3:0,3:0:0:0:
63,151,149602,6,0,P|66:88|90:29,1,126.750004835129,2|0,3:0|3:0,3:0:0:0:
63,151,149977,2,0,P|57:214|70:278,1,126.750004835129,2|0,3:0|3:0,3:0:0:0:
264,301,150352,6,0,B|278:313|292:340|292:340|278:313|264:259|264:259|196:240|180:177,1,253.5,8|0,0:0|0:0,0:0:0:0:
266,182,150727,2,0,B|247:237|179:257|179:257|163:311|148:337|148:337|163:311|177:299,1,253.5,8|0,0:0|0:0,0:0:0:0:
264,301,151102,6,0,B|322:292|371:342|371:342|426:331|456:332|456:332|426:331|409:324,1,253.5,8|0,0:0|0:0,0:0:0:0:
400,238,151477,2,0,B|419:241|445:256|445:256|419:241|378:202|378:202|310:219|266:181,1,253.5,8|0,0:0|0:0,0:0:0:0:
140,165,151852,6,0,P|165:146|195:139,1,63.3750024175645,6|0,3:0|3:0,3:0:0:0:
195,220,152039,2,0,P|214:244|242:258,1,63.3750024175645,4|0,3:0|3:0,3:0:0:0:
140,165,152227,6,0,P|107:164|78:175,1,63.3750024175645,6|0,3:0|3:0,3:0:0:0:
101,302,152414,2,0,P|115:273|117:242,1,63.3750024175645,4|0,3:0|3:0,3:0:0:0:
36,252,152602,6,0,B|8:212|8:212|-11:151|32:96,1,126.750004835129,2|0,3:0|3:0,3:0:0:0:
36,252,152977,2,0,B|8:292|8:292|-11:353|32:408,1,126.750004835129,2|0,3:0|3:0,3:0:0:0:
254,347,153352,6,0,B|267:326|267:326|267:261|267:261|298:223|339:217|339:217|373:190|378:151,1,253.5,8|0,0:0|0:0,0:0:0:0:
296,138,153727,2,0,B|289:177|312:213|312:213|348:232|366:278|366:278|345:340|345:340|350:363,1,253.5,8|0,0:0|0:0,0:0:0:0:
254,347,154102,6,0,B|215:339|190:303|190:303|186:263|150:229|150:229|85:226|85:226|65:213,1,253.5,8|0,0:0|0:0,0:0:0:0:
65,124,154477,2,0,B|103:109|143:126|143:126|168:158|216:168|216:168|273:136|273:136|297:137,1,253.5,8|0,0:0|0:0,0:0:0:0:
370,165,154852,6,0,P|353:192|328:210,1,63.3750024175645,6|0,3:0|3:0,3:0:0:0:
294,281,155039,2,0,P|325:290|356:284,1,63.3750024175645,4|0,3:0|3:0,3:0:0:0:
370,165,155227,6,0,P|397:182|428:187,1,63.3750024175645,6|0,3:0|3:0,3:0:0:0:
488,240,155414,2,0,P|463:259|429:268,1,63.3750024175645,4|0,3:0|3:0,3:0:0:0:
413,346,155602,6,0,P|340:364|273:361,1,126.750004835129,2|0,3:0|3:0,3:0:0:0:
232,248,155977,1,4,3:0:0:0:
232,248,156164,1,4,3:0:0:0:
149,140,156352,6,0,B|150:94|117:61|117:61|65:136|102:219,1,253.5,8|0,0:0|0:0,0:0:0:0:
148,299,156727,2,0,B|149:344|116:377|116:377|64:302|101:219,1,253.5,8|0,0:0|0:0,0:0:0:0:
149,140,157102,6,0,B|182:108|182:61|182:61|93:78|57:157,1,253.5,8|0,0:0|0:0,0:0:0:0:
57,276,157477,2,0,B|90:360|180:376|180:376|180:329|147:298,1,253.5,8|0,0:0|0:0,0:0:0:0:
177,221,157852,6,0,P|225:212|273:224,1,84.5,6|0,3:0|3:0,3:0:0:0:
413,272,158039,2,0,P|371:281|330:275,1,84.5,4|0,3:0|3:0,3:0:0:0:
258,135,158227,6,0,P|267:176|260:218,1,84.5,6|0,3:0|3:0,3:0:0:0:
328,357,158414,2,0,P|322:315|331:274,1,84.5,4|0,3:0|3:0,3:0:0:0:
136,293,158602,2,0,P|217:286|261:217,1,169,2|0,3:0|3:0,3:0:0:0:
456,197,158977,2,0,P|375:205|331:274,1,169,2|0,3:0|3:0,3:0:0:0:
258,135,159352,6,0,B|297:84|283:16|283:16|213:46|193:103,1,253.5,8|0,0:0|0:0,0:0:0:0:
127,71,159727,2,0,B|95:122|114:195|114:195|176:164|193:102,1,253.5,8|0,0:0|0:0,0:0:0:0:
258,135,160102,6,0,B|321:149|377:108|377:108|321:57|261:62,1,253.5,8|0,0:0|0:0,0:0:0:0:
127,71,160477,2,0,B|65:56|9:97|9:97|65:148|125:143,1,253.5,8|0,0:0|0:0,0:0:0:0:
193,190,160852,6,0,P|227:215|249:251,1,84.5,6|0,3:0|3:0,3:0:0:0:
57,277,161039,2,0,P|87:240|121:221,1,84.5,4|0,3:0|3:0,3:0:0:0:
330,270,161227,6,0,P|284:265|236:242,1,84.5,6|0,3:0|3:0,3:0:0:0:
8,210,161414,2,0,P|39:238|57:276,1,84.5,4|0,3:0|3:0,3:0:0:0:
169,374,161602,2,0,B|192:268|89:198,1,169,2|0,3:0|3:0,3:0:0:0:
199,97,161977,2,0,B|176:203|279:273,1,169,2|0,3:0|3:0,3:0:0:0:
399,124,162352,6,0,B|450:87|493:144|450:193|376:179|379:113|280:152,1,253.5,8|0,0:0|0:0,0:0:0:0:
328,221,162727,2,0,B|275:252|311:314|373:294|388:221|326:198|399:124,1,253.5,8|0,0:0|0:0,0:0:0:0:
353,54,163102,6,0,B|407:22|371:-39|309:-19|294:53|356:76|283:150,1,253.5,8|0,0:0|0:0,0:0:0:0:
237,80,163477,2,0,B|187:116|144:59|187:10|260:25|257:91|354:53,1,253.5,8|0,0:0|0:0,0:0:0:0:
399,124,163852,6,0,P|374:157|364:197,1,84.5,6|0,3:0|3:0,3:0:0:0:
433,337,164039,2,0,P|437:292|413:241,1,84.5,4|0,3:0|3:0,3:0:0:0:
264,293,164227,6,0,P|312:286|360:261,1,84.5,6|0,3:0|3:0,3:0:0:0:
507,246,164414,2,0,P|463:245|411:262,1,84.5,4|0,3:0|3:0,3:0:0:0:
270,174,164602,2,0,P|349:187|399:124,1,169,2|0,3:0|3:0,3:0:0:0:
433,337,164977,2,0,P|356:346|347:268,1,169,2|0,3:0|3:0,3:0:0:0:
178,71,165352,6,0,B|232:96|300:92|300:92|227:91|178:124,1,253.5,8|0,0:0|0:0,0:0:0:0:
37,109,165727,2,0,B|88:77|122:19|122:19|81:79|81:138,1,253.5,8|0,2:0|0:0,3:0:0:0:
145,192,166102,6,0,P|159:306|46:328,1,253.5,8|0,0:0|0:0,0:0:0:0:
91,257,166477,2,0,B|161:205|233:285|233:285|252:240|292:216,1,253.5,8|0,0:0|0:0,0:0:0:0:
288,57,166852,6,0,L|275:140,1,84.5,6|0,0:0|0:0,0:0:0:0:
370,202,167039,2,0,P|369:159|356:119,1,84.5,4|0,0:0|0:0,0:0:0:0:
192,4,167227,6,0,P|193:46|205:87,1,84.5,6|0,0:0|0:0,0:0:0:0:
331,273,167414,2,0,P|343:233|371:202,1,84.5,4|0,0:0|0:0,0:0:0:0:
433,101,167602,5,6,0:0:0:0:
441,92,167695,1,0,0:0:0:0:
449,83,167789,1,4,0:0:0:0:
457,74,167883,1,0,0:0:0:0:
461,118,167977,5,6,0:0:0:0:
464,154,168070,1,0,0:0:0:0:
465,190,168164,1,4,0:0:0:0:
468,226,168258,1,0,0:0:0:0:
471,270,168352,6,0,P|401:291|331:273,1,147.875,4|0,3:0|3:0,3:0:0:0:
330,273,169102,2,0,P|284:171|192:233,1,253.5,12|0,2:0|2:0,2:0:0:0:
265,242,169477,6,0,L|306:99,1,147.875,2|0,0:0|0:0,0:0:0:0:
335,25,170227,2,0,P|273:26|231:71,1,126.75,4|0,3:0|0:0,0:0:0:0:
380,128,170602,6,0,P|379:67|335:25,1,126.75,6|0,3:0|0:0,0:0:0:0:
231,71,170977,1,0,3:0:0:0:
380,128,171164,1,0,3:0:0:0:
265,242,171352,6,0,B|238:230|198:236|198:236|169:275|114:271,1,147.875,4|0,3:0|2:0,2:0:0:0:
130,192,172102,2,0,B|183:255|196:333|196:333|129:311|129:261,1,253.5,12|0,2:0|0:0,0:0:0:0:
61,230,172477,6,0,P|58:159|113:113,1,147.875,2|0,0:0|0:0,0:0:0:0:
191,94,173227,2,0,P|181:155|131:191,1,126.75,4|0,3:0|0:0,0:0:0:0:
114,113,173602,6,0,P|123:51|173:16,1,126.75,6|0,3:0|0:0,0:0:0:0:
272,88,173977,1,0,3:0:0:0:
113,113,174164,1,0,3:0:0:0:
131,271,174352,6,0,P|201:290|272:272,1,147.875,4|0,3:0|0:0,0:0:0:0:
293,174,175102,2,0,P|372:242|272:272,1,253.5,12|0,0:0|0:0,0:0:0:0:
200,218,175477,6,0,B|214:143|214:143|263:76,1,147.875,2|0,0:0|0:0,0:0:0:0:
193,43,176227,2,0,B|143:113|143:113|135:156,1,126.75,4|0,3:0|0:0,0:0:0:0:
143,328,176602,6,0,B|193:258|193:258|201:215,1,126.75,6|0,3:0|0:0,0:0:0:0:
193,43,176977,1,0,3:0:0:0:
117,229,177164,1,0,3:0:0:0:
295,175,177352,6,0,P|363:149|437:155,1,147.875,4|0,3:0|0:0,0:0:0:0:
409,225,178102,2,0,B|348:211|308:271|308:271|396:286|391:373,1,253.5,12|0,0:0|0:0,0:0:0:0:
312,350,178477,6,0,B|223:375|223:375|253:357|260:326,1,147.875,2|0,0:0|0:0,0:0:0:0:
188,311,179227,2,0,P|143:268|81:271,1,126.75,4|0,3:0|0:0,0:0:0:0:
118,336,179602,6,0,P|163:380|224:375,1,126.750004835129,6|0,3:0|0:0,0:0:0:0:
246,254,179977,1,0,3:0:0:0:
246,254,180164,1,0,3:0:0:0:
361,226,180352,6,0,P|300:220|247:254,1,126.75,2|0,0:0|0:0,0:0:0:0:
220,140,180727,2,0,P|214:202|248:255,1,126.75
133,282,181102,6,0,P|194:288|247:254,1,126.75,2|0,0:0|0:0,0:0:0:0:
326,105,181477,1,0,0:0:0:0:
248,255,181664,1,0,0:0:0:0:
98,172,181852,5,4,3:0:0:0:
87,161,182039,1,0,3:0:0:0:
182,18,182227,1,4,3:0:0:0:
193,29,182414,1,0,3:0:0:0:
264,89,182602,6,0,B|134:144|143:42|6:106,1,253.5,8|0,0:0|0:0,0:0:0:0:
87,161,182977,2,0,P|101:201|129:232,1,84.5,4|0,3:0|0:0,0:0:0:0:
340,211,183352,6,0,B|359:150|359:150|342:89,1,126.75,2|0,0:0|0:0,0:0:0:0:
340,211,183727,2,0,B|400:230|400:230|461:213,1,126.75
340,211,184102,6,0,B|320:271|320:271|337:332,1,126.75,2|0,0:0|0:0,0:0:0:0:
470,101,184477,1,0,0:0:0:0:
341,211,184664,1,0,0:0:0:0:
211,101,184852,5,4,3:0:0:0:
200,90,185039,1,0,3:0:0:0:
60,185,185227,1,4,3:0:0:0:
71,196,185414,1,0,3:0:0:0:
129,265,185602,6,0,B|184:135|82:144|146:7,1,253.5,8|0,0:0|0:0,0:0:0:0:
200,90,185977,2,0,P|229:122|242:161,1,84.5,4|0,3:0|0:0,0:0:0:0:
75,331,186352,6,0,P|137:343|197:322,1,126.75,2|0,0:0|0:0,0:0:0:0:
196,323,186727,2,0,P|256:342|317:326,1,126.75
317,327,187102,6,0,P|377:346|438:330,1,126.75,2|0,0:0|0:0,0:0:0:0:
380,167,187477,1,0,0:0:0:0:
317,327,187664,1,0,0:0:0:0:
255,167,187852,5,4,3:0:0:0:
244,156,188039,1,0,3:0:0:0:
337,16,188227,1,4,3:0:0:0:
348,27,188414,1,0,3:0:0:0:
417,85,188602,6,0,B|287:140|296:38|159:102,1,253.5,8|0,0:0|0:0,0:0:0:0:
244,156,188977,2,0,P|276:185|315:198,1,84.5,4|0,3:0|0:0,0:0:0:0:
474,148,189352,6,0,B|504:89|504:89|481:34,1,126.75,2|0,0:0|0:0,0:0:0:0:
480,263,189727,2,0,B|450:204|450:204|474:149,1,126.75
473,377,190102,6,0,B|503:318|503:318|480:263,1,126.75,2|0,0:0|0:0,0:0:0:0:
416,84,190477,1,0,0:0:0:0:
361,237,190664,1,0,0:0:0:0:
338,64,190852,6,0,B|330:126|383:159|383:159|340:151|308:175,2,190.125007252693,8|8|8,0:0|0:0|0:0,0:0:0:0:
122,54,191695,5,4,0:0:0:0:
122,54,191789,1,4,0:0:0:0:
416,84,191977,5,0,3:0:0:0:
261,111,192164,1,0,3:0:0:0:
361,237,192352,1,6,3:0:0:0:
256,192,202852,12,0,204164,0:0:0:0:
131,248,204352,6,0,B|91:271|91:271|59:267|33:282,1,105.625,2|0,3:0|0:0,0:0:0:0:
79,366,204914,2,0,L|73:340,1,21.125,4|0,0:0|0:0,0:0:0:0:
36,202,205102,1,4,0:0:0:0:
131,248,205289,1,0,0:0:0:0:
152,236,205383,1,0,0:0:0:0:
175,225,205477,1,0,0:0:0:0:
164,62,205852,6,0,P|152:145|175:225,1,169,2|0,0:0|0:0,0:0:0:0:
66,349,206414,2,0,P|134:297|179:210,1,169,2|0,0:0|0:0,0:0:0:0:
164,62,206977,6,0,B|182:55|182:55|168:72,1,42.25,8|0,0:0|0:0,0:0:0:0:
139,145,207164,2,0,B|121:138|121:138|135:155,1,42.25,8|0,0:0|0:0,0:0:0:0:
174,225,207352,2,0,P|227:227|272:252,1,105.625,2|0,3:0|0:0,0:0:0:0:
198,318,207914,2,0,L|211:280,1,21.125,4|0,0:0|0:0,0:0:0:0:
253,156,208102,1,4,0:0:0:0:
322,252,208289,1,0,0:0:0:0:
297,252,208383,1,0,0:0:0:0:
272,252,208477,1,0,0:0:0:0:
97,138,208852,6,0,P|58:151|31:183,1,84.5
120,249,209414,1,0,0:0:0:0:
120,249,209602,2,0,L|99:211,1,42.25,4|0,3:0|3:0,3:0:0:0:
97,138,209789,2,0,L|118:99,1,42.25,4|0,3:0|3:0,3:0:0:0:
76,8,209977,6,0,B|77:32|77:32|85:15,1,42.25,8|0,0:0|0:0,0:0:0:0:
162,26,210164,2,0,B|170:43|170:43|171:19,1,42.25,8|0,0:0|0:0,0:0:0:0:
251,22,210352,2,0,B|250:60|250:60|270:90|270:90|270:121,1,105.625,2|0,3:0|0:0,0:0:0:0:
179,127,210914,2,0,L|208:106,1,21.125,4|0,0:0|0:0,0:0:0:0:
325,39,211102,1,4,0:0:0:0:
270,121,211289,1,0,0:0:0:0:
270,146,211383,1,0,0:0:0:0:
270,171,211477,1,0,0:0:0:0:
281,335,211852,6,0,B|293:251|293:251|270:171,1,169,2|0,0:0|0:0,0:0:0:0:
377,45,212414,2,0,B|308:96|308:96|269:169,1,169,2|0,0:0|0:0,0:0:0:0:
281,335,212977,6,0,B|263:342|263:342|277:325,1,42.25,8|0,0:0|0:0,0:0:0:0:
307,250,213164,2,0,B|325:257|325:257|311:240,1,42.25,8|0,0:0|0:0,0:0:0:0:
268,169,213352,2,0,B|220:149|220:149|191:146|166:156,1,105.625,2|0,3:0|0:0,0:0:0:0:
194,241,213914,2,0,L|205:223,1,21.125,4|0,0:0|0:0,0:0:0:0:
282,94,214102,1,4,0:0:0:0:
168,155,214289,1,0,0:0:0:0:
151,173,214383,1,0,0:0:0:0:
134,191,214477,1,0,0:0:0:0:
256,192,214664,12,0,215977,0:0:0:0:
254,189,216352,6,0,P|216:207|175:205,1,84.5,2|0,2:0|2:0,2:0:0:0:
315,112,216914,2,0,P|271:140|254:189,1,105.625,4|0,0:0|0:0,0:0:0:0:
271,286,217477,2,0,P|278:234|253:188,1,105.625,4|0,0:0|0:0,0:0:0:0:
157,198,218039,5,0,2:0:0:0:
157,198,218227,1,0,0:0:0:0:
315,112,218602,1,0,2:0:0:0:
157,198,218977,1,0,2:0:0:0:
270,285,219352,6,0,P|307:267|349:270,1,84.5,2|0,2:0|2:0,2:0:0:0:
208,363,219914,2,0,P|251:335|270:286,1,105.625,4|0,0:0|0:0,0:0:0:0:
326,235,220477,2,0,P|240:200|271:287,1,232.375,4|0,0:0|0:0,0:0:0:0:
276,237,221602,5,0,2:0:0:0:
217,169,221789,1,0,2:0:0:0:
157,101,221977,1,0,2:0:0:0:
301,155,222164,1,0,2:0:0:0:
130,184,222352,6,0,P|104:230|110:280,1,84.5,0|0,2:0|2:0,2:0:0:0:
294,236,222914,1,0,2:0:0:0:
179,248,223102,2,0,L|232:256,1,42.25,0|0,2:0|2:0,2:0:0:0:
269,314,223477,2,0,P|291:279|295:237,1,84.5,0|0,2:0|2:0,2:0:0:0:
242,181,224039,5,0,2:0:0:0:
220,254,224227,1,0,2:0:0:0:
317,164,224414,1,0,2:0:0:0:
269,314,224602,1,0,2:0:0:0:
265,107,224977,5,0,2:0:0:0:
397,131,225352,2,0,L|389:235,1,84.5,0|0,2:0|2:0,2:0:0:0:
342,361,225914,2,0,L|350:257,1,84.5,0|0,2:0|2:0,2:0:0:0:
312,131,226477,2,0,L|304:235,1,84.5,0|0,2:0|2:0,2:0:0:0:
342,361,227039,5,0,2:0:0:0:
390,215,227227,1,0,2:0:0:0:
305,215,227414,1,0,2:0:0:0:
348,276,227602,1,0,2:0:0:0:
347,129,227789,1,0,3:0:0:0:
347,141,227883,1,0,3:0:0:0:
347,153,227977,1,0,3:0:0:0:
348,276,228164,1,0,2:0:0:0:
262,153,228352,6,0,P|231:147|199:150,1,63.3750024175645,2|0,0:0|0:0,0:0:0:0:
182,267,228727,2,0,P|213:244|237:198,1,63.3750024175645
242,77,229102,1,0,2:2:0:0:
227,224,229289,1,0,0:0:0:0:
262,153,229477,1,0,0:0:0:0:
242,301,229664,1,0,0:0:0:0:
262,153,229852,5,0,2:0:0:0:
299,82,230039,1,0,0:0:0:0:
379,81,230227,1,0,0:0:0:0:
413,153,230414,1,0,0:0:0:0:
417,321,230602,5,0,2:0:0:0:
278,242,230789,1,0,0:0:0:0:
337,183,230977,1,0,0:0:0:0:
358,263,231164,1,0,0:0:0:0:
202,335,231352,6,0,P|208:304|204:272,1,63.3750024175645,2|0,2:0|0:0,0:0:0:0:
89,349,231727,2,0,P|107:323|132:304,1,63.3750024175645,0|0,0:0|0:0,0:0:0:0:
278,242,232102,1,0,2:0:0:0:
132,304,232289,1,0,0:0:0:0:
351,272,232477,1,0,0:0:0:0:
204,272,232664,1,0,0:0:0:0:
419,311,232852,5,0,2:0:0:0:
351,272,233039,1,0,0:0:0:0:
278,242,233227,1,0,0:0:0:0:
204,272,233414,1,0,0:0:0:0:
132,304,233602,5,0,2:0:0:0:
278,242,233789,1,0,0:0:0:0:
140,225,233977,1,0,0:0:0:0:
341,193,234164,1,0,0:0:0:0:
148,146,234352,6,0,P|144:114|150:83,1,63.3750024175645,2|0,2:0|0:0,0:0:0:0:
285,116,234727,2,0,P|254:113|223:119,1,63.3750024175645
71,168,235102,1,0,2:0:0:0:
150,83,235289,1,0,0:0:0:0:
222,119,235477,1,0,0:0:0:0:
70,88,235664,1,0,0:0:0:0:
288,74,235852,5,0,2:0:0:0:
218,35,236039,1,0,0:0:0:0:
145,3,236227,1,0,0:0:0:0:
150,83,236414,1,0,0:0:0:0:
155,162,236602,5,0,2:0:0:0:
288,74,236789,1,0,0:0:0:0:
145,3,236977,1,0,0:0:0:0:
155,162,237164,1,0,0:0:0:0:
222,119,237352,6,0,L|258:170,1,63.3750024175645,2|0,2:0|0:0,0:0:0:0:
358,168,237727,2,0,L|322:220,1,63.3750024175645
194,220,238102,1,0,2:0:0:0:
307,106,238289,1,0,0:0:0:0:
322,220,238477,1,0,0:0:0:0:
258,170,238664,1,0,0:0:0:0:
370,156,238852,5,0,2:0:0:0:
322,220,239039,1,0,0:0:0:0:
258,170,239227,1,0,0:0:0:0:
194,220,239414,1,0,0:0:0:0:
227,96,239602,5,0,2:0:0:0:
381,76,239789,1,0,0:0:0:0:
322,220,239977,1,0,0:0:0:0:
307,106,240164,1,0,0:0:0:0:
131,214,240352,6,0,P|161:223|193:221,1,63.3750024175645,2|0,0:0|0:0,0:0:0:0:
214,298,240727,2,0,P|241:283|262:260,1,63.3750024175645,0|0,0:0|0:0,0:0:0:0:
331,300,241102,2,0,P|339:270|338:238,1,63.3750024175645,0|0,0:0|0:0,0:0:0:0:
416,219,241477,2,0,P|399:192|377:170,1,63.3750024175645,0|0,0:0|0:0,0:0:0:0:
192,221,241852,5,4,0:0:0:0:
262,259,242039,1,0,0:0:0:0:
337,237,242226,1,4,0:0:0:0:
376,169,242414,1,0,0:0:0:0:
168,162,242602,2,0,L|191:220,1,63.3750024175645,4|0,0:0|0:0,0:0:0:0:
376,169,242977,2,0,L|352:110,1,63.3750024175645,4|0,0:0|0:0,0:0:0:0:
129,227,243352,6,0,P|159:218|191:220,1,63.3750024175645,2|0,0:0|0:0,0:0:0:0:
212,143,243727,2,0,P|239:158|260:181,1,63.3750024175645
414,221,244102,2,0,P|397:248|374:271,1,63.3750024175645,0|0,0:0|0:0,0:0:0:0:
328,140,244477,2,0,P|337:171|335:203,1,63.3750024175645,0|0,0:0|0:0,0:0:0:0:
190,219,244852,5,4,0:0:0:0:
260,181,245039,1,0,0:0:0:0:
374,270,245226,1,4,0:0:0:0:
335,201,245414,1,0,0:0:0:0:
166,278,245602,2,0,L|189:219,1,63.3750024175645,4|0,0:0|0:0,0:0:0:0:
374,270,245977,2,0,L|350:328,1,63.3750024175645,4|0,0:0|0:0,0:0:0:0:
126,212,246352,6,0,P|156:219|188:218,1,63.3750024175645,2|0,0:0|0:0,0:0:0:0:
326,300,246727,2,0,P|334:269|334:238,1,63.3750024175645
210,297,247102,2,0,P|237:281|258:258,1,63.3750024175645,0|0,0:0|0:0,0:0:0:0:
412,219,247477,2,0,P|396:191|374:169,1,63.3750024175645,0|0,0:0|0:0,0:0:0:0:
188,218,247852,5,4,0:0:0:0:
333,237,248039,1,0,0:0:0:0:
258,257,248227,1,4,0:0:0:0:
374,169,248414,1,0,0:0:0:0:
164,159,248602,2,0,L|187:217,1,63.3750024175645,4|0,0:0|0:0,0:0:0:0:
374,169,248977,2,0,L|350:110,1,63.3750024175645,4|0,0:0|0:0,0:0:0:0:
125,224,249352,6,0,P|156:216|188:218,1,63.3750024175645,2|0,0:0|0:0,0:0:0:0:
414,221,249727,2,0,P|398:248|376:270,1,63.3750024175645
211,144,250102,2,0,P|238:159|259:182,1,63.3750024175645,0|0,0:0|0:0,0:0:0:0:
327,141,250477,2,0,P|335:171|335:202,1,63.3750024175645,0|0,0:0|0:0,0:0:0:0:
187,217,250852,5,4,0:0:0:0:
375,270,251039,1,0,0:0:0:0:
259,182,251227,1,4,0:0:0:0:
334,203,251414,1,0,0:0:0:0:
163,158,251602,2,0,L|186:216,1,63.3750024175645,4|0,0:0|0:0,0:0:0:0:
76,113,251977,5,0,0:0:0:0:
76,113,252070,2,0,L|111:97,1,31.6875012087822
121,25,252258,1,0,0:0:0:0:
121,25,252352,2,0,P|158:43|180:79,1,84.5,8|0,2:0|2:0,2:0:0:0:
239,133,252727,6,0,P|280:128|319:144,1,84.5,8|0,2:0|2:0,2:0:0:0:
338,294,253102,1,0,2:0:0:0:
351,215,253289,1,0,2:0:0:0:
259,282,253477,1,0,2:0:0:0:
413,266,253664,1,0,2:0:0:0:
350,55,253852,6,0,B|343:96|343:96|355:138,2,84.5,2|0|0,2:0|2:0|2:0,2:0:0:0:
422,91,254414,1,4,2:0:0:0:
270,114,254602,2,0,B|282:156|282:156|276:196,2,84.5,2|0|0,2:0|2:0|2:0,2:0:0:0:
422,91,255164,1,4,2:0:0:0:
189,103,255352,6,0,P|228:117|269:113,1,84.5,8|0,2:0|2:0,2:0:0:0:
76,18,255727,2,0,P|117:15|157:29,1,84.5,8|0,2:0|2:0,2:0:0:0:
269,113,256102,1,0,2:0:0:0:
219,177,256289,1,0,2:0:0:0:
189,103,256477,1,0,2:0:0:0:
238,39,256664,1,0,2:0:0:0:
348,102,256852,6,0,P|389:109|431:107,2,84.5,2|0|0,2:0|2:0|2:0,2:0:0:0:
394,35,257414,1,4,2:0:0:0:
508,138,257602,2,0,P|478:168|442:188,2,84.5,2|0|0,2:0|2:0|2:0,2:0:0:0:
394,35,258164,1,4,2:0:0:0:
374,267,258352,6,0,L|360:184,1,84.5,8|0,2:0|2:0,2:0:0:0:
130,144,258727,2,0,L|143:228,1,84.5,8|0,2:0|2:0,2:0:0:0:
352,256,259102,6,0,L|344:171,1,84.5,8|0,2:0|2:0,2:0:0:0:
147,117,259477,2,0,L|157:202,1,84.5,8|0,2:0|2:0,2:0:0:0:
332,241,259852,6,0,L|327:157,1,84.5,8|0,2:0|2:0,2:0:0:0:
168,93,260227,2,0,L|172:177,1,84.5,8|0,2:0|2:0,2:0:0:0:
314,225,260602,6,0,L|314:140,1,84.5,8|0,2:0|2:0,2:0:0:0:
190,69,260977,2,0,L|191:154,1,84.5,8|0,2:0|2:0,2:0:0:0:
314,225,261352,6,0,L|314:140,1,84.5,8|0,2:0|2:0,2:0:0:0:
190,69,261539,2,0,L|191:154,1,84.5,8|0,2:0|2:0,2:0:0:0:
332,241,261727,6,0,L|327:157,1,84.5,8|0,2:0|2:0,2:0:0:0:
168,93,261914,2,0,L|172:177,1,84.5,8|0,2:0|2:0,2:0:0:0:
352,256,262102,6,0,L|344:171,1,84.5,8|0,2:0|2:0,2:0:0:0:
147,117,262289,2,0,L|157:202,1,84.5,8|0,2:0|2:0,2:0:0:0:
374,267,262477,6,0,L|360:184,1,84.5,8|0,2:0|2:0,2:0:0:0:
130,144,262664,2,0,L|143:228,1,84.5,8|0,2:0|2:0,2:0:0:0:
250,338,262852,6,0,L|250:295,2,42.25
228,223,263414,2,0,P|260:223|290:232,2,63.3750024175645
351,277,263977,2,0,P|363:237|357:196,1,84.5
162,123,264352,6,0,B|227:65|298:117|298:117|311:179|358:197,1,253.5,8|0,0:0|0:0,0:0:0:0:
383,123,264727,2,0,B|317:65|246:117|246:117|234:180|189:198,1,253.5,8|0,0:0|0:0,0:0:0:0:
112,184,265102,1,2,3:0:0:0:
31,275,265477,6,0,L|60:244,1,42.25,4|0,0:0|0:0,0:0:0:0:
162,123,265664,2,0,P|101:106|47:140,1,126.75,2|0,3:0|0:0,0:0:0:0:
112,184,266040,6,0,L|140:215,1,42.25,4|0,0:0|0:0,0:0:0:0:
243,336,266227,2,0,P|183:354|130:323,1,126.75,2|0,3:0|0:0,0:0:0:0:
194,275,266602,5,0,3:0:0:0:
306,157,266789,1,0,0:0:0:0:
243,336,266977,1,0,3:0:0:0:
355,221,267164,1,0,0:0:0:0:
248,104,267352,6,0,B|251:61|206:30|206:30|167:57|132:54|132:54|88:34|49:40,1,253.5,8|0,0:0|0:0,0:0:0:0:
32,116,267727,2,0,B|28:158|73:189|73:189|112:162|147:165|147:165|191:185|230:179,1,253.5,8|0,0:0|0:0,0:0:0:0:
306,157,268102,1,2,3:0:0:0:
394,242,268477,5,4,0:0:0:0:
247,103,268664,2,0,P|282:82|324:80,1,84.5,2|0,3:0|0:0,0:0:0:0:
181,178,269039,1,4,0:0:0:0:
378,142,269226,2,0,P|359:104|325:80,1,84.5,2|0,3:0|0:0,0:0:0:0:
280,236,269602,5,0,3:0:0:0:
325,80,269789,1,0,0:0:0:0:
394,242,269977,1,0,3:0:0:0:
181,178,270164,1,0,0:0:0:0:
250,340,270352,6,0,B|227:335|227:335|165:356|165:356|119:338|100:302|100:302|64:279|25:286,1,253.5,8|0,0:0|0:0,0:0:0:0:
39,367,270727,2,0,B|77:363|104:329|104:329|110:288|148:257|148:257|213:257|213:257|234:244,1,253.5,8|0,0:0|0:0,0:0:0:0:
305,282,271102,1,2,3:0:0:0:
381,188,271477,6,0,L|352:219,1,42.25,4|0,0:0|0:0,0:0:0:0:
249,339,271664,2,0,P|308:360|364:335,1,126.75,2|0,3:0|0:0,0:0:0:0:
305,282,272039,6,0,L|276:251,1,42.25,4|0,0:0|0:0,0:0:0:0:
173,130,272226,2,0,P|231:109|287:134,1,126.75,2|0,3:0|0:0,0:0:0:0:
228,189,272602,5,0,3:0:0:0:
111,306,272789,1,0,0:0:0:0:
173,130,272977,1,0,3:0:0:0:
61,245,273164,1,0,0:0:0:0:
100,84,273352,6,0,B|75:126|100:174|100:174|61:244|61:244|111:306,1,253.5,8|0,0:0|0:0,0:0:0:0:
181,317,273727,2,0,B|246:272|246:272|230:193|230:193|268:155|255:107,1,253.5,8|0,0:0|0:0,0:0:0:0:
186,42,274102,1,2,3:0:0:0:
354,75,274477,5,4,0:0:0:0:
207,213,274664,2,0,P|242:234|284:236,1,84.5,2|0,3:0|0:0,0:0:0:0:
141,139,275039,1,4,0:0:0:0:
338,175,275227,2,0,P|319:213|285:237,1,84.5,2|0,3:0|0:0,0:0:0:0:
240,81,275602,5,0,3:0:0:0:
285,237,275789,1,0,0:0:0:0:
354,75,275977,1,4,3:0:0:0:
354,75,276164,1,4,0:0:0:0:
407,268,276352,6,0,B|358:268|325:228|325:228|277:199|228:224|228:224|259:236|283:236,1,253.5,8|0,0:0|0:0,0:0:0:0:
407,268,276727,2,0,B|442:234|438:182|438:182|452:129|504:112|504:112|491:142|473:159,1,253.5,8|0,0:0|0:0,0:0:0:0:
407,268,277102,1,2,3:0:0:0:
512,384,277477,1,4,0:0:0:0:
407,268,277664,1,2,3:0:0:0:
300,148,277852,1,0,0:0:0:0:
300,148,278039,2,0,L|270:177,1,42.25,4|0,0:0|0:0,0:0:0:0:
212,234,278227,2,0,P|192:197|191:156,1,84.5,2|0,3:0|0:0,0:0:0:0:
340,220,278602,5,0,3:0:0:0:
191,156,278789,1,0,0:0:0:0:
77,269,278977,1,0,3:0:0:0:
226,333,279164,1,0,0:0:0:0:
347,227,279352,6,0,B|377:313|451:378|451:378|440:340|450:312,1,253.5,8|0,0:0|0:0,0:0:0:0:
347,227,279727,2,0,B|328:137|262:63|262:63|269:103|255:129,1,253.5,8|0,0:0|0:0,0:0:0:0:
347,227,280102,1,2,3:0:0:0:
226,333,280477,5,4,0:0:0:0:
347,227,280664,2,0,L|272:296,1,84.5,2|0,3:0|0:0,0:0:0:0:
100,217,281039,1,4,0:0:0:0:
347,227,281227,2,0,L|284:169,1,84.5,2|0,3:0|0:0,0:0:0:0:
136,304,281602,1,0,3:0:0:0:
136,130,281789,1,0,0:0:0:0:
226,333,281977,1,0,3:0:0:0:
284,169,282164,1,0,0:0:0:0:
432,208,282352,6,0,B|468:182|483:156|483:156|465:97|514:58|514:58|470:57|451:85,1,253.5,8|0,0:0|0:0,0:0:0:0:
432,208,282727,2,0,B|389:196|365:177|365:177|363:115|303:95|303:95|344:80|371:99,1,253.5,8|0,0:0|0:0,0:0:0:0:
432,208,283102,1,2,3:0:0:0:
462,357,283477,5,4,0:0:0:0:
432,208,283664,1,2,3:0:0:0:
284,169,283852,1,0,0:0:0:0:
284,169,284039,2,0,L|254:198,1,42.25,4|0,0:0|0:0,0:0:0:0:
196,255,284227,2,0,P|176:218|175:177,1,84.5,2|0,3:0|0:0,0:0:0:0:
310,265,284602,5,0,3:0:0:0:
175,176,284789,1,0,0:0:0:0:
59,289,284977,1,0,3:0:0:0:
210,354,285164,1,0,0:0:0:0:
138,107,285352,6,0,B|96:129|95:178|95:178|44:229|44:229|60:290,1,221.812502115369,2|0,0:0|0:0,0:0:0:0:
112,355,285727,5,4,0:0:0:0:
132,334,285820,1,0,0:0:0:0:
161,334,285914,1,4,0:0:0:0:
181,354,286008,1,0,0:0:0:0:
210,354,286102,1,4,0:0:0:0:
230,334,286195,1,0,0:0:0:0:
230,305,286289,1,4,0:0:0:0:
209,285,286383,1,0,0:0:0:0:
188,264,286477,2,0,P|175:242|168:217,2,42.25
309,59,287039,5,0,0:0:0:0:
210,354,287227,1,0,0:0:0:0:
309,91,287602,6,0,L|309:59,1,31.6875012087822,8|0,2:0|2:0,2:0:0:0:
210,312,287789,2,0,L|210:354,1,42.25,8|0,2:0|2:0,2:0:0:0:
337,103,287977,6,0,L|308:59,1,52.8125,8|0,2:0|2:0,2:0:0:0:
175,301,288164,2,0,L|209:354,1,63.3750024175645,8|0,2:0|2:0,2:0:0:0:
385,93,288352,6,0,L|305:56,1,84.5,2|0,0:0|0:0,0:0:0:0:
281,44,288633,1,0,2:0:0:0:
256,32,288727,1,0,2:0:0:0:
462,59,288914,1,0,2:0:0:0:
423,76,289008,1,0,2:0:0:0:
385,93,289102,2,0,B|303:130|303:130|253:193|253:193|201:196|176:240,1,253.5,8|0,0:3|0:0,0:0:0:0:
250,273,289477,2,0,P|222:242|182:230,1,84.5,2|0,0:0|0:0,0:0:0:0:
256,331,289852,5,4,3:0:0:0:
253,302,289945,1,4,3:0:0:0:
250,273,290039,1,4,3:0:0:0:
185,127,290227,1,0,0:0:0:0:
116,271,290414,1,0,0:0:0:0:
250,273,290602,2,0,L|217:198,1,42.25,8|0,0:3|0:0,0:0:0:0:
185,127,290789,1,0,0:0:0:0:
116,271,290977,1,0,0:0:0:0:
249,71,291164,5,0,0:0:0:0:
259,94,291258,1,0,0:0:0:0:
267,118,291352,2,0,L|267:160,1,42.25,2|0,0:0|0:0,0:0:0:0:
214,258,291539,2,0,L|214:204,1,42.25,0|0,0:0|0:0,0:0:0:0:
160,118,291727,2,0,L|160:169,1,42.25
186,336,291914,5,0,0:0:0:0:
215,341,292008,1,0,0:0:0:0:
244,333,292102,2,0,P|271:317|293:296,1,42.25,8|0,0:3|0:0,0:0:0:0:
214,258,292289,1,0,0:0:0:0:
185,253,292383,1,0,0:0:0:0:
156,260,292477,2,0,P|121:283|103:321,1,84.5,2|0,0:0|0:0,0:0:0:0:
244,333,292852,5,0,0:0:0:0:
160,160,293039,1,4,3:0:0:0:
162,130,293133,1,0,0:0:0:0:
165,100,293227,1,4,3:0:0:0:
274,210,293414,1,0,0:0:0:0:
45,159,293602,6,0,L|107:115,1,42.25,8|0,0:3|0:0,0:0:0:0:
250,34,293789,1,0,0:0:0:0:
247,63,293883,1,0,0:0:0:0:
244,92,293977,2,0,L|241:141,1,42.25
274,210,294164,2,0,L|271:259,1,42.25,0|0,0:0|0:0,0:0:0:0:
313,324,294352,6,0,L|319:239,1,84.5,2|0,0:0|0:0,0:0:0:0:
321,211,294633,1,0,2:0:0:0:
324,182,294727,1,0,2:0:0:0:
255,384,294914,5,0,2:0:0:0:
284,354,295008,1,0,2:0:0:0:
313,324,295102,2,0,B|389:303|389:303|396:213|396:213|443:203|468:163,1,253.5,8|0,0:3|0:0,0:0:0:0:
392,132,295477,2,0,P|422:159|464:167,1,84.5,2|0,0:0|0:0,0:0:0:0:
368,80,295852,5,4,3:0:0:0:
380,106,295945,1,4,3:0:0:0:
392,132,296039,1,4,3:0:0:0:
469,269,296227,1,0,0:0:0:0:
314,231,296414,1,0,0:0:0:0:
392,132,296602,2,0,L|428:202,1,42.25,8|0,0:3|0:0,0:0:0:0:
469,269,296789,1,0,0:0:0:0:
314,231,296977,1,0,0:0:0:0:
118,226,297164,5,0,0:0:0:0:
139,247,297258,1,0,0:0:0:0:
160,268,297352,2,0,L|210:268,1,42.25,2|0,0:0|0:0,0:0:0:0:
314,231,297539,2,0,L|280:257,1,42.25,0|0,0:0|0:0,0:0:0:0:
258,369,297727,2,0,L|252:327,1,42.25,0|0,0:0|0:0,0:0:0:0:
192,155,297914,5,0,0:0:0:0:
213,176,298008,1,0,0:0:0:0:
234,197,298102,2,0,L|280:160,1,42.25,8|0,0:3|0:0,0:0:0:0:
290,85,298289,1,0,0:0:0:0:
290,56,298383,1,0,0:0:0:0:
291,27,298477,2,0,L|243:101,1,84.5,2|0,0:0|0:0,0:0:0:0:
219,276,298852,1,0,0:0:0:0:
192,155,299039,5,4,3:0:0:0:
185,183,299133,1,0,0:0:0:0:
177,211,299227,1,4,3:0:0:0:
245,98,299414,1,0,0:0:0:0:
68,149,299602,6,0,L|125:165,1,42.25,8|0,0:3|0:0,0:0:0:0:
264,201,299789,1,0,0:0:0:0:
293,201,299883,1,0,0:0:0:0:
272,180,299977,5,0,0:0:0:0:
282,278,300164,1,0,0:0:0:0:
290,376,300352,2,0,P|300:329|360:288,1,84.5,2|0,0:0|0:0,0:0:0:0:
351,291,300633,1,0,2:0:0:0:
380,288,300727,1,0,2:0:0:0:
206,376,300914,5,0,2:0:0:0:
248,376,301008,1,0,2:0:0:0:
290,376,301102,2,0,P|362:286|456:352,1,253.5,8|0,0:3|0:0,0:0:0:0:
512,295,301477,2,0,P|487:260|454:234,1,84.5,2|0,0:0|0:0,0:0:0:0:
290,376,301852,5,4,3:0:0:0:
332,369,301945,1,4,3:0:0:0:
375,366,302039,1,4,3:0:0:0:
512,295,302227,1,0,0:0:0:0:
379,210,302414,1,0,0:0:0:0:
379,210,302508,1,0,0:0:0:0:
379,210,302602,2,0,B|346:181|294:189|294:189|267:220|224:218,2,169,8|0|0,0:3|0:0|0:0,0:0:0:0:
207,47,303164,5,0,0:0:0:0:
220,74,303258,1,0,0:0:0:0:
232,101,303352,2,0,L|232:165,1,42.25,2|0,0:0|0:0,0:0:0:0:
201,253,303539,2,0,L|224:217,1,42.25,0|0,0:0|0:0,0:0:0:0:
348,113,303727,2,0,L|298:121,1,42.25,4|0,0:1|0:0,0:0:0:0:
162,173,303914,5,0,0:0:0:0:
132,176,304008,1,0,0:0:0:0:
102,180,304102,2,0,L|31:186,1,42.25,8|0,0:3|0:0,0:0:0:0:
0,75,304289,1,0,0:0:0:0:
25,92,304383,1,0,0:0:0:0:
49,109,304477,2,0,L|141:100,1,84.5,2|0,0:0|0:0,0:0:0:0:
295,134,304852,5,0,0:0:0:0:
162,173,305039,1,4,3:0:0:0:
194,173,305133,1,0,0:0:0:0:
226,173,305227,1,4,3:0:0:0:
352,79,305414,1,0,0:0:0:0:
452,134,305602,6,0,L|410:134,1,42.25,8|0,0:3|0:0,0:0:0:0:
226,173,305789,1,0,0:0:0:0:
247,194,305883,1,0,0:0:0:0:
271,218,305977,2,0,L|316:263,1,42.25,0|0,0:0|0:0,0:0:0:0:
402,304,306164,2,0,L|360:298,1,42.25,0|0,0:0|0:0,0:0:0:0:
224,280,306352,6,0,B|187:268|187:268|140:268,1,84.5,2|0,0:0|0:0,0:0:0:0:
111,268,306633,1,0,2:0:0:0:
81,268,306727,1,0,2:0:0:0:
191,353,306914,5,0,2:0:0:0:
216,320,307008,1,0,2:0:0:0:
224,280,307102,2,0,B|224:228|224:228|192:167|192:167|224:106|224:106|224:40,1,253.5,8|0,0:3|0:0,0:0:0:0:
261,0,307477,2,0,L|261:96,1,84.5,2|0,0:0|0:0,0:0:0:0:
333,195,307852,5,4,3:0:0:0:
306,181,307945,1,4,3:0:0:0:
281,167,308039,1,4,3:0:0:0:
113,167,308227,1,0,0:0:0:0:
224,42,308414,1,0,0:0:0:0:
195,230,308602,2,0,B|185:202|185:202|165:246|104:265|56:225,2,169,8|0|0,0:3|0:0|0:0,0:0:0:0:
333,195,309164,5,0,0:0:0:0:
353,174,309258,1,0,0:0:0:0:
373,153,309352,2,0,L|401:122,1,42.25,2|0,0:0|0:0,0:0:0:0:
335,40,309539,2,0,L|335:96,1,42.25,0|0,0:0|0:0,0:0:0:0:
487,188,309727,2,0,L|419:188,1,42.25,4|0,0:1|0:0,0:0:0:0:
255,195,309914,5,0,0:0:0:0:
234,174,310008,1,0,0:0:0:0:
213,153,310102,2,0,L|176:115,1,42.25,8|0,0:3|0:0,0:0:0:0:
77,64,310289,1,0,0:0:0:0:
107,63,310383,1,0,0:0:0:0:
137,61,310477,2,0,P|112:96|111:155,1,84.5,2|0,0:0|0:0,0:0:0:0:
255,195,310852,5,0,0:0:0:0:
326,87,311039,1,4,3:0:0:0:
321,115,311133,1,0,0:0:0:0:
317,144,311227,1,4,3:0:0:0:
189,240,311414,1,0,0:0:0:0:
187,102,311602,6,0,L|193:145,1,42.25,8|0,0:3|0:0,0:0:0:0:
255,195,311789,1,4,0:0:0:0:
189,240,311883,6,0,L|183:281,1,42.25,8|0,0:3|0:0,0:0:0:0:
255,318,312070,1,4,0:0:0:0:
326,281,312164,6,0,L|321:238,1,42.25,8|0,0:3|0:0,0:0:0:0:
255,195,312352,1,4,0:0:0:0:
255,195,313477,6,0,P|254:153|271:114,1,84.5
332,169,314039,1,0,0:0:0:0:
255,195,314227,1,0,0:0:0:0:
393,225,314602,1,0,0:0:0:0:
332,169,314977,1,0,0:0:0:0:
254,195,315352,2,0,P|238:233|238:275,1,84.5
314,247,315914,1,0,0:0:0:0:
161,300,316477,2,0,P|143:190|254:194,1,253.5
254,194,317977,5,0,0:0:0:0:
419,203,318352,2,0,B|331:219|331:170|251:194,1,169
190,244,319477,2,0,P|179:204|181:162,1,84.5
253,193,320039,1,0,0:0:0:0:
190,244,320227,1,0,0:0:0:0:
310,138,320602,1,0,0:0:0:0:
364,195,320977,1,0,0:0:0:0:
310,138,321352,1,0,0:0:0:0:
192,244,321914,6,0,B|148:245|148:245|111:226,1,84.5
87,152,322477,2,0,B|131:151|131:151|166:168|166:168|227:169|227:169|256:194|269:220,1,211.25
332,333,323977,5,0,0:0:0:0:
332,249,324352,2,0,P|326:296|332:334,1,84.5,0|0,0:0|0:0,0:0:0:0:
402,291,324914,2,0,P|444:297|486:292,1,84.5,0|0,0:0|0:0,0:0:0:0:
445,222,325477,2,0,P|451:180|446:139,1,84.5,0|0,0:0|0:0,0:0:0:0:
375,181,326039,1,0,0:0:0:0:
445,222,326227,1,0,0:0:0:0:
332,249,326602,1,0,0:0:0:0:
402,291,326977,1,0,0:0:0:0:
261,290,327352,6,0,P|252:250|261:209,1,84.5,0|0,0:0|0:0,0:0:0:0:
220,142,327914,2,0,P|260:133|301:143,1,84.5
155,185,328477,2,0,P|146:145|155:104,1,84.5,0|0,0:0|0:0,0:0:0:0:
302,144,329602,5,0,0:0:0:0:
374,118,329789,1,0,0:0:0:0:
247,91,329977,1,0,0:0:0:0:
319,65,330164,1,0,0:0:0:0:
427,171,330352,2,0,P|436:213|431:254,1,84.5
361,215,330914,1,0,0:0:0:0:
427,171,331102,1,0,0:0:0:0:
292,253,331477,1,0,0:0:0:0:
490,124,332039,5,0,0:0:0:0:
427,171,332227,1,0,0:0:0:0:
361,215,332414,1,0,0:0:0:0:
292,253,332602,1,0,0:0:0:0:
361,293,332977,1,0,0:0:0:0:
213,233,333352,6,0,P|215:275|235:312,1,84.5,0|0,0:0|0:0,0:0:0:0:
292,252,333914,2,0,P|289:211|269:174,1,84.5
190,155,334477,2,0,P|192:196|212:233,1,84.5,0|0,0:0|0:0,0:0:0:0:
269,174,335039,5,0,0:0:0:0:
190,155,335227,1,0,0:0:0:0:
111,174,335414,1,0,0:0:0:0:
134,95,335602,1,0,0:0:0:0:
191,35,335789,1,0,0:0:0:0:
259,44,335977,1,0,0:0:0:0:
291,84,336164,1,0,0:0:0:0:
293,107,336352,6,0,B|299:146|272:177|272:177|382:220|434:40|341:-12|233:-3|207:74|218:122|218:122|114:113|35:226|28:352|28:352|111:313|111:313|121:264|156:203|199:198|199:198|230:287|381:289|445:218|470:132|445:43|399:0,1,1521
