osu file format v14

[General]
AudioFilename: redeyedgirl.mp3
AudioLeadIn: 3000
PreviewTime: 6946
Countdown: 0
SampleSet: Soft
StackLeniency: 0.7
Mode: 0
LetterboxInBreaks: 0
WidescreenStoryboard: 0

[Editor]
Bookmarks: 212339
DistanceSpacing: 1
BeatDivisor: 8
GridSize: 8
TimelineZoom: 1.9

[Metadata]
Title:Red Eyed Girl
TitleUnicode:Red Eyed Girl
Artist:NGC 3.14
ArtistUnicode:NGC 3.14
Creator:Moe
Version:Daybreak
Source:
Tags:electronic
BeatmapID:1100102
BeatmapSetID:517787

[Difficulty]
HPDrainRate:5
CircleSize:4.3
OverallDifficulty:8.5
ApproachRate:9.4
SliderMultiplier:1.5
SliderTickRate:1

[Events]
//Background and Video events
0,0,"bg.jpg",0,0
//Break Periods
//Storyboard Layer 0 (Background)
//Storyboard Layer 1 (Fail)
//Storyboard Layer 2 (Pass)
//Storyboard Layer 3 (Foreground)
//Storyboard Sound Samples

[TimingPoints]
89,428.571428571429,4,2,0,38,1,0
517,-100,4,2,0,15,0,0
6517,-100,4,2,0,5,0,0
6946,-100,4,2,0,25,0,0
8661,-100,4,2,0,25,0,0
9089,-100,4,2,0,17,0,0
9518,-100,4,2,0,7,0,0
13804,-100,4,2,0,38,0,0
17232,-100,4,2,0,25,0,0
17661,-100,4,2,0,20,0,0
18089,-100,4,2,0,15,0,0
18518,-100,4,2,0,10,0,0
20661,-100,4,2,0,37,0,0
26661,-100,4,2,0,5,0,0
27518,-100,4,2,0,38,0,0
51518,-66.6666666666667,4,2,0,45,0,0
52375,-50,4,2,0,65,0,0
54947,-200,4,2,0,30,0,0
65232,-133.333333333333,4,2,0,38,0,0
68661,-100,4,2,0,38,0,0
96089,-100,4,2,0,15,0,0
99518,-100,4,2,0,25,0,0
102947,-100,4,2,0,45,0,0
106804,-100,4,2,0,55,0,0
107232,-100,4,2,0,65,0,0
107661,-100,4,2,0,75,0,0
108089,-100,4,2,0,37,0,0
109803,-200,4,2,1,65,0,1
110660,-50,4,2,1,65,0,1
111517,-100,4,2,1,65,0,1
112589,-50,4,2,1,65,0,1
113232,-200,4,2,1,65,0,1
114089,-100,4,2,1,65,0,1
114518,-50,4,2,1,65,0,1
116018,-50,4,2,1,5,0,1
116232,-50,4,2,1,65,0,1
116447,-50,4,2,1,5,0,1
116661,-80,4,2,1,65,0,1
117517,-50,4,2,1,65,0,1
118374,-133.333333333333,4,2,1,65,0,1
119232,-66.6666666666667,4,2,1,65,0,1
120947,-50,4,2,1,65,0,1
121804,-100,4,2,1,15,0,1
123518,-100,4,2,1,65,0,1
125232,-50,4,2,1,65,0,1
126089,-133.333333333333,4,2,1,65,0,1
128661,-133.333333333333,4,2,1,65,0,1
129518,-66.6666666666667,4,2,1,65,0,1
134232,-66.6666666666667,4,2,1,45,0,1
134661,-66.6666666666667,4,2,1,35,0,1
135089,-66.6666666666667,4,2,1,20,0,1
135517,-133.333333333333,4,2,0,15,0,0
137232,-133.333333333333,4,2,1,65,0,0
149231,-1000,4,2,1,65,0,0
150947,-66.6666666666667,4,2,1,55,0,0
151804,-66.6666666666667,4,2,1,15,0,0
152661,-100,4,2,1,45,0,0
153518,-100,4,2,1,15,0,0
154375,-133.333333333333,4,2,1,35,0,0
155232,-133.333333333333,4,2,1,15,0,0
156089,-200,4,2,1,25,0,0
156947,-200,4,2,1,15,0,0
159518,-133.333333333333,4,2,1,35,0,0
160375,-133.333333333333,4,2,1,15,0,0
161232,-100,4,2,1,45,0,0
162089,-100,4,2,1,15,0,0
164660,-100,4,2,1,45,0,0
165304,-100,4,2,1,25,0,0
168089,-100,4,2,1,35,0,0
168304,-100,4,2,1,10,0,0
168732,-100,4,2,1,35,0,0
168947,-100,4,2,1,10,0,0
169375,-100,4,2,1,25,0,0
169589,-100,4,2,1,6,0,0
171089,-100,4,2,1,35,0,0
171732,-100,4,2,1,10,0,0
172161,-100,4,2,1,35,0,0
172375,-100,4,2,1,10,0,0
172804,-100,4,2,1,35,0,0
173018,-100,4,2,1,10,0,0
174947,-100,4,2,1,35,0,0
175161,-100,4,2,1,10,0,0
175589,-100,4,2,1,35,0,0
175804,-100,4,2,1,10,0,0
177947,-100,4,2,1,35,0,0
178589,-100,4,2,1,10,0,0
179018,-100,4,2,1,35,0,0
179232,-100,4,2,1,10,0,0
181375,-100,4,2,1,35,0,0
182018,-100,4,2,1,10,0,0
182447,-100,4,2,1,35,0,0
182661,-100,4,2,1,10,0,0
184804,-100,4,2,1,35,0,0
185447,-100,4,2,1,10,0,0
185875,-100,4,2,1,35,0,0
186089,-100,4,2,1,10,0,0
188661,-100,4,2,1,35,0,0
189089,-100,4,2,1,10,0,0
189518,-100,4,2,1,35,0,0
189947,-100,4,2,1,10,0,0
192089,375,4,2,1,35,1,0
192089,-80,4,2,1,35,0,0
204089,-57.1428571428571,4,2,1,65,0,0
225089,-100000.666666667,4,2,1,65,0,0
226589,-100000.666666667,4,2,1,15,0,0
228089,-50,4,2,1,65,0,1
229964,-100,4,2,1,65,0,0
230339,-50,4,2,1,65,0,0
231089,-200,4,2,1,65,0,1
232714,-66.6666666666667,4,2,1,65,0,1
233339,-50,4,2,1,65,0,1
236714,-200,4,2,1,65,0,1
237214,-100,4,2,1,65,0,1
239339,-200,4,2,1,65,0,1
239714,-50,4,2,1,65,0,1
240839,-50,4,2,1,15,0,1
240932,-50,4,2,1,65,0,1
241120,-50,4,2,1,15,0,1
241214,-50,4,2,1,65,0,1
241589,-66.6666666666667,4,2,1,65,0,1
242151,-50,4,2,1,65,0,1
243089,-133.333333333333,4,2,1,65,0,1
243651,-50,4,2,1,65,0,1
246089,-66.6666666666667,4,2,1,65,0,1
252089,-100,4,2,1,35,0,1
258214,-50,4,2,1,35,0,0
260339,-100,4,2,1,35,0,0
264089,-200,4,2,1,65,0,1
273089,125,4,2,1,65,1,1
273089,-200,4,2,1,65,0,1
273464,-100,4,2,1,65,0,1
273839,-66.6666666666667,4,2,1,65,0,1
274214,-50,4,2,1,65,0,1
276089,428.571428571429,4,2,0,35,1,0
279946,-100,4,2,0,15,0,0
282946,-100,4,2,0,35,0,0
286803,-100,4,2,0,15,0,0
288089,-100,4,2,0,10,0,0
289374,-100,4,2,0,5,0,0
289803,-100,4,2,0,25,0,0

[Colours]
Combo1 : 34,232,123
Combo2 : 249,176,6
Combo3 : 159,199,3
Combo4 : 240,32,105

[HitObjects]
50,287,89,6,0,P|105:285|187:194,1,150
191,147,946,1,0,0:0:0:0:
179,67,1374,1,0,0:0:0:0:
256,192,2231,12,0,6517,0:0:0:0:
84,136,6946,5,0,0:0:0:0:
144,72,7375,1,0,0:0:0:0:
184,152,7804,1,0,0:0:0:0:
149,231,8232,2,0,P|238:220|267:155,3,150,0|0|0|0,0:0|0:0|0:3|0:3,0:3:0:0:
256,192,9947,12,4,13374,0:0:0:0:
171,16,13803,5,0,0:0:0:0:
59,87,14232,1,0,0:0:0:0:
171,127,14661,1,0,0:0:0:0:
281,88,15089,1,0,0:0:0:0:
411,244,15518,6,0,L|306:223,1,75
146,248,15947,2,0,L|251:227,1,75
351,349,16374,2,0,P|301:324|270:321,1,75
147,330,16804,1,0,0:0:0:0:
351,349,17232,5,0,0:0:0:0:
358,349,17660,1,0,0:0:0:0:
365,349,18089,1,0,0:0:0:0:
372,349,18518,1,0,0:0:0:0:
256,192,18947,12,0,20231,0:0:0:0:
224,233,20660,5,0,0:0:0:0:
86,302,21089,1,0,0:0:0:0:
209,270,21518,1,0,0:0:0:0:
55,294,21947,1,0,0:0:0:0:
197,171,22375,5,0,0:0:0:0:
206,245,22589,1,0,0:0:0:0:
320,136,22804,1,0,0:0:0:0:
305,209,23018,1,0,0:0:0:0:
439,328,23232,2,0,L|333:303,1,75
73,328,23661,1,0,0:0:0:0:
256,192,24089,12,0,27089,0:0:0:0:
16,337,27517,5,0,0:0:0:0:
38,325,27625,1,0,0:0:0:0:
61,316,27732,1,0,0:0:0:0:
85,308,27839,1,0,0:0:0:0:
109,301,27947,1,0,0:0:0:0:
133,297,28054,1,0,0:0:0:0:
158,293,28161,1,0,0:0:0:0:
183,292,28267,5,0,0:0:0:0:
208,292,28374,1,0,0:0:0:0:
233,293,28481,1,0,0:0:0:0:
258,297,28590,1,0,0:0:0:0:
282,302,28697,1,0,0:0:0:0:
306,308,28804,1,0,0:0:0:0:
330,316,28911,1,0,0:0:0:0:
353,326,29017,1,0,0:0:0:0:
375,337,29124,1,0,0:0:0:0:
386,360,29232,5,0,0:0:0:0:
375,337,29339,1,0,0:0:0:0:
367,313,29446,1,0,0:0:0:0:
361,289,29553,1,0,0:0:0:0:
357,264,29660,1,0,0:0:0:0:
357,239,29767,1,0,0:0:0:0:
358,214,29874,1,0,0:0:0:0:
363,190,29982,1,0,0:0:0:0:
370,166,30089,5,0,0:0:0:0:
379,143,30196,1,0,0:0:0:0:
391,120,30303,1,0,0:0:0:0:
404,100,30410,1,0,0:0:0:0:
420,80,30517,1,0,0:0:0:0:
438,63,30624,1,0,0:0:0:0:
457,47,30731,1,0,0:0:0:0:
479,30,30838,1,0,0:0:0:0:
457,48,30946,5,0,0:0:0:0:
441,60,31053,1,0,0:0:0:0:
425,71,31160,1,0,0:0:0:0:
407,82,31267,1,0,0:0:0:0:
389,90,31374,1,0,0:0:0:0:
371,98,31481,1,0,0:0:0:0:
352,104,31588,1,0,0:0:0:0:
332,109,31696,1,0,0:0:0:0:
313,112,31803,5,0,0:0:0:0:
293,113,31910,1,0,0:0:0:0:
273,113,32017,1,0,0:0:0:0:
253,112,32124,1,0,0:0:0:0:
233,109,32231,1,0,0:0:0:0:
213,105,32338,1,0,0:0:0:0:
194,99,32446,1,0,0:0:0:0:
176,92,32553,1,0,0:0:0:0:
145,73,32660,5,0,0:0:0:0:
176,92,32767,1,0,0:0:0:0:
203,118,32874,1,0,0:0:0:0:
222,150,32981,1,0,0:0:0:0:
250,185,33089,5,8,0:0:0:0:
212,183,33196,1,0,0:0:0:0:
175,189,33303,1,0,0:0:0:0:
140,202,33410,1,0,0:0:0:0:
101,219,33517,5,0,0:0:0:0:
132,238,33624,1,0,0:0:0:0:
159,264,33731,1,0,0:0:0:0:
178,296,33838,1,0,0:0:0:0:
206,331,33946,5,8,0:0:0:0:
168,329,34053,1,0,0:0:0:0:
131,335,34160,1,0,0:0:0:0:
96,348,34267,1,0,0:0:0:0:
65,328,34374,5,0,0:0:0:0:
96,348,34481,1,0,0:0:0:0:
131,360,34589,2,0,P|154:366|181:354,1,37.5
277,237,34804,5,8,0:0:0:0:
279,200,34911,1,0,0:0:0:0:
271,163,35017,2,0,P|261:141|247:126,1,37.5
67,163,35231,5,0,0:0:0:0:
98,183,35338,1,0,0:0:0:0:
133,195,35446,2,0,P|156:201|183:189,1,37.5
190,28,35660,5,8,0:0:0:0:
167,56,35768,1,0,0:0:0:0:
152,91,35875,2,0,P|145:116|154:140,1,37.5
170,199,36089,5,0,0:0:0:0:
157,177,36196,1,0,0:0:0:0:
149,153,36303,1,0,0:0:0:0:
148,128,36410,1,0,0:0:0:0:
152,104,36517,1,8,0:0:0:0:
162,81,36624,1,0,0:0:0:0:
177,61,36731,1,0,0:0:0:0:
196,46,36838,1,0,0:0:0:0:
219,35,36946,5,0,0:0:0:0:
243,30,37053,1,0,0:0:0:0:
268,31,37160,1,0,0:0:0:0:
292,38,37267,1,0,0:0:0:0:
314,50,37374,1,8,0:0:0:0:
332,67,37481,1,0,0:0:0:0:
344,88,37589,2,0,P|352:107|357:128,1,37.5
376,216,37804,6,0,L|415:209,1,37.5
460,286,38017,2,0,L|424:293,1,37.5
248,241,38231,2,0,L|287:234,1,37.5,8|0,0:0|0:0,0:0:0:0:
332,311,38446,2,0,L|295:317,1,37.5
186,341,38660,6,0,P|172:294|174:274,1,37.5
80,255,38874,2,0,P|94:208|92:188,1,37.5
178,183,39089,2,0,P|164:136|166:116,1,37.5,8|0,0:0|0:0,0:0:0:0:
72,97,39303,2,0,P|86:50|84:30,1,37.5
188,34,39518,5,0,0:0:0:0:
192,52,39625,1,0,0:0:0:0:
198,71,39732,1,0,0:0:0:0:
204,90,39839,1,0,0:0:0:0:
209,110,39946,1,8,0:0:0:0:
216,129,40053,1,0,0:0:0:0:
221,148,40160,1,0,0:0:0:0:
227,167,40267,1,0,0:0:0:0:
232,187,40375,1,0,0:0:0:0:
239,206,40482,1,0,0:0:0:0:
244,225,40589,1,0,0:0:0:0:
250,244,40696,1,0,0:0:0:0:
255,263,40803,1,8,0:0:0:0:
262,282,40910,1,0,0:0:0:0:
267,302,41017,1,0,0:0:0:0:
273,321,41125,1,0,0:0:0:0:
282,357,41232,6,0,B|159:350|159:350|195:311,1,150,4|0,0:0|0:0,0:0:0:0:
360,217,42089,2,0,B|379:198|379:198|256:191,1,150,8|0,0:0|0:0,0:0:0:0:
451,250,42947,6,0,B|475:222|475:222|450:112,1,150
354,51,43589,1,0,0:0:0:0:
268,94,43804,2,0,L|118:86,1,150,8|0,0:0|0:0,0:0:0:0:
32,165,44447,1,8,0:0:0:0:
55,181,44661,6,0,L|204:188,1,150
169,335,45303,1,0,0:0:0:0:
169,335,45518,2,0,P|127:288|192:302,1,150,8|0,0:0|0:0,0:0:0:0:
457,321,46375,6,0,B|385:299|316:346|316:346|243:310|158:338,1,300,0|8,0:0|0:0,0:0:0:0:
291,171,47661,5,0,0:0:0:0:
249,290,47875,1,8,0:0:0:0:
360,281,48089,5,0,0:0:0:0:
361,267,48518,1,0,0:0:0:0:
480,240,48946,5,0,0:0:0:0:
481,226,49375,1,0,0:0:0:0:
447,59,49804,6,0,L|439:158,1,75
351,73,50232,2,8,L|372:160,1,75,8|0,0:0|0:0,0:0:0:0:
230,144,50661,2,0,L|299:179,2,75,8|0|0,0:0|0:0|0:0,0:0:0:0:
432,240,51304,1,0,0:0:0:0:
432,240,51518,6,0,P|393:276|446:256,1,112.500004291535,0|8,0:0|0:0,0:0:0:0:
326,191,51947,2,0,P|300:268|311:346,1,112.500004291535,0|8,0:0|0:0,0:0:0:0:
196,154,52375,6,0,P|218:318|228:347,1,150,8|0,0:0|0:0,0:0:0:0:
65,67,52804,1,0,0:0:0:0:
89,330,53018,1,8,0:0:0:0:
89,54,53232,5,0,0:0:0:0:
65,317,53446,1,0,0:0:0:0:
253,273,53661,1,8,0:0:0:0:
33,207,53875,5,0,0:0:0:0:
44,224,53982,1,8,0:0:0:0:
214,126,54197,5,0,0:0:0:0:
220,147,54304,1,0,0:0:0:0:
379,270,54517,1,2,0:0:0:0:
395,196,54624,1,2,0:0:0:0:
412,123,54731,1,2,0:0:0:0:
429,50,54838,1,2,0:0:0:0:
334,41,54947,6,0,L|313:131,1,75
292,48,56232,1,0,0:0:0:0:
292,48,56661,1,0,0:0:0:0:
232,100,57089,2,0,P|196:116|192:116,2,37.5
140,36,57947,1,0,0:0:0:0:
96,120,58375,6,0,P|88:200|104:272,1,150
140,344,59661,1,0,0:0:0:0:
248,332,60089,1,0,0:0:0:0:
140,344,60518,1,0,0:0:0:0:
184,268,60947,1,0,0:0:0:0:
368,320,61375,2,0,L|323:328,1,37.5
445,309,61804,5,0,0:0:0:0:
385,204,62232,2,0,L|340:212,1,37.5
462,193,62661,1,0,0:0:0:0:
383,64,63089,1,0,0:0:0:0:
234,84,63518,5,0,0:0:0:0:
358,24,63947,1,0,0:0:0:0:
358,24,64161,1,0,0:0:0:0:
358,24,64375,1,0,0:0:0:0:
147,91,64804,1,0,0:0:0:0:
407,196,65232,6,0,B|238:119|166:229|100:223|25:147|51:67,1,450.000017166138
55,56,67804,1,0,0:0:0:0:
147,52,68661,6,0,P|109:133|50:156,1,150
138,161,69232,1,0,0:0:0:0:
225,191,69375,1,0,0:0:0:0:
289,257,69518,1,8,0:0:0:0:
96,352,69947,5,0,0:0:0:0:
134,334,70160,1,0,0:0:0:0:
176,333,70374,1,0,0:0:0:0:
402,359,70804,1,0,0:0:0:0:
408,284,70946,1,0,0:0:0:0:
415,209,71089,1,0,0:0:0:0:
422,125,71232,2,0,P|411:76|423:125,1,150,8|0,0:0|0:0,0:0:0:0:
307,30,72089,6,0,P|293:109|329:194,1,150
409,184,72661,1,0,0:0:0:0:
314,173,72804,1,0,0:0:0:0:
231,220,72947,2,0,P|173:254|55:260,1,150,8|0,0:0|0:0,0:0:0:0:
113,94,73804,5,0,0:0:0:0:
133,286,74232,1,0,0:0:0:0:
181,235,74375,1,0,0:0:0:0:
245,207,74518,1,0,0:0:0:0:
325,216,74661,2,0,P|257:240|173:232,1,150,8|0,0:0|0:0,0:0:0:0:
356,135,75518,6,0,P|404:189|397:262,1,150
318,335,76089,1,0,0:0:0:0:
316,231,76232,1,0,0:0:0:0:
356,135,76375,2,0,B|313:119|313:119|252:141|252:141|231:186,1,150,8|0,0:0|0:0,0:0:0:0:
451,76,77232,6,0,B|299:16,1,150
273,99,77804,1,0,0:0:0:0:
180,86,77947,1,0,0:0:0:0:
99,133,78089,1,8,0:0:0:0:
218,290,78518,1,0,0:0:0:0:
432,335,78947,6,0,B|414:268|414:268|457:192|457:192|390:119|332:192,1,300,0|8,0:0|0:0,0:0:0:0:
39,313,80661,6,0,B|153:266|192:363|256:324|256:324|226:216,1,300,0|8,0:0|0:0,0:0:0:0:
105,35,82375,5,0,0:0:0:0:
51,276,82804,1,0,0:0:0:0:
60,262,82946,1,0,0:0:0:0:
72,250,83089,1,0,0:0:0:0:
86,242,83232,1,8,0:0:0:0:
302,326,83661,5,0,0:0:0:0:
413,184,83875,1,0,0:0:0:0:
149,212,84089,1,0,0:0:0:0:
368,347,84517,1,0,0:0:0:0:
323,274,84660,1,0,0:0:0:0:
396,230,84803,1,0,0:0:0:0:
440,303,84946,1,0,0:0:0:0:
447,297,85375,1,0,0:0:0:0:
433,210,85804,5,0,0:0:0:0:
460,15,86232,5,0,0:0:0:0:
449,79,86374,1,0,0:0:0:0:
441,146,86517,1,0,0:0:0:0:
433,210,86660,1,8,0:0:0:0:
321,90,87089,1,0,0:0:0:0:
95,157,87518,6,0,L|277:171,1,150
322,151,88089,1,0,0:0:0:0:
340,229,88232,1,0,0:0:0:0:
262,246,88375,1,8,0:0:0:0:
244,34,88804,1,0,0:0:0:0:
423,227,89232,6,0,L|241:213,1,150
193,211,89803,1,0,0:0:0:0:
111,204,89946,1,0,0:0:0:0:
30,198,90089,1,8,0:0:0:0:
193,211,90518,1,0,0:0:0:0:
41,340,90947,6,0,P|113:303|213:297,1,150
263,301,91518,1,0,0:0:0:0:
340,331,91661,1,0,0:0:0:0:
423,326,91804,1,8,0:0:0:0:
364,160,92232,1,0,0:0:0:0:
353,162,92660,1,0,0:0:0:0:
256,192,93517,12,0,95231,0:0:0:0:
256,192,96089,5,4,0:0:0:0:
184,89,96518,1,0,0:0:0:0:
184,49,96661,1,0,0:0:0:0:
219,69,96804,1,0,0:0:0:0:
184,89,96947,1,0,0:0:0:0:
182,333,97375,5,0,0:0:0:0:
182,258,97590,1,0,0:0:0:0:
117,296,97804,1,0,0:0:0:0:
350,289,98232,5,0,0:0:0:0:
385,309,98375,1,0,0:0:0:0:
350,329,98518,1,0,0:0:0:0:
350,288,98661,1,0,0:0:0:0:
362,309,99089,1,0,0:0:0:0:
341,33,99518,5,0,0:0:0:0:
380,174,99947,5,0,0:0:0:0:
457,197,100090,1,0,0:0:0:0:
398,252,100231,1,0,0:0:0:0:
380,174,100374,1,0,0:0:0:0:
35,267,100804,5,0,0:0:0:0:
148,168,101017,1,0,0:0:0:0:
177,316,101231,1,0,0:0:0:0:
121,56,101661,5,0,0:0:0:0:
197,76,101804,1,0,0:0:0:0:
139,131,101947,1,0,0:0:0:0:
121,56,102090,1,0,0:0:0:0:
373,131,102518,1,0,0:0:0:0:
139,131,102947,5,4,0:0:0:0:
391,56,103375,5,0,0:0:0:0:
373,131,103518,1,0,0:0:0:0:
315,76,103661,1,0,0:0:0:0:
391,56,103804,1,4,0:0:0:0:
62,282,104232,5,0,0:0:0:0:
256,328,104447,1,0,0:0:0:0:
450,282,104661,1,4,0:0:0:0:
376,200,105089,5,0,0:0:0:0:
256,112,105232,1,0,0:0:0:0:
136,200,105375,1,0,0:0:0:0:
256,232,105518,1,4,0:0:0:0:
28,144,105947,6,0,L|128:128,1,75
444,72,106375,1,4,0:0:0:0:
436,208,106589,1,0,0:0:0:0:
298,46,106804,1,4,0:0:0:0:
328,228,107018,1,0,0:0:0:0:
146,28,107232,1,4,0:0:0:0:
176,252,107447,1,0,0:0:0:0:
28,13,107661,1,4,0:0:0:0:
23,291,107875,1,0,0:0:0:0:
176,252,108089,6,0,L|167:309,1,37.5
252,265,108304,2,0,L|235:310,1,37.5
344,291,108518,2,0,L|308:341,1,37.5
438,329,108731,2,0,L|398:359,1,37.5
441,230,108947,2,0,L|411:252,1,37.5
444,132,109161,2,0,L|404:162,1,37.5
447,33,109375,2,0,L|417:55,1,37.5
332,92,109589,1,0,0:0:0:0:
239,82,109697,1,0,0:0:0:0:
155,120,109804,6,0,B|192:190,1,75,4|0,0:0|0:0,0:0:0:0:
112,350,110660,6,0,B|74:358|39:310|55:248|114:242|114:242|142:282|199:297|232:276,1,300,8|0,0:0|0:0,0:0:0:0:
308,358,111518,6,0,P|363:352|407:317,1,112.5,4|0,0:0|0:0,0:0:0:0:
468,262,111947,2,0,P|430:237|391:234,1,75
304,232,112268,1,0,0:0:0:0:
310,144,112375,1,8,0:0:0:0:
316,56,112482,1,0,0:0:0:0:
252,13,112589,2,0,L|286:181,1,150
86,296,113232,6,0,L|95:221,1,75,4|0,0:0|0:0,0:0:0:0:
105,64,114089,5,8,0:0:0:0:
166,106,114196,1,0,0:0:0:0:
228,149,114303,1,0,0:0:0:0:
382,254,114518,2,0,L|202:289,1,150
373,104,114947,6,0,B|476:85|476:85,1,75,4|0,0:0|0:0,0:0:0:0:
337,178,115161,2,0,P|286:99|319:43,1,150,0|0,0:0|0:0,0:0:0:0:
216,4,115482,1,0,0:0:0:0:
182,109,115589,1,4,0:0:0:0:
221,213,115696,1,0,0:0:0:0:
170,318,115804,2,0,L|-2:278,1,150,8|0,0:0|0:0,0:0:0:0:
404,369,116232,2,0,L|232:329,1,150
456,194,116661,6,0,B|499:151|511:118|495:77|449:55|399:61|382:98|377:153|377:153|333:134|281:165,1,328.125,4|0,0:0|0:0,0:0:0:0:
223,161,117517,6,0,P|140:105|231:65,1,225,8|0,0:0|0:0,0:0:0:0:
216,86,117946,2,0,L|223:161,1,75
345,312,118160,2,0,L|338:237,1,75
129,277,118374,6,4,L|68:284,1,56.2500021457673,4|0,0:0|0:0,0:0:0:0:
37,162,118696,2,0,L|93:156,1,56.2500021457673,4|0,0:0|0:0,0:0:0:0:
162,356,119017,2,0,L|101:363,1,56.2500021457673,4|8,0:0|0:0,0:0:0:0:
169,103,119447,1,0,0:0:0:0:
381,353,119661,1,0,0:0:0:0:
393,26,119875,1,0,0:0:0:0:
483,199,120089,5,0,0:0:0:0:
441,180,120196,5,0,0:0:0:0:
364,168,120303,5,0,0:0:0:0:
288,188,120410,5,0,0:0:0:0:
223,243,120517,5,0,0:0:0:0:
175,313,120625,5,0,0:0:0:0:
95,345,120732,5,0,0:0:0:0:
16,306,120839,5,0,0:0:0:0:
86,205,120947,6,0,P|126:331|14:304,1,300,8|0,0:0|0:0,0:0:0:0:
43,62,121804,6,0,B|24:125|24:125|68:93|128:117,1,150
469,62,122660,6,0,B|488:125|488:125|444:93|384:117,1,150
68,288,123518,5,4,0:0:0:0:
328,312,123660,2,0,L|236:303,1,50
392,112,123946,2,0,L|401:178,1,50
422,321,124231,5,0,0:0:0:0:
432,122,124375,5,8,0:0:0:0:
449,98,124518,1,0,0:0:0:0:
465,76,124661,1,0,0:0:0:0:
269,27,124804,5,0,0:0:0:0:
283,131,124947,1,0,0:0:0:0:
295,234,125089,1,0,0:0:0:0:
309,346,125232,2,0,L|101:315,1,150,4|0,0:0|0:0,0:0:0:0:
25,190,125661,2,0,L|173:212,1,150,0|4,0:0|0:0,0:0:0:0:
373,241,126089,6,0,P|366:182|327:145,1,112.500004291535,8|0,0:0|0:0,0:0:0:0:
226,90,126625,5,0,0:0:0:0:
232,117,126732,1,0,0:0:0:0:
239,144,126839,1,0,0:0:0:0:
245,172,126947,6,0,L|261:241,1,37.5000014305115,4|0,0:0|0:0,0:0:0:0:
273,278,127232,1,0,0:0:0:0:
134,344,127375,6,0,L|120:287,1,37.5000014305115
105,238,127661,1,0,0:0:0:0:
35,140,127803,5,10,0:0:0:0:
125,118,127947,1,0,0:3:0:0:
56,48,128089,1,0,0:3:0:0:
105,238,128232,5,0,0:0:0:0:
263,272,128375,1,0,0:0:0:0:
419,226,128518,1,0,0:0:0:0:
419,226,128661,2,0,P|449:147|395:164,1,168.750006437302,4|4,0:0|0:0,0:0:0:0:
365,287,129518,2,0,P|302:200|344:101,1,225.000008583069,8|8,0:0|0:0,0:0:0:0:
412,45,130161,1,8,0:0:0:0:
180,93,130375,5,4,0:0:0:0:
271,187,130518,1,0,0:0:0:0:
365,287,130661,1,0,0:0:0:0:
162,301,130804,5,0,0:0:0:0:
50,309,130947,1,0,0:0:0:0:
99,239,131089,1,0,0:0:0:0:
292,254,131232,5,8,0:0:0:0:
286,290,131375,1,0,0:0:0:0:
299,326,131517,1,0,0:0:0:0:
475,350,131661,5,0,0:0:0:0:
481,275,131803,1,0,0:0:0:0:
462,203,131946,1,0,0:0:0:0:
428,137,132089,2,0,P|380:159|306:164,1,112.500004291535,4|0,0:0|0:0,0:0:0:0:
33,113,132518,2,0,P|84:90|140:84,1,112.500004291535,0|4,0:0|0:0,0:0:0:0:
198,24,132947,6,0,B|226:44|236:77|230:116|214:140|187:158|187:158|181:229,1,225.000008583069,8|0,0:0|0:0,0:0:0:0:
169,308,133482,1,0,0:0:0:0:
154,295,133589,1,0,0:0:0:0:
140,283,133696,1,0,0:0:0:0:
126,270,133803,5,4,0:0:0:0:
43,165,133947,1,0,0:0:0:0:
35,33,134089,1,0,0:0:0:0:
326,104,134231,5,4,0:0:0:0:
216,113,134373,1,0,0:0:0:0:
130,183,134517,1,0,0:0:0:0:
53,126,134661,5,4,0:0:0:0:
120,216,134804,1,0,0:0:0:0:
89,323,134947,1,0,0:0:0:0:
185,333,135089,5,4,0:0:0:0:
185,333,135232,1,0,0:0:0:0:
185,333,135375,1,0,0:0:0:0:
185,333,135517,2,0,L|322:349,1,112.500004291535
443,361,136375,2,0,P|406:320|400:266,1,112.500004291535
420,148,137232,6,0,P|332:156|308:196,1,112.500004291535,4|0,0:0|0:0,0:0:0:0:
158,221,138089,1,8,0:0:0:0:
205,243,138304,1,4,0:0:0:0:
256,244,138518,1,0,0:0:0:0:
386,55,138947,6,0,L|271:87,1,112.500004291535,4|0,0:0|0:0,0:0:0:0:
147,311,139804,2,0,L|255:280,1,112.500004291535,8|0,0:0|0:0,0:0:0:0:
482,222,140661,5,4,0:0:0:0:
457,346,141089,1,0,0:0:0:0:
55,346,141518,1,8,0:0:0:0:
30,222,141946,1,0,0:0:0:0:
146,62,142375,6,0,L|222:62,1,56.2500021457673,4|0,0:0|0:0,0:0:0:0:
349,115,142803,6,0,L|292:115,1,56.2500021457673
183,201,143231,2,0,B|280:201|280:201|258:217,1,112.500004291535,8|0,0:0|0:0,0:0:0:0:
429,258,144089,6,0,B|441:305|441:305|461:260|459:192,1,112.500004291535,4|0,0:0|0:0,0:0:0:0:
429,126,144947,2,0,B|441:79|441:79|461:124|459:192,1,112.500004291535,8|0,0:0|0:0,0:0:0:0:
316,192,145804,2,0,L|184:192,1,112.500004291535,4|0,0:0|0:0,0:0:0:0:
256,68,146661,1,8,0:0:0:0:
256,316,147089,1,0,0:0:0:0:
132,336,147518,6,0,P|104:328|32:336,1,56.2500021457673,4|0,0:0|0:0,0:0:0:0:
155,220,147947,2,0,P|127:212|55:220,1,56.2500021457673,8|0,0:0|0:0,0:0:0:0:
256,216,148375,1,8,0:0:0:0:
218,103,148589,1,8,0:0:0:0:
461,209,148803,1,8,0:0:0:0:
494,163,148910,1,8,0:0:0:0:
461,117,149017,1,8,0:0:0:0:
407,135,149124,1,8,0:0:0:0:
407,191,149231,6,0,L|377:193,1,30
32,48,150947,6,0,L|492:48,1,450.000017166138,4|0,0:0|0:0,0:0:0:0:
484,164,152661,6,0,L|168:164,1,300
186,256,154375,6,0,L|426:256,1,225.000008583069,4|0,0:0|0:0,0:0:0:0:
416,348,156089,6,0,L|252:348,1,150
140,345,157804,6,0,P|106:301|157:331,1,150
140,345,159518,6,0,P|76:283|172:263,1,225.000008583069
24,187,161232,6,0,P|144:140|272:256,1,300
384,69,162947,6,0,P|366:244|276:349,1,300
293,88,164231,1,0,0:0:0:0:
56,152,164660,5,4,0:0:0:0:
56,152,165304,2,0,B|52:120|52:120|80:88|80:88|112:88|112:88|144:120|184:144|244:120,1,225
456,88,167661,6,0,P|440:144|440:176,1,75
328,156,168089,2,0,P|352:208|360:256,1,75
370,265,168518,1,0,0:0:0:0:
432,361,168732,5,0,0:0:0:0:
364,342,168947,1,0,0:0:0:0:
329,341,169161,1,0,0:0:0:0:
195,361,169374,1,0,0:0:0:0:
127,343,169589,1,0,0:0:0:0:
92,342,169803,1,0,0:0:0:0:
44,168,171089,6,0,L|136:152,1,75
201,235,171518,2,0,L|128:248,2,75
310,235,172161,2,0,L|384:248,2,75
256,148,172804,2,0,L|256:64,2,75
255,147,173661,2,0,P|229:263|332:204,1,300
408,52,174947,6,0,P|384:59|335:64,1,75
247,53,175375,1,0,0:0:0:0:
41,138,175589,2,0,P|106:127|147:132,1,75
207,142,176017,1,0,0:0:0:0:
253,225,176232,1,0,0:0:0:0:
434,354,177947,6,0,P|437:308|447:266,1,75
336,301,178375,1,0,0:0:0:0:
332,258,178589,1,0,0:0:0:0:
328,212,178804,1,0,0:0:0:0:
430,87,179018,1,0,0:0:0:0:
409,94,179232,1,0,0:0:0:0:
386,97,179447,1,0,0:0:0:0:
256,98,179661,1,0,0:0:0:0:
59,108,181375,6,0,P|128:103|166:111,1,75
218,153,181804,2,0,P|217:190|212:228,1,75
198,30,182232,1,0,0:0:0:0:
293,153,182447,2,0,P|294:190|299:228,1,75
314,30,182875,1,0,0:0:0:0:
453,108,183089,1,0,0:0:0:0:
474,327,184804,5,0,0:0:0:0:
435,245,185018,1,0,0:0:0:0:
372,309,185232,2,0,P|336:326|286:329,1,75
162,346,185661,1,0,0:0:0:0:
329,195,185875,2,0,P|293:212|243:215,1,75
119,232,186304,1,0,0:0:0:0:
69,129,186518,2,0,P|123:98|69:69,1,150
198,71,187375,2,0,P|191:149|118:211,1,150
314,313,188232,6,0,P|321:235|394:173,1,150
367,184,189089,1,0,0:0:0:0:
451,133,189518,2,0,P|390:93|300:110,1,150
230,176,190375,6,0,P|210:94|235:23,1,150
230,176,191232,2,0,B|179:163|179:163|76:176,1,150
98,346,192089,6,0,L|206:335,1,93.75
414,346,192464,2,0,L|306:335,1,93.75
191,336,192839,1,0,0:0:0:0:
321,224,193026,1,0,0:0:0:0:
192,224,193214,1,0,0:0:0:0:
320,336,193401,1,0,0:0:0:0:
452,261,193589,6,0,P|448:187|434:152,1,93.75
392,49,193964,2,0,L|256:66,1,93.75
104,152,194339,2,0,L|197:140,1,93.75
215,269,194714,2,0,L|121:280,1,93.75
28,168,195089,6,0,P|28:146|36:118,4,46.875
225,95,195651,2,0,P|247:124|253:151,1,46.875
187,303,195932,2,0,P|161:307|136:307,1,46.875
30,310,196214,1,0,0:0:0:0:
50,282,196307,1,0,0:0:0:0:
83,271,196401,1,0,0:0:0:0:
117,280,196495,1,0,0:0:0:0:
139,306,196589,5,0,0:0:0:0:
144,228,196682,1,0,0:0:0:0:
76,191,196776,1,0,0:0:0:0:
14,236,196870,1,0,0:0:0:0:
30,310,196964,1,0,0:0:0:0:
239,314,197151,5,0,0:0:0:0:
268,293,197245,1,0,0:0:0:0:
247,178,197432,5,0,0:0:0:0:
196,192,197526,1,0,0:0:0:0:
150,43,197714,5,0,0:0:0:0:
218,39,197807,1,0,0:0:0:0:
286,33,197901,2,0,L|343:28,1,46.875
446,69,198089,5,0,0:0:0:0:
427,82,198182,1,0,0:0:0:0:
406,93,198276,1,0,0:0:0:0:
384,101,198370,1,0,0:0:0:0:
361,106,198464,1,0,0:0:0:0:
288,174,198651,5,0,0:0:0:0:
326,203,198745,1,0,0:0:0:0:
468,217,198932,5,0,0:0:0:0:
437,253,199026,1,0,0:0:0:0:
420,347,199214,5,0,0:0:0:0:
380,321,199307,1,0,0:0:0:0:
335,312,199401,1,0,0:0:0:0:
289,321,199495,1,0,0:0:0:0:
250,347,199589,5,0,0:0:0:0:
193,357,199682,1,0,0:0:0:0:
137,339,199776,1,0,0:0:0:0:
97,298,199870,1,0,0:0:0:0:
80,243,199964,1,0,0:0:0:0:
79,119,200151,6,0,L|11:133,1,46.875
274,116,200432,2,0,L|342:130,1,46.875
79,119,200714,1,0,0:0:0:0:
111,58,200807,1,0,0:0:0:0:
175,33,200901,1,0,0:0:0:0:
240,56,200995,1,0,0:0:0:0:
274,116,201089,5,0,0:0:0:0:
283,150,201182,1,0,0:0:0:0:
304,177,201276,5,0,0:0:0:0:
366,214,201370,1,0,0:0:0:0:
437,206,201464,1,0,0:0:0:0:
422,35,201651,5,0,0:0:0:0:
383,60,201744,1,0,0:0:0:0:
183,16,201932,5,0,0:0:0:0:
159,91,202026,1,0,0:0:0:0:
32,204,202214,5,0,0:0:0:0:
122,201,202307,1,0,0:0:0:0:
195,219,202401,2,0,P|221:232|235:251,1,46.875
268,320,202589,5,0,0:0:0:0:
234,289,202682,1,0,0:0:0:0:
195,219,202776,1,0,0:0:0:0:
176,120,202870,1,0,0:0:0:0:
176,18,202964,1,0,0:0:0:0:
421,80,203151,5,0,0:0:0:0:
418,143,203244,1,0,0:0:0:0:
463,307,203432,5,0,0:0:0:0:
392,325,203525,1,0,0:0:0:0:
178,360,203714,5,0,0:0:0:0:
141,292,203807,1,0,0:0:0:0:
146,214,203901,1,0,0:0:0:0:
94,42,204089,6,0,B|100:77|67:142|67:142|116:129,1,131.250001251698,2|0,0:0|0:0,0:0:0:0:
214,99,204464,2,0,B|246:112|317:95|317:95|293:140,1,131.250001251698,2|0,0:0|0:0,0:0:0:0:
204,247,204839,2,0,B|183:275|184:348|184:348|146:315,1,131.250001251698,2|0,0:0|0:0,0:0:0:0:
78,204,205214,2,0,B|65:194|33:230|55:287|55:287|101:276,1,131.250001251698,2|0,0:0|0:0,0:0:0:0:
150,140,205589,6,0,B|230:183|323:156,1,131.250001251698,2|0,0:0|0:0,0:0:0:0:
451,159,205964,2,0,B|500:132|500:132|411:109,1,131.250001251698,2|0,0:0|0:0,0:0:0:0:
335,19,206339,2,0,B|307:60|309:129|309:129|372:106,1,131.250001251698,2|0,0:0|0:0,0:0:0:0:
413,238,206714,2,0,P|333:235|277:304,1,131.250001251698,2|0,0:0|0:0,0:0:0:0:
248,354,207089,6,0,B|132:358|132:358|157:319,1,131.250001251698,2|0,0:0|0:0,0:0:0:0:
173,254,207464,2,0,P|138:197|107:261,1,131.250001251698,2|0,0:0|0:0,0:0:0:0:
24,296,207839,2,0,P|15:232|37:171,1,131.250001251698,2|0,0:0|0:0,0:0:0:0:
40,42,208214,2,0,L|203:66,1,131.250001251698,2|0,0:0|0:0,0:0:0:0:
342,61,208589,6,0,L|472:42,1,131.250001251698,2|0,0:0|0:0,0:0:0:0:
474,171,208964,2,0,P|496:232|487:296,1,131.250001251698,2|0,0:0|0:0,0:0:0:0:
421,192,209339,2,0,P|468:231|486:299,1,131.250001251698,2|0,0:0|0:0,0:0:0:0:
400,223,209714,2,0,P|463:239|485:300,1,131.250001251698,2|0,0:0|0:0,0:0:0:0:
319,310,210089,6,0,P|300:221|309:122,1,131.250001251698,2|0,0:0|0:0,0:0:0:0:
313,36,210464,2,0,B|245:58|211:60|211:60|268:90,1,131.250001251698,2|0,0:0|0:0,0:0:0:0:
114,14,210839,2,0,L|162:199,1,131.250001251698,2|0,0:0|0:0,0:0:0:0:
36,258,211214,2,0,L|191:227,1,131.250001251698,2|0,0:0|0:0,0:0:0:0:
418,206,211589,5,2,0:0:0:0:
397,337,211776,1,0,0:0:0:0:
418,206,211964,2,0,L|443:61,1,131.250001251698,2|0,0:0|0:0,0:0:0:0:
267,148,212339,1,2,0:0:0:0:
240,18,212526,1,0,0:0:0:0:
267,148,212714,2,0,L|297:292,1,131.250001251698,2|0,0:0|0:0,0:0:0:0:
174,307,213089,5,2,0:0:0:0:
68,340,213276,1,0,0:0:0:0:
155,251,213464,5,2,0:0:0:0:
58,244,213651,1,0,0:0:0:0:
158,190,213839,5,2,0:0:0:0:
57,136,214026,1,0,0:0:0:0:
179,135,214214,5,2,0:0:0:0:
82,42,214401,1,0,0:0:0:0:
246,58,214589,6,0,B|286:64|349:49|349:49|330:90,1,131.250001251698,2|0,0:0|0:0,0:0:0:0:
492,163,214964,6,0,B|452:157|389:172|389:172|408:131,1,131.250001251698,2|0,0:0|0:0,0:0:0:0:
289,146,215339,2,0,P|299:229|373:305,1,131.250001251698,2|0,0:0|0:0,0:0:0:0:
428,344,215714,2,0,L|251:364,1,131.250001251698,2|0,0:0|0:0,0:0:0:0:
80,369,216089,6,0,B|98:333|98:333|97:242,1,131.250001251698,4|0,0:0|0:0,0:0:0:0:
218,332,216464,1,8,0:0:0:0:
218,332,216651,1,0,0:0:0:0:
97,242,216839,2,0,B|98:333|98:333|80:369,1,131.250001251698,2|4,0:0|0:0,0:0:0:0:
218,332,217214,1,8,0:0:0:0:
131,37,217589,6,0,B|23:57|23:57|58:88,1,131.250001251698,4|0,0:0|0:0,0:0:0:0:
101,158,217964,1,8,0:0:0:0:
101,158,218151,1,0,0:0:0:0:
39,71,218339,2,0,B|23:57|23:57|131:37,1,131.250001251698,2|4,0:0|0:0,0:0:0:0:
101,158,218714,1,8,0:0:0:0:
318,12,219089,6,0,P|324:85|298:187,1,131.250001251698,4|0,0:0|0:0,0:0:0:0:
443,94,219464,1,8,0:0:0:0:
443,94,219651,1,0,0:0:0:0:
314,141,219839,2,0,P|324:77|317:11,1,131.250001251698,2|4,0:0|0:0,0:0:0:0:
443,94,220214,1,8,0:0:0:0:
303,274,220589,6,0,B|345:288|393:251|393:251|426:265,1,131.250001251698,4|0,0:0|0:0,0:0:0:0:
170,222,220964,1,8,0:0:0:0:
176,338,221151,1,0,0:0:0:0:
426,265,221339,2,0,B|393:251|393:251|345:288|303:274,1,131.250001251698,2|4,0:0|0:0,0:0:0:0:
176,338,221714,1,8,0:0:0:0:
40,56,222089,5,4,0:0:0:0:
326,88,222276,1,8,0:0:0:0:
40,148,222464,5,4,0:0:0:0:
327,126,222651,1,8,0:0:0:0:
52,264,222839,5,4,0:0:0:0:
336,182,223026,1,8,0:0:0:0:
94,366,223214,5,4,0:0:0:0:
352,243,223401,1,8,0:0:0:0:
158,219,223589,5,4,0:0:0:0:
464,245,223776,1,8,0:0:0:0:
232,43,223964,1,4,0:0:0:0:
301,343,224151,1,8,0:0:0:0:
421,60,224339,5,6,0:0:0:0:
399,58,224432,1,2,0:0:0:0:
376,57,224526,2,2,L|298:49,1,65.6250006258488
271,145,224714,1,4,0:0:0:0:
292,145,224807,1,2,0:0:0:0:
314,145,224901,2,2,L|392:143,1,65.6250006258488
426,246,225089,6,0,L|364:250,1,60
257,254,226964,1,0,0:0:0:0:
257,254,227339,1,0,0:0:0:0:
257,254,227714,1,0,0:0:0:0:
58,302,228089,6,0,P|91:182|43:6,1,300,4|0,0:0|0:0,0:0:0:0:
58,302,228651,1,4,0:0:0:0:
207,189,228839,1,8,0:0:0:0:
239,201,228932,1,0,0:0:0:0:
273,206,229026,1,0,0:0:0:0:
306,202,229120,1,0,0:0:0:0:
344,200,229214,6,0,P|234:263|352:258,1,300
344,200,229682,1,0,0:0:0:0:
306,168,229775,1,0,0:0:0:0:
294,120,229869,1,0,0:0:0:0:
380,46,229964,2,0,L|366:106,1,37.5,4|0,0:0|0:0,0:0:0:0:
353,163,230151,2,0,L|339:217,1,37.5
328,288,230339,2,0,B|449:278|449:278|407:254,1,150,12|4,0:0|0:0,0:0:0:0:
188,207,230714,2,0,B|216:324|216:324|233:279,1,150
342,31,231089,6,0,L|332:180,1,150,4|8,0:0|0:0,0:0:0:0:
267,115,231932,1,0,0:0:0:0:
200,80,232026,1,0,0:0:0:0:
126,77,232120,1,0,0:0:0:0:
57,104,232214,2,0,P|111:80|142:76,1,75,0|4,0:0|0:0,0:0:0:0:
85,186,232714,6,0,P|5:174|-12:159,1,75.000002861023
57,104,232964,2,0,P|137:116|154:131,1,75.000002861023
183,174,233214,1,0,0:0:0:0:
209,253,233339,6,0,P|147:367|93:252,2,300,0|0|4,0:0|0:0|0:0,0:0:0:0:
131,108,234464,1,0,0:0:0:0:
131,108,234839,1,8,0:0:0:0:
205,100,234932,1,0,0:0:0:0:
280,92,235026,1,0,0:0:0:0:
354,85,235120,1,0,0:0:0:0:
498,161,235214,6,0,L|195:97,1,300
280,92,235682,1,0,0:0:0:0:
354,84,235775,1,0,0:0:0:0:
429,76,235869,1,0,0:0:0:0:
398,144,235964,1,4,0:0:0:0:
368,213,236058,1,0,0:0:0:0:
324,152,236151,1,0,0:0:0:0:
280,92,236245,5,0,0:0:0:0:
354,84,236339,1,8,0:0:0:0:
429,76,236432,1,0,0:0:0:0:
398,144,236526,1,4,0:0:0:0:
368,213,236620,1,0,0:0:0:0:
324,152,236714,6,0,L|272:81,1,75,0|4,0:0|0:0,0:0:0:0:
204,0,237214,6,0,P|191:56|191:93,1,50
173,140,237464,1,0,0:0:0:0:
124,149,237589,1,0,0:0:0:0:
77,133,237714,1,0,0:0:0:0:
181,158,237839,1,8,0:0:0:0:
152,187,237964,1,0,0:0:0:0:
113,198,238089,1,0,0:0:0:0:
196,189,238214,1,0,0:0:0:0:
179,221,238339,1,0,0:0:0:0:
151,244,238464,1,0,0:0:0:0:
32,304,238589,5,4,0:0:0:0:
102,301,238682,1,0,0:0:0:0:
162,312,238776,1,0,0:0:0:0:
211,332,238870,1,0,0:0:0:0:
256,357,238964,5,0,0:0:0:0:
301,332,239057,5,0,0:0:0:0:
350,312,239151,1,4,0:0:0:0:
410,301,239245,1,0,0:0:0:0:
480,304,239339,2,0,P|469:295|466:313,1,37.5,8|0,0:0|0:0,0:0:0:0:
480,304,239714,6,0,P|421:215|449:172,1,150
496,120,240089,6,0,B|436:68|374:100|350:140|350:140|321:124|301:78|244:92|180:106,1,300,4|0,0:0|0:0,0:0:0:0:
48,46,240651,2,0,P|48:112|113:100,1,150,4|0,0:0|0:0,0:0:0:0:
228,171,240932,2,0,P|233:96|224:22,1,150,4|0,0:0|0:0,0:0:0:0:
152,195,241214,2,0,P|59:222|13:260,1,150
174,293,241589,6,0,P|205:355|212:264,1,225,4|0,0:0|0:0,0:0:0:0:
193,264,242057,1,0,0:0:0:0:
174,293,242151,6,0,P|263:259|395:325,1,225,4|4,0:0|0:0,0:0:0:0:
466,209,242714,2,0,L|453:408,1,150
333,22,243089,6,0,L|358:182,1,140.625005364418,4|0,0:0|0:0,0:0:0:0:
302,235,243651,6,0,B|285:262|285:262|258:69,1,225,4|4,0:0|0:0,0:0:0:0:
192,277,244214,2,0,B|80:287|80:287|122:330,1,150
370,341,244589,6,0,P|408:208|440:343,1,375,4|0,0:0|0:0,0:0:0:0:
407,280,245151,2,0,P|331:308|377:224,1,225,4|4,0:0|0:0,0:0:0:0:
429,55,245714,2,0,P|295:54|259:90,1,150
63,58,246089,6,0,B|94:119|70:194|70:194|107:167|150:162,1,225,4|0,0:0|0:0,0:0:0:0:
189,161,246557,1,0,0:0:0:0:
226,178,246651,1,4,0:0:0:0:
206,263,246745,5,0,0:0:0:0:
174,248,246839,1,8,0:0:0:0:
138,249,246933,1,4,0:0:0:0:
132,335,247026,5,0,0:0:0:0:
159,334,247120,1,0,0:0:0:0:
183,345,247214,1,8,0:0:0:0:
272,327,247401,1,8,0:0:0:0:
132,335,247589,6,0,P|195:260|272:333,1,225.000008583069,4|8,0:0|0:0,0:0:0:0:
271,289,248057,1,0,0:0:0:0:
263,249,248151,1,4,0:0:0:0:
348,226,248245,5,0,0:0:0:0:
362,280,248339,1,8,0:0:0:0:
363,337,248432,1,4,0:0:0:0:
463,350,248526,5,0,0:0:0:0:
458,272,248619,1,0,0:0:0:0:
445,195,248713,1,8,0:0:0:0:
313,32,248901,1,8,0:0:0:0:
170,42,249089,6,0,L|139:45,6,28.1250010728836,4|0|0|0|0|0|0,0:0|0:0|0:0|0:0|0:0|0:0|0:0,0:0:0:0:
313,32,249464,2,0,L|340:29,6,28.1250010728836,4|0|0|0|0|0|0,0:0|0:0|0:0|0:0|0:0|0:0|0:0,0:0:0:0:
179,151,249839,2,0,L|148:154,6,28.1250010728836,4|0|0|0|0|0|0,0:0|0:0|0:0|0:0|0:0|0:0|0:0,0:0:0:0:
322,141,250214,2,0,L|349:138,6,28.1250010728836,4|0|0|0|0|0|0,0:0|0:0|0:0|0:0|0:0|0:0|0:0,0:0:0:0:
256,192,250589,12,4,252089,0:0:0:0:
88,259,252464,5,0,0:0:0:0:
102,204,252589,1,0,0:0:0:0:
142,244,252714,1,0,0:0:0:0:
137,327,252839,1,0,0:0:0:0:
137,327,253214,2,0,L|232:304,2,75
375,327,254339,1,0,0:0:0:0:
375,327,255089,6,0,P|404:248|379:182,1,150
375,327,255839,1,0,0:0:0:0:
330,267,255964,1,0,0:0:0:0:
319,194,256089,1,0,0:0:0:0:
343,124,256214,1,0,0:0:0:0:
379,89,256589,6,0,B|245:90|245:90|276:110,1,150
60,167,257339,2,0,B|194:168|194:168|163:188,1,150
288,147,258089,5,0,0:0:0:0:
288,147,258214,2,0,P|285:216|311:280,1,100
204,200,258464,5,0,0:0:0:0:
204,200,258589,2,0,P|251:215|291:244,1,100
288,147,258839,5,0,0:0:0:0:
287,147,258964,2,0,P|249:180|204:200,1,100
134,283,259214,5,0,0:0:0:0:
134,283,259339,2,0,P|120:323|152:299,1,100
395,252,259589,5,0,0:0:0:0:
395,252,259714,2,0,P|437:244|400:228,1,100
238,40,259964,5,0,0:0:0:0:
238,40,260089,2,0,P|210:8|215:48,1,100
144,101,260339,6,0,P|208:125|310:98,1,150
256,192,261089,12,0,263339,0:0:0:0:
74,142,264089,6,0,L|165:138,1,75,4|0,0:0|0:0,0:0:0:0:
275,135,264589,1,0,0:0:0:0:
348,131,264714,1,0,0:0:0:0:
195,31,264839,5,8,0:0:0:0:
148,138,264964,1,0,0:0:0:0:
95,248,265089,1,0,0:0:0:0:
227,242,265214,5,0,0:0:0:0:
148,138,265339,1,0,0:0:0:0:
95,248,265464,1,0,0:0:0:0:
48,345,265589,5,4,0:0:0:0:
36,325,265714,1,4,0:0:0:0:
26,309,265839,1,4,0:0:0:0:
200,345,265964,5,4,0:0:0:0:
188,325,266089,1,4,0:0:0:0:
178,309,266214,1,4,0:0:0:0:
454,344,266339,5,8,0:0:0:0:
380,332,266464,1,8,0:0:0:0:
307,320,266589,1,8,0:0:0:0:
456,364,266714,5,8,0:0:0:0:
382,352,266839,1,8,0:0:0:0:
309,340,266964,1,8,0:0:0:0:
424,225,267089,6,0,P|425:195|449:214,1,75,2|0,0:0|0:0,0:0:0:0:
398,130,267589,1,0,0:0:0:0:
446,213,267714,1,0,0:0:0:0:
334,199,267839,5,8,0:0:0:0:
398,130,267964,1,0,0:0:0:0:
424,225,268089,1,0,0:0:0:0:
332,185,268214,5,0,0:0:0:0:
411,135,268339,1,0,0:0:0:0:
412,233,268464,1,0,0:0:0:0:
283,277,268589,5,4,0:0:0:0:
213,298,268714,1,4,0:0:0:0:
142,288,268839,1,4,0:0:0:0:
197,131,268964,5,4,0:0:0:0:
283,277,269089,1,4,0:0:0:0:
142,288,269214,1,4,0:0:0:0:
118,72,269339,5,8,0:0:0:0:
204,218,269464,1,8,0:0:0:0:
63,229,269589,1,8,0:0:0:0:
31,125,269714,5,8,0:0:0:0:
215,107,269839,1,8,0:0:0:0:
148,346,269964,1,8,0:0:0:0:
63,229,270089,6,0,P|118:230|145:219,1,75,4|0,0:0|0:0,0:0:0:0:
455,189,270589,1,0,0:0:0:0:
453,146,270714,1,0,0:0:0:0:
435,108,270839,1,8,0:0:0:0:
402,81,270964,1,0,0:0:0:0:
361,69,271089,1,0,0:0:0:0:
319,76,271214,1,0,0:0:0:0:
283,99,271339,1,0,0:0:0:0:
260,135,271464,1,0,0:0:0:0:
63,229,271589,6,0,P|118:230|145:219,1,75,4|0,0:0|0:0,0:0:0:0:
455,189,272089,1,0,0:0:0:0:
443,133,272214,1,0,0:0:0:0:
412,85,272339,1,8,0:0:0:0:
367,50,272464,1,0,0:0:0:0:
313,34,272589,1,0,0:0:0:0:
256,38,272714,1,0,0:0:0:0:
204,61,272839,1,0,0:0:0:0:
164,101,272964,1,0,0:0:0:0:
47,153,273089,6,4,L|52:227,2,75
164,101,273464,6,4,L|178:250,2,150
294,59,273839,6,4,L|315:284,2,225.000008583069
443,25,274214,6,4,L|473:324,2,300
421,22,274589,1,0,0:0:0:0:
403,24,275339,1,0,0:0:0:0:
321,32,275714,1,0,0:0:0:0:
453,87,276088,5,4,0:0:0:0:
341,127,276517,1,0,0:0:0:0:
231,88,276945,1,0,0:0:0:0:
40,237,277374,6,0,L|145:216,1,75
386,248,277803,2,0,L|281:227,1,75
161,349,278231,2,0,P|214:322|263:317,1,75
365,330,278660,1,0,0:0:0:0:
116,337,279088,5,0,0:0:0:0:
116,337,279517,1,0,0:0:0:0:
111,337,279945,1,0,0:0:0:0:
106,337,280374,1,0,0:0:0:0:
256,192,280803,12,0,282517,0:0:0:0:
390,178,282946,5,0,0:0:0:0:
426,302,283374,1,0,0:0:0:0:
303,270,283803,1,0,0:0:0:0:
457,294,284232,1,0,0:0:0:0:
315,171,284660,5,0,0:0:0:0:
305,245,284874,1,0,0:0:0:0:
194,131,285089,1,0,0:0:0:0:
208,204,285303,1,0,0:0:0:0:
73,328,285517,2,0,L|179:303,1,75
439,328,285946,1,0,0:0:0:0:
439,328,286374,6,0,P|374:303|405:243,7,150
439,328,289803,5,0,0:0:0:0:
350,279,290231,1,0,0:0:0:0:
399,191,290660,1,0,0:0:0:0:
487,241,291089,1,0,0:0:0:0:
291,346,291517,2,0,L|203:344,1,75
60,238,291946,2,0,L|134:240,1,75
251,240,292374,2,0,P|267:167|264:93,1,150
112,68,293231,6,0,B|200:12|299:117|413:37,1,300
425,24,294517,1,0,0:0:0:0:
451,145,294946,6,0,P|439:249|410:287,1,150
451,145,295803,1,0,0:0:0:0:
482,309,296231,2,0,P|445:287|391:286,1,75
320,278,296660,5,0,0:0:0:0:
94,351,297089,2,0,P|83:308|92:263,2,75
107,148,297946,1,0,0:0:0:0:
94,351,298374,6,0,P|132:274|154:354,1,150
190,313,299017,1,0,0:0:0:0:
221,327,299231,1,0,0:0:0:0:
350,292,299660,6,0,P|416:284|418:351,1,150
412,352,300946,1,0,0:0:0:0:
410,351,301803,5,0,0:0:0:0:
406,350,302660,1,0,0:0:0:0:
