osu file format v14

[General]
AudioFilename: audio.mp3
AudioLeadIn: 0
PreviewTime: 156192
Countdown: 0
SampleSet: Soft
StackLeniency: 0.2
Mode: 0
LetterboxInBreaks: 0
WidescreenStoryboard: 0

[Editor]
Bookmarks: 1308,16611,32395,54986,77574,111456,134045,156633,179221,201809,224397,246986,269574,292162,313495,334828,356161,378750,402731
DistanceSpacing: 1.3
BeatDivisor: 2
GridSize: 32
TimelineZoom: 2.699999

[Metadata]
Title:Entity Erebus Feat. Nekomura Iroha (Dark Version)
TitleUnicode:Entity Erebus Feat. Nekomura Iroha (Dark Version)
Artist:NGC 3.14
ArtistUnicode:NGC 3.14
Creator:Opsi
Version:Darkest Brilliance
Source:
Tags:
BeatmapID:1924311
BeatmapSetID:921470

[Difficulty]
HPDrainRate:6
CircleSize:4
OverallDifficulty:8.4
ApproachRate:9.4
SliderMultiplier:1.4
SliderTickRate:1

[Events]
//Background and Video events
0,0,"you_belong_to_me_by_aquasixio_d799lr2-pre.jpg",0,0
//Break Periods
//Storyboard Layer 0 (Background)
//Storyboard Layer 1 (Fail)
//Storyboard Layer 2 (Pass)
//Storyboard Layer 3 (Foreground)
//Storyboard Layer 4 (Overlay)
//Storyboard Sound Samples

[TimingPoints]
1308.66758457907,422.535211267606,4,2,0,40,1,0
1731,480,4,2,0,40,1,0
3171,480,4,2,0,40,1,0
16131,-200,4,2,0,40,0,0
18891,-200,4,2,0,40,0,0
19011,-200,4,2,0,40,0,0
28131,487.80487804878,4,2,0,40,1,0
28131,-133.333333333333,4,2,0,40,0,0
28618,521.739130434783,4,2,0,40,1,0
29139,-133.333333333333,4,2,0,40,0,0
30183,535.714285714286,4,2,0,40,1,0
30183,-100,4,2,0,40,0,0
30718,545.454545454546,4,2,0,40,1,0
30718,-133.333333333333,4,2,0,40,0,0
31263,566.037735849057,4,2,0,40,1,0
31263,-166.666666666667,4,2,0,40,0,0
32398,352.941176470588,4,2,0,60,1,0
32398,-142.857142857143,4,2,0,60,0,0
54986,-133.333333333333,4,2,0,60,0,0
60633,-125,4,2,0,60,0,0
66280,-111.111111111111,4,2,0,60,0,0
71927,-100,4,2,0,60,0,0
72280,-66.6666666666667,4,2,0,60,0,0
72633,-80,4,2,0,60,0,0
72986,-57.1428571428571,4,2,0,60,0,0
73339,-66.6666666666667,4,2,0,60,0,0
73692,-50,4,2,0,60,0,0
74045,-50,4,2,0,60,0,0
74397,-44.4444444444445,4,2,0,60,0,0
74750,-100,4,2,0,60,0,0
75103,-80,4,2,0,60,0,0
75456,-66.6666666666667,4,2,0,60,0,0
75809,-57.1428571428571,4,2,0,60,0,0
77574,-200,4,2,0,60,0,0
100162,-142.857142857143,4,2,0,60,0,0
104397,-117.647058823529,4,2,0,60,0,0
110397,-100,4,2,0,60,0,0
110750,-83.3333333333333,4,2,0,60,0,0
111103,-71.4285714285714,4,2,0,60,0,0
292162,333.333333333333,4,2,0,60,1,0
356162,352.941176470588,4,2,0,60,1,0
396397,400,4,2,0,60,1,0
397997,437.956204379562,4,2,0,60,1,0
398872,447.761194029851,4,2,0,60,1,0
399319,454.545454545455,4,2,0,60,1,0
399773,458.015267175573,4,2,0,60,1,0
400231,476.190476190476,4,2,0,60,1,0
401183,487.80487804878,4,2,0,60,1,0
402402,659.340659340659,4,2,0,60,1,0
402731,389.61038961039,4,2,0,60,1,0
403120,480,4,2,0,60,1,0
404560,480,4,2,0,60,1,0
413200,576.923076923077,4,2,0,60,1,0
414353,714.285714285714,4,2,0,60,1,0
415067,800,4,2,0,60,1,0
415867,888.888888888889,4,2,0,60,1,0
417644,909.090909090909,4,2,0,60,1,0

[HitObjects]
29,4,1308,5,0,2:3:0:0:
106,3,1731,1,0,2:3:0:0:
165,51,2211,1,0,2:3:0:0:
240,61,3171,5,0,2:3:0:0:
163,62,3651,1,0,2:3:0:0:
104,14,4131,1,0,2:3:0:0:
106,3,5091,5,0,2:3:0:0:
183,2,5571,1,0,2:3:0:0:
242,50,6051,1,0,2:3:0:0:
317,60,7011,5,0,2:3:0:0:
240,61,7491,1,0,2:3:0:0:
181,13,7971,1,0,2:3:0:0:
183,2,8931,5,0,2:3:0:0:
260,1,9411,1,0,2:3:0:0:
319,49,9891,1,0,2:3:0:0:
394,59,10851,5,0,2:3:0:0:
317,60,11331,1,0,2:3:0:0:
258,12,11811,1,0,2:3:0:0:
260,1,12771,5,0,2:3:0:0:
337,0,13251,1,0,2:3:0:0:
396,48,13731,1,0,2:3:0:0:
471,58,14691,5,0,2:3:0:0:
394,59,15171,1,0,2:3:0:0:
335,11,15651,1,0,2:3:0:0:
71,307,16131,5,0,2:3:0:0:
71,307,16611,6,0,P|67:341|76:375,2,70,0|0|0,2:0|2:0|2:0,2:0:0:0:
159,278,18051,5,0,2:0:0:0:
82,300,18291,1,0,2:0:0:0:
17,251,18531,2,0,P|7:226|6:200,1,52.5,0|0,2:0|2:0,2:0:0:0:
0,188,19011,2,0,P|20:172|69:167,1,70,0|0,2:0|2:0,2:0:0:0:
81,65,19971,5,0,2:0:0:0:
81,65,20451,6,0,P|63:35|57:1,1,70,0|0,2:0|2:0,2:0:0:0:
190,97,21411,2,0,P|222:81|246:56,1,70,0|0,2:0|2:0,2:0:0:0:
81,65,22131,1,0,2:0:0:0:
21,141,22371,2,0,P|23:186|39:211,1,70,0|0,2:0|2:0,2:0:0:0:
382,26,23811,5,0,2:0:0:0:
461,38,24051,1,0,2:0:0:0:
499,110,24291,2,0,P|497:136|469:173,1,70,0|0,2:0|2:0,2:0:0:0:
390,142,25731,5,0,2:0:0:0:
461,181,25971,1,0,2:0:0:0:
471,261,26211,2,0,P|461:286|443:305,1,52.5,0|0,2:0|2:0,2:0:0:0:
439,314,26691,2,0,P|412:291|378:285,1,70,0|0,2:0|2:0,2:0:0:0:
292,165,27651,6,0,P|288:179|272:206,1,35,0|0,2:0|2:0,2:0:0:0:
88,220,28131,2,0,P|126:210|197:240,1,105.000004005432,0|0,2:0|2:0,2:0:0:0:
15,286,29139,2,0,P|5:324|35:395,1,105.000004005432,0|0,2:0|2:0,2:0:0:0:
161,372,29922,1,0,2:0:0:0:
161,372,30183,2,0,P|146:333|114:310,1,70,0|0,2:0|2:0,2:0:0:0:
111,194,30718,2,0,P|100:215|97:249,1,52.5000020027161,0|0,2:0|2:0,2:0:0:0:
167,314,31263,2,0,P|109:272|39:289,1,146.999995513916,0|0,2:0|2:0,2:0:0:0:
19,291,32398,6,0,P|19:254|10:221,1,48.9999985046387
30,195,32750,2,0,P|30:158|39:125,1,48.9999985046387
18,97,33103,1,0,0:0:0:0:
19,291,33280,6,0,P|19:254|10:221,2,48.9999985046387
52,329,33809,6,0,P|48:353|49:377,1,48.9999985046387
16,242,34162,2,0,P|20:266|19:291,1,48.9999985046387
32,146,34515,1,0,0:0:0:0:
52,329,34692,6,0,P|48:353|49:377,2,48.9999985046387
389,366,35221,6,0,L|340:361,1,48.9999985046387
295,357,35574,2,0,L|246:352,1,48.9999985046387
201,348,35927,1,0,0:0:0:0:
389,366,36103,6,0,L|340:361,2,48.9999985046387
434,370,36633,6,0,L|482:374,1,48.9999985046387
340,361,36986,2,0,L|389:366,1,48.9999985046387
246,352,37339,1,0,0:0:0:0:
434,370,37515,6,0,L|482:374,2,48.9999985046387
512,31,38045,6,0,P|495:48|482:69,1,48.9999985046387
463,112,38398,2,0,P|453:134|448:158,1,48.9999985046387
444,204,38750,1,0,0:0:0:0:
512,8,38927,5,0,0:0:0:0:
491,79,39103,1,0,0:0:0:0:
501,0,39280,1,0,0:0:0:0:
482,69,39456,6,0,P|495:48|512:31,1,48.9999985046387
448,158,39809,2,0,P|453:134|463:112,1,48.9999985046387
446,253,40162,1,0,0:0:0:0:
469,72,40339,5,0,0:0:0:0:
512,11,40515,1,0,0:0:0:0:
456,61,40692,1,0,0:0:0:0:
357,1,40868,6,0,L|305:-1,1,48.9999985046387
262,55,41221,2,0,L|213:56,1,48.9999985046387
152,100,41574,1,0,0:0:0:0:
387,0,41750,5,0,0:0:0:0:
316,6,41927,1,0,0:0:0:0:
387,17,42103,1,0,0:0:0:0:
328,98,42280,6,0,P|311:135|310:161,1,48.9999985046387
301,301,42633,2,0,P|277:268|255:254,1,48.9999985046387
138,176,42986,1,0,0:0:0:0:
356,166,43162,5,0,0:0:0:0:
282,157,43339,1,0,0:0:0:0:
213,186,43515,1,0,0:0:0:0:
138,176,43692,5,0,0:0:0:0:
141,166,43868,1,0,0:0:0:0:
138,155,44045,1,0,0:0:0:0:
141,144,44221,1,0,0:0:0:0:
138,176,44397,1,0,0:0:0:0:
84,63,44574,5,0,0:0:0:0:
156,56,44750,1,0,0:0:0:0:
90,77,44927,1,0,0:0:0:0:
164,42,45103,5,0,0:0:0:0:
170,49,45279,1,0,0:0:0:0:
177,55,45455,1,0,0:0:0:0:
185,61,45632,1,0,0:0:0:0:
164,42,45809,1,0,0:0:0:0:
283,112,45986,5,0,0:0:0:0:
289,33,46162,1,0,0:0:0:0:
270,104,46339,1,0,0:0:0:0:
326,360,46515,5,0,0:0:0:0:
318,353,46692,1,0,0:0:0:0:
324,345,46868,1,0,0:0:0:0:
331,352,47045,1,0,0:0:0:0:
326,360,47221,1,0,0:0:0:0:
262,284,47397,5,0,0:0:0:0:
336,261,47574,1,0,0:0:0:0:
259,269,47750,1,0,0:0:0:0:
428,358,47927,5,0,0:0:0:0:
423,343,48103,1,0,0:0:0:0:
488,251,48280,5,0,0:0:0:0:
483,266,48456,1,0,0:0:0:0:
345,149,48633,5,0,0:0:0:0:
360,155,48809,1,0,0:0:0:0:
512,61,48986,5,0,0:0:0:0:
497,67,49162,1,0,0:0:0:0:
305,7,49339,5,0,0:0:0:0:
315,2,49515,1,0,0:0:0:0:
324,6,49692,1,0,0:0:0:0:
335,1,49868,1,0,0:0:0:0:
305,7,50045,1,0,0:0:0:0:
212,75,50221,5,0,0:0:0:0:
225,1,50397,1,0,0:0:0:0:
228,74,50574,1,0,0:0:0:0:
144,29,50750,5,0,0:0:0:0:
134,28,50926,1,0,0:0:0:0:
124,27,51102,1,0,0:0:0:0:
114,27,51279,1,0,0:0:0:0:
144,29,51456,1,0,0:0:0:0:
22,89,51633,5,0,0:0:0:0:
9,15,51809,1,0,0:0:0:0:
6,88,51986,1,0,0:0:0:0:
91,231,52162,5,0,0:0:0:0:
81,233,52339,1,0,0:0:0:0:
73,227,52515,1,0,0:0:0:0:
73,217,52692,1,0,0:0:0:0:
91,231,52868,1,0,0:0:0:0:
81,211,53045,1,0,0:0:0:0:
91,213,53221,1,0,0:0:0:0:
95,222,53397,1,0,0:0:0:0:
4,367,53574,5,0,0:0:0:0:
14,369,53751,1,0,0:0:0:0:
22,363,53927,1,0,0:0:0:0:
22,353,54104,1,0,0:0:0:0:
4,367,54280,1,0,0:0:0:0:
14,347,54457,1,0,0:0:0:0:
4,349,54633,1,0,0:0:0:0:
0,358,54809,1,0,0:0:0:0:
261,257,54986,6,0,P|216:256|173:246,1,78.7500030040742
127,193,55339,2,0,P|100:193|75:199,1,52.5000020027161
0,173,55692,1,0,0:0:0:0:
272,234,55868,2,0,L|314:231,1,26.2500010013581
368,195,56045,2,0,P|405:188|442:194,1,52.5000020027161
433,196,56309,1,0,0:0:0:0:
444,200,56397,6,0,P|453:146|428:96,1,105.000004005432
475,40,57103,1,0,0:0:0:0:
435,222,57280,2,0,L|438:264,1,26.2500010013581
508,297,57456,2,0,P|513:327|493:363,1,52.5000020027161
494,358,57721,1,0,0:0:0:0:
481,361,57809,6,0,L|425:362,1,52.5000020027161
307,311,58162,2,0,L|360:312,1,52.5000020027161
503,283,58515,1,0,0:0:0:0:
279,323,58692,2,0,L|237:326,1,26.2500010013581
159,351,58868,2,0,P|133:356|107:352,1,52.5000020027161
21,248,59221,6,0,P|11:210|20:171,1,78.7500030040742
0,164,59574,2,0,P|16:130|68:98,1,78.7500030040742
44,72,59927,2,0,L|125:79,1,78.7500030040742
195,68,60280,2,0,L|116:61,1,78.7500030040742
37,0,60633,6,0,P|29:40|40:81,1,84
97,133,60986,2,0,P|87:159|71:182,1,56,0|0,0:0|2:0,0:0:0:0:
40,0,61339,1,0,0:0:0:0:
55,220,61515,2,0,L|54:263,1,28
58,331,61692,2,0,P|85:331|111:320,1,56
121,309,61956,1,0,0:0:0:0:
134,300,62045,6,0,L|238:314,1,84
287,246,62397,2,0,L|358:255,1,56
122,299,62750,1,0,0:0:0:0:
369,241,62927,2,0,P|383:238|398:237,1,28
482,254,63103,2,0,P|499:238|513:206,1,56
512,188,63368,1,0,0:0:0:0:
501,180,63456,6,0,P|492:156|522:86,1,84
512,93,63809,1,0,0:0:0:0:
512,93,64162,5,0,0:0:0:0:
480,269,64339,2,0,L|486:305,1,28
446,365,64515,2,0,P|418:364|390:370,1,56
289,303,64868,6,0,P|301:340|294:386,1,84
223,279,65221,2,0,P|258:296|285:334,1,84
136,272,65574,2,0,L|226:263,1,84
83,215,65927,2,0,L|0:223,1,84
113,198,66280,6,0,P|135:144|123:97,1,94.499997116089
133,26,66633,2,0,P|102:1|64:1,1,62.9999980773926
0,52,66986,1,0,0:0:0:0:
105,215,67162,2,0,P|128:217|153:207,1,31.4999990386963,0|0,2:0|2:0,2:0:0:0:
310,225,67339,2,0,P|258:226|214:194,1,94.499997116089
210,194,67692,6,0,P|240:229|245:275,1,94.499997116089
307,81,68045,2,0,P|305:112|291:151,1,62.9999980773926
221,12,68397,1,0,0:0:0:0:
244,283,68574,2,0,P|252:300|262:311,1,31.4999990386963
451,311,68750,2,0,P|420:314|394:332,1,62.9999980773926,0|0,2:0|2:0,0:0:0:0:
373,349,69015,1,0,0:0:0:0:
359,363,69103,6,0,P|359:305|331:263,1,94.499997116089
470,171,69456,2,0,P|461:201|442:226,1,62.9999980773926
407,18,69809,1,0,0:0:0:0:
341,274,69986,2,0,P|327:282|312:287,1,31.4999990386963
201,384,70162,2,0,P|172:358|162:321,1,62.9999980773926
42,262,70515,6,0,P|52:216|84:182,1,94.499997116089
24,120,70868,2,0,P|63:95|110:93,1,94.499997116089
180,39,71221,2,0,L|288:45,1,94.499997116089
461,122,71574,2,0,L|366:127,1,94.499997116089
364,115,71927,6,0,P|315:121|275:160,1,105
266,166,72280,2,0,P|280:199|290:238,1,52.5000020027161
470,384,72633,2,0,P|510:331|511:264,1,131.25
502,249,72986,2,0,P|468:235|434:215,1,61.2500005841255
106,0,73339,6,0,P|36:35|3:105,1,157.500006008148
11,128,73692,2,0,P|42:111|75:97,1,70
512,133,74045,2,0,P|457:45|355:30,1,210
278,1,74398,2,0,P|272:35|268:88,1,78.7500030040742
26,298,74750,6,0,L|32:333,1,35
18,291,74927,2,0,L|23:325,1,35
54,188,75103,2,0,P|63:207|73:233,1,43.75
58,174,75280,2,0,P|67:193|77:219,1,43.75
109,53,75456,6,0,L|122:103,1,52.5000020027161
217,191,75633,2,0,L|216:138,1,52.5000020027161
307,0,75809,2,0,P|302:27|293:62,1,61.2500005841255,0|0,2:2|2:2,2:2:0:0:
360,248,75986,2,0,P|367:218|373:188,1,61.2500005841255,0|0,2:2|2:2,2:2:0:0:
512,33,76162,5,0,0:0:0:0:
473,30,76250,1,0,0:0:0:0:
439,45,76339,1,0,0:0:0:0:
414,71,76427,1,0,0:0:0:0:
402,105,76515,2,0,P|378:97|339:67,1,61.2500005841255
243,0,76692,5,0,0:0:0:0:
252,5,76780,2,0,P|260:43|259:76,1,61.2500005841255
111,194,76956,5,0,0:0:0:0:
91,176,77045,2,0,P|124:122|195:114,1,122.500001168251
200,114,77309,1,0,0:0:0:0:
208,192,77397,1,0,0:0:0:0:
209,204,77486,1,0,0:0:0:0:
209,216,77574,6,0,P|228:233|193:220,2,105
98,378,78986,5,0,0:0:0:0:
88,380,79339,1,0,0:0:0:0:
0,368,79692,6,0,P|42:365|79:351,1,70
154,278,80397,6,0,B|123:261|83:272|83:272|102:276|122:292,2,105
0,94,81809,5,0,0:0:0:0:
4,106,82162,1,0,0:0:0:0:
113,25,82515,5,0,0:0:0:0:
201,67,82868,5,0,0:0:0:0:
447,17,83221,6,0,P|407:29|379:53,1,70
375,58,83750,1,0,0:0:0:0:
390,84,84280,5,0,0:0:0:0:
391,76,84368,1,0,0:0:0:0:
389,67,84456,1,0,0:0:0:0:
383,61,84544,1,0,0:0:0:0:
375,58,84633,5,0,0:0:0:0:
359,84,84986,5,0,0:0:0:0:
436,170,85339,5,0,0:0:0:0:
303,274,85692,5,0,0:0:0:0:
476,384,86045,6,0,P|524:349|448:309,1,175
303,274,87103,6,0,P|307:240|304:225,1,35
436,170,87456,6,0,P|432:204|435:219,1,35
359,84,87809,5,0,0:0:0:0:
389,85,87986,1,0,0:0:0:0:
375,58,88162,1,0,0:0:0:0:
261,384,88868,5,0,0:0:0:0:
251,366,89221,1,0,0:0:0:0:
269,327,89574,1,0,0:0:0:0:
208,278,89927,1,0,0:0:0:0:
297,244,90103,1,0,0:0:0:0:
185,192,90280,1,0,0:0:0:0:
297,139,90633,5,0,0:0:0:0:
208,106,90810,1,0,0:0:0:0:
269,56,90986,1,0,0:0:0:0:
251,17,91163,1,0,0:0:0:0:
261,0,91339,1,0,0:0:0:0:
44,335,91692,5,0,0:0:0:0:
83,271,91868,1,0,0:0:0:0:
158,260,92045,1,0,0:0:0:0:
219,303,92221,1,0,0:0:0:0:
294,292,92397,1,0,0:0:0:0:
217,316,92750,5,0,0:0:0:0:
147,269,92927,1,0,0:0:0:0:
302,302,93103,1,0,0:0:0:0:
219,303,93456,5,0,0:0:0:0:
294,292,93633,1,0,0:0:0:0:
333,228,93809,1,0,0:0:0:0:
408,217,93986,1,0,0:0:0:0:
469,260,94162,1,0,0:0:0:0:
106,104,94515,5,0,0:0:0:0:
191,124,94868,1,0,0:0:0:0:
269,54,95221,1,0,0:0:0:0:
380,103,95574,1,0,0:0:0:0:
292,376,95927,5,0,0:0:0:0:
467,293,96280,1,0,0:0:0:0:
481,139,96633,1,0,0:0:0:0:
433,213,96986,1,0,0:0:0:0:
199,52,97339,5,0,0:0:0:0:
67,85,97691,1,0,0:0:0:0:
30,248,98044,1,0,0:0:0:0:
179,384,98397,1,0,0:0:0:0:
249,188,98750,5,0,0:0:0:0:
259,185,99103,1,0,0:0:0:0:
262,195,99456,1,0,0:0:0:0:
252,198,99809,1,0,0:0:0:0:
256,192,100162,6,0,P|259:227|259:255,1,48.9999985046387
263,164,100515,2,0,P|263:188|266:212,1,48.9999985046387
170,26,100868,5,0,0:0:0:0:
237,63,101045,1,0,0:0:0:0:
256,136,101221,2,0,P|259:171|259:199,1,48.9999985046387
171,100,101574,5,0,0:0:0:0:
165,5,101751,1,0,0:0:0:0:
257,59,101927,2,0,P|258:94|257:122,1,48.9999985046387
279,183,102280,2,0,P|273:159|273:134,1,48.9999985046387
234,184,102633,2,0,P|242:143|241:122,1,48.9999985046387
227,269,102986,6,0,P|256:265|293:271,1,48.9999985046387
243,345,103339,2,0,P|225:321|211:286,1,48.9999985046387,0|0,0:3|0:3,0:3:0:0:
299,294,103692,2,0,P|287:321|264:350,1,48.9999985046387,0|0,0:3|0:3,0:3:0:0:
234,261,104045,5,0,0:0:0:0:
232,341,104221,1,0,0:0:0:0:
303,305,104397,2,0,P|292:266|248:250,1,89.2500017023087
226,334,104750,2,0,P|265:343|301:313,1,89.2500017023087,0|0,0:3|0:3,0:3:0:0:
249,249,105103,5,0,0:0:0:0:
220,324,105280,1,0,0:0:0:0:
300,315,105456,1,0,0:0:0:0:
36,189,105809,5,0,0:0:0:0:
74,260,105986,1,0,0:0:0:0:
51,186,106162,2,0,P|58:151|70:124,1,59.5000011348725
20,66,106515,2,0,P|51:48|79:40,1,59.5000011348725,0|0,0:3|0:0,0:0:0:0:
141,0,106868,2,0,P|172:18|200:26,1,59.5000011348725,0|0,0:3|0:0,0:0:0:0:
371,0,107221,6,0,P|340:18|312:26,1,59.5000011348725,0|0,0:3|0:0,0:0:0:0:
375,132,107574,1,0,0:0:0:0:
408,65,107750,1,0,0:0:0:0:
414,197,107927,2,0,P|406:248|419:275,1,59.5000011348725
354,310,108280,2,0,P|362:361|349:388,1,59.5000011348725
157,364,108633,5,0,0:3:0:0:
230,350,108809,1,0,0:3:0:0:
277,290,108985,1,0,0:3:0:0:
274,215,109162,1,0,0:3:0:0:
152,376,109339,5,0,0:3:0:0:
290,293,109515,1,0,0:3:0:0:
237,361,109691,1,0,0:3:0:0:
286,207,109868,1,0,0:3:0:0:
143,383,110045,6,0,L|54:356,1,59.5000011348725
299,307,110397,6,0,L|238:387,1,70
327,97,110750,6,0,L|370:201,1,83.9999974365235
101,25,111103,6,0,L|229:17,1,97.9999970092774
