osu file format v14

[General]
AudioFilename: audio.mp3
AudioLeadIn: 0
PreviewTime: -1
Countdown: 0
SampleSet: None
StackLeniency: 0.7
Mode: 0
LetterboxInBreaks: 0
WidescreenStoryboard: 0

[Editor]
DistanceSpacing: 1.6
BeatDivisor: 4
GridSize: 4
TimelineZoom: 1.6

[Metadata]
Title:Let You Down (Nightcore)
TitleUnicode:Let You Down (Nightcore)
Artist:NF
ArtistUnicode:NF
Creator:Ayachi Meme
Version:
Source:
Tags:
BeatmapID:1627966
BeatmapSetID:774571

[Difficulty]
HPDrainRate:6
CircleSize:4
OverallDifficulty:8.4
ApproachRate:9.3
SliderMultiplier:1.4
SliderTickRate:1

[Events]
//Background and Video events
//Break Periods
2,47688,57432
//Storyboard Layer 0 (Background)
//Storyboard Layer 1 (Fail)
//Storyboard Layer 2 (Pass)
//Storyboard Layer 3 (Foreground)
//Storyboard Sound Samples

[TimingPoints]
1154,361.990950226244,4,1,0,30,1,0
1154,-200,4,1,0,30,0,0
24321,-100,4,1,0,30,0,0
36629,-80,4,1,0,30,0,0
55814,-133.333333333333,4,1,0,30,0,0
70656,-80,4,1,0,30,0,0

[HitObjects]
136,260,1154,6,0,P|188:232|200:176,2,105
364,64,3205,5,0,0:0:0:0:
312,119,3386,2,0,L|328:88,1,35
367,108,3748,2,0,L|352:140,1,35
323,211,4110,2,0,P|374:214|416:184,1,105
228,128,5196,1,0,0:0:0:0:
292,268,6101,5,0,0:0:0:0:
288,280,6282,2,0,P|260:280|252:276,1,35
316,208,6644,2,0,P|344:208|352:212,1,35
236,196,7006,2,0,P|260:148|304:116,1,105
424,264,8092,1,0,0:0:0:0:
192,228,9841,6,0,P|152:252|92:240,1,105
192,88,10927,1,0,0:0:0:0:
232,296,11651,5,0,0:0:0:0:
332,220,11832,1,0,0:0:0:0:
216,208,12013,2,0,P|200:188|196:176,1,35
292,132,12375,2,0,P|294:106|300:95,1,35,0|0,3:0|3:0,3:0:0:0:
376,184,12737,2,0,P|352:208|276:220,1,105
120,124,13823,6,0,B|152:168|216:156|216:156|192:192|192:228,1,175
84,248,14909,6,0,L|84:284,1,35
140,284,15271,2,0,L|140:249,1,35
166,171,15633,2,0,P|111:156|56:172,1,116.666666666667
244,248,16719,6,0,B|304:232|304:232|260:184|288:124,1,175
392,148,17805,6,0,P|376:164|360:168,1,35
444,80,18167,2,0,P|460:96|464:112,1,35,0|0,3:0|3:0,3:0:0:0:
332,60,18529,2,0,P|296:88|224:92,1,116.666666666667
227,92,19615,1,0,0:0:0:0:
128,256,21063,6,0,L|120:236,1,11.6666666666667
212,260,21244,2,0,L|220:280,1,11.6666666666667,0|0,3:0|3:0,3:0:0:0:
236,152,21425,2,0,P|180:168|120:140,1,116.666666666667
127,147,22511,1,0,0:0:0:0:
256,192,23899,5,0,0:0:0:0:
488,176,24321,2,0,P|456:200|416:204,1,70
268,76,24683,1,0,0:0:0:0:
416,32,24864,1,0,0:0:0:0:
432,76,24954,1,0,0:0:0:0:
428,124,25045,1,0,0:0:0:0:
264,232,25226,1,0,0:0:0:0:
424,144,25407,1,0,0:0:0:0:
292,72,25588,1,0,0:0:0:0:
312,320,25769,1,0,0:0:0:0:
104,264,25950,5,0,0:0:0:0:
128,208,26040,1,0,0:0:0:0:
192,196,26131,1,0,0:0:0:0:
248,220,26221,1,0,0:0:0:0:
308,208,26312,1,0,0:0:0:0:
344,156,26402,1,0,0:0:0:0:
316,100,26493,1,0,0:0:0:0:
48,120,26673,5,0,0:0:0:0:
48,57,26764,1,0,0:0:0:0:
108,38,26854,1,0,0:0:0:0:
145,89,26945,1,0,0:0:0:0:
108,140,27035,1,0,0:0:0:0:
108,203,27126,1,0,0:0:0:0:
152,248,27217,1,0,0:0:0:0:
392,180,27398,1,0,0:3:0:0:
204,148,27579,1,0,0:3:0:0:
444,80,27760,1,0,0:0:0:0:
344,292,27941,6,0,P|296:296|256:284,1,70
476,256,28303,2,0,P|480:304|468:344,1,70,0|0,3:0|3:0,3:0:0:0:
312,208,28665,1,0,0:0:0:0:
408,72,28846,2,0,P|376:88|348:84,1,35
316,92,29027,5,0,0:0:0:0:
252,84,29117,1,0,0:0:0:0:
200,48,29208,1,0,0:0:0:0:
140,64,29298,1,0,0:0:0:0:
188,116,29389,5,0,0:0:0:0:
208,184,29479,1,0,0:0:0:0:
196,252,29570,1,0,0:0:0:0:
152,304,29660,1,0,0:0:0:0:
84,288,29751,2,0,P|60:264|60:232,1,35
58,97,29932,2,0,P|82:121|82:153,1,35
124,188,30113,5,0,0:0:0:0:
196,212,30203,1,0,0:0:0:0:
272,200,30294,1,0,0:0:0:0:
324,144,30384,1,0,0:0:0:0:
316,68,30475,5,0,0:0:0:0:
280,144,30565,1,0,0:0:0:0:
316,220,30656,1,0,0:0:0:0:
288,300,30746,1,0,0:0:0:0:
208,328,30837,5,0,0:0:0:0:
168,24,31018,1,0,0:0:0:0:
112,248,31199,1,0,0:0:0:0:
368,224,31380,1,0,0:0:0:0:
96,228,31561,5,0,0:0:0:0:
328,232,31742,1,0,0:0:0:0:
336,164,31832,1,0,0:0:0:0:
300,104,31923,1,0,0:0:0:0:
208,360,32104,1,0,0:0:0:0:
244,60,32285,5,0,0:0:0:0:
296,244,32466,1,0,0:0:0:0:
128,44,32647,2,0,L|156:80,1,35
304,124,32828,2,0,L|282:96,1,35
216,16,33009,5,0,0:0:0:0:
232,84,33099,1,0,0:0:0:0:
204,148,33190,1,0,0:0:0:0:
148,192,33280,1,0,0:0:0:0:
148,264,33371,5,0,0:0:0:0:
208,300,33461,1,0,0:0:0:0:
268,264,33552,1,0,0:0:0:0:
280,196,33642,1,0,0:0:0:0:
336,156,33733,5,0,0:0:0:0:
136,84,33914,1,0,0:0:0:0:
112,148,34004,1,0,0:0:0:0:
124,216,34095,1,0,0:0:0:0:
416,220,34276,1,0,0:0:0:0:
136,84,34457,1,0,0:0:0:0:
440,104,34819,5,0,0:0:0:0:
328,240,35000,1,0,0:0:0:0:
328,240,35090,1,0,0:0:0:0:
328,240,35181,1,0,0:0:0:0:
216,76,35362,1,0,0:0:0:0:
200,208,35543,1,0,0:0:0:0:
376,68,35724,1,0,0:0:0:0:
188,276,35905,5,0,0:0:0:0:
216,120,36086,1,0,0:0:0:0:
404,124,36267,1,0,0:0:0:0:
376,280,36448,1,0,0:0:0:0:
376,280,36629,6,0,P|300:268|272:244,1,87.5
312,12,36991,2,0,L|280:60,1,43.75
336,56,37172,2,0,L|304:104,1,43.75
216,248,37353,5,0,0:0:0:0:
420,208,37534,1,0,0:0:0:0:
232,280,37715,1,0,0:0:0:0:
364,88,37896,1,0,0:0:0:0:
204,220,38077,6,0,P|167:172|171:132,1,87.5
432,112,38439,2,0,L|456:124,1,21.875
352,204,38620,2,0,L|333:194,1,21.875
396,60,38801,5,0,0:0:0:0:
120,176,38982,1,0,0:0:0:0:
256,288,39163,1,0,0:0:0:0:
140,84,39344,1,0,0:0:0:0:
80,88,39434,1,0,0:0:0:0:
36,132,39525,5,0,0:0:0:0:
276,256,39706,1,0,0:0:0:0:
72,236,39887,1,0,0:0:0:0:
140,84,40068,1,0,0:0:0:0:
201,302,40249,6,0,L|244:292,1,43.75
244,180,40430,2,0,L|201:169,1,43.75
402,282,40611,6,0,L|360:272,1,43.75
360,136,40792,2,0,L|408:124,1,43.75
157,258,40973,6,0,L|200:248,1,43.75
200,92,41154,2,0,L|152:80,1,43.75
40,56,41334,1,0,0:0:0:0:
344,48,41515,1,0,0:0:0:0:
148,296,41696,5,0,0:0:0:0:
352,192,41877,1,0,0:0:0:0:
240,364,42058,1,0,0:0:0:0:
144,120,42239,1,0,0:0:0:0:
256,344,42420,5,0,0:0:0:0:
184,56,42601,1,0,0:0:0:0:
328,104,42782,5,0,0:0:0:0:
320,140,42873,1,0,0:0:0:0:
352,220,42963,5,0,0:0:0:0:
360,256,43054,1,0,0:0:0:0:
328,336,43144,5,0,0:0:0:0:
164,240,43325,1,0,0:0:0:0:
340,152,43506,5,0,0:0:0:0:
132,220,43687,1,0,0:0:0:0:
300,352,43868,5,0,0:0:0:0:
232,36,44049,1,0,0:0:0:0:
104,224,44230,6,0,L|76:216,1,21.875
70,106,44411,2,0,L|98:98,1,21.875
164,256,44592,5,0,0:0:0:0:
208,80,44773,1,0,0:0:0:0:
276,284,44954,5,0,0:0:0:0:
148,76,45135,1,0,0:0:0:0:
92,100,45226,1,0,0:0:0:0:
60,152,45316,1,0,0:0:0:0:
328,124,45497,5,0,0:0:0:0:
120,212,45678,1,0,0:0:0:0:
284,48,45859,1,0,0:0:0:0:
232,348,46040,1,0,0:0:0:0:
392,244,46221,5,0,0:0:0:0:
332,228,46312,1,0,0:0:0:0:
276,212,46402,5,0,0:0:0:0:
224,200,46493,1,0,0:0:0:0:
176,188,46583,1,0,0:0:0:0:
132,176,46674,1,0,0:0:0:0:
96,164,46764,6,0,L|52:152,1,43.75
220,100,46945,1,0,0:0:0:0:
416,164,47126,6,0,L|460:152,1,43.75
292,100,47307,1,0,0:0:0:0:
256,244,47488,5,0,0:0:0:0:
132,136,57986,5,0,0:0:0:0:
256,176,58167,1,0,0:0:0:0:
144,236,58348,2,0,P|108:236|84:220,1,52.5000020027161
256,248,58710,2,0,P|265:272|263:298,1,52.5000020027161,0|0,3:0|3:0,3:0:0:0:
464,164,59072,2,0,P|408:188|308:152,2,157.500006008148
116,72,61063,5,0,0:0:0:0:
112,192,61244,2,0,P|144:192|184:176,1,52.5000020027161
332,140,61606,2,0,P|300:140|260:124,1,52.5000020027161
388,68,61968,2,0,P|416:124|376:216,2,157.500006008148
152,312,63959,5,0,0:0:0:0:
104,176,64140,2,0,L|124:232,1,52.5000020027161
176,124,64502,2,0,P|148:100|112:88,1,52.5000020027161
200,208,64864,2,0,P|248:172|336:204,2,157.500006008148
192,64,67398,6,0,L|196:92,1,17.500000667572
300,136,67579,2,0,L|296:116,1,17.500000667572
204,156,67760,2,0,P|252:224|344:228,2,157.500006008148
