osu file format v14

[General]
AudioFilename: audio.mp3
AudioLeadIn: 0
PreviewTime: 38830
Countdown: 0
SampleSet: Soft
StackLeniency: 0.7
Mode: 3
LetterboxInBreaks: 0
SpecialStyle: 0
WidescreenStoryboard: 0

[Editor]
Bookmarks: 75017
DistanceSpacing: 0.9
BeatDivisor: 4
GridSize: 8
TimelineZoom: 1.9

[Metadata]
Title:luke_area
TitleUnicode:luke_area
Artist:NEXON
ArtistUnicode:NEXON
Creator:ZZHBOY
Version:Hard
Source:Dungeon & Fighter
Tags:
BeatmapID:1386394
BeatmapSetID:654021

[Difficulty]
HPDrainRate:7
CircleSize:7
OverallDifficulty:8
ApproachRate:5
SliderMultiplier:1.4
SliderTickRate:1

[Events]
//Background and Video events
0,0,"dnf2.jpg",0,0
//Break Periods
//Storyboard Layer 0 (Background)
//Storyboard Layer 1 (Fail)
//Storyboard Layer 2 (Pass)
//Storyboard Layer 3 (Foreground)
//Storyboard Sound Samples

[TimingPoints]
19,374.990625234369,4,2,1,30,1,0

[HitObjects]
51,192,19,128,0,6018:0:0:0:0:
475,192,5643,128,0,6018:0:0:0:0:
256,192,6018,1,4,0:0:0:0:
109,192,6018,1,2,0:0:0:0:
402,192,6018,1,0,0:0:0:0:
182,192,6393,1,0,0:0:0:0:
402,192,6581,1,0,0:0:0:0:
256,192,6768,1,0,0:0:0:0:
402,192,6768,1,0,0:0:0:0:
36,192,6956,1,0,0:0:0:0:
329,192,7143,1,0,0:0:0:0:
182,192,7331,1,0,0:0:0:0:
182,192,7518,1,0,0:0:0:0:
402,192,7518,1,0,0:0:0:0:
329,192,7893,1,0,0:0:0:0:
182,192,8081,1,0,0:0:0:0:
475,192,8081,1,0,0:0:0:0:
182,192,8268,1,0,0:0:0:0:
475,192,8268,1,0,0:0:0:0:
109,192,8456,1,0,0:0:0:0:
256,192,8643,1,0,0:0:0:0:
402,192,8831,1,0,0:0:0:0:
402,192,9018,1,8,0:0:0:0:
182,192,9018,1,0,0:0:0:0:
36,192,9018,1,0,0:0:0:0:
256,192,9206,1,0,0:0:0:0:
109,192,9393,1,0,0:0:0:0:
329,192,9581,1,0,0:0:0:0:
329,192,9768,1,0,0:0:0:0:
475,192,9768,1,0,0:0:0:0:
109,192,9956,1,0,0:0:0:0:
256,192,9956,1,0,0:0:0:0:
109,192,10143,1,0,0:0:0:0:
256,192,10143,1,0,0:0:0:0:
402,192,10331,1,0,0:0:0:0:
36,192,10518,1,0,0:0:0:0:
329,192,10518,1,0,0:0:0:0:
256,192,10893,1,0,0:0:0:0:
402,192,11081,1,0,0:0:0:0:
182,192,11081,1,0,0:0:0:0:
402,192,11268,1,0,0:0:0:0:
182,192,11268,1,0,0:0:0:0:
402,192,11456,1,0,0:0:0:0:
36,192,11643,1,0,0:0:0:0:
475,192,11831,1,0,0:0:0:0:
475,192,12018,1,0,0:0:0:0:
256,192,12018,1,0,0:0:0:0:
109,192,12018,1,8,0:0:0:0:
329,192,12206,1,0,0:0:0:0:
182,192,12393,1,0,0:0:0:0:
402,192,12581,1,0,0:0:0:0:
109,192,12768,1,0,0:0:0:0:
256,192,12768,1,0,0:0:0:0:
475,192,12768,128,0,15018:0:0:0:0:
109,192,12956,1,0,0:0:0:0:
256,192,12956,1,0,0:0:0:0:
329,192,13143,1,0,0:0:0:0:
182,192,13331,1,0,0:0:0:0:
36,192,13518,1,0,0:0:0:0:
402,192,13518,1,0,0:0:0:0:
182,192,13893,1,0,0:0:0:0:
329,192,13893,1,0,0:0:0:0:
182,192,14081,1,0,0:0:0:0:
402,192,14081,1,0,0:0:0:0:
36,192,14268,1,0,0:0:0:0:
182,192,14268,1,0,0:0:0:0:
256,192,14456,1,0,0:0:0:0:
329,192,14643,1,0,0:0:0:0:
36,192,14831,1,0,0:0:0:0:
36,192,15018,1,0,0:0:0:0:
402,192,15018,1,8,0:0:0:0:
182,192,15018,1,0,0:0:0:0:
256,192,15206,1,0,0:0:0:0:
475,192,15393,1,0,0:0:0:0:
329,192,15393,1,0,0:0:0:0:
109,192,15581,1,0,0:0:0:0:
402,192,15768,1,0,0:0:0:0:
109,192,15768,1,0,0:0:0:0:
402,192,15956,1,0,0:0:0:0:
256,192,16143,1,0,0:0:0:0:
402,192,16143,1,0,0:0:0:0:
475,192,16331,1,0,0:0:0:0:
36,192,16518,1,0,0:0:0:0:
329,192,16518,1,0,0:0:0:0:
256,192,16893,1,0,0:0:0:0:
402,192,16893,1,0,0:0:0:0:
402,192,17081,1,0,0:0:0:0:
109,192,17081,1,0,0:0:0:0:
475,192,17268,1,0,0:0:0:0:
109,192,17268,1,0,0:0:0:0:
475,192,17456,1,0,0:0:0:0:
182,192,17456,1,0,0:0:0:0:
475,192,17643,1,0,0:0:0:0:
36,192,17643,1,0,0:0:0:0:
182,192,17831,1,0,0:0:0:0:
329,192,18018,1,2,0:0:0:0:
475,192,18018,1,0,0:0:0:0:
109,192,18018,1,0,0:0:0:0:
36,192,18393,1,0,0:0:0:0:
329,192,18393,1,0,0:0:0:0:
402,192,18581,1,0,0:0:0:0:
402,192,18768,1,0,0:0:0:0:
182,192,18768,1,0,0:0:0:0:
36,192,18768,128,0,21018:0:0:0:0:
329,192,18956,1,0,0:0:0:0:
256,192,19143,1,0,0:0:0:0:
475,192,19331,1,0,0:0:0:0:
182,192,19518,1,0,0:0:0:0:
329,192,19518,1,0,0:0:0:0:
109,192,19893,1,0,0:0:0:0:
402,192,19893,1,0,0:0:0:0:
402,192,20080,1,0,0:0:0:0:
256,192,20268,1,0,0:0:0:0:
329,192,20455,1,0,0:0:0:0:
182,192,20643,1,0,0:0:0:0:
402,192,20830,1,0,0:0:0:0:
256,192,20830,1,0,0:0:0:0:
256,192,21018,1,0,0:0:0:0:
475,192,21018,1,0,0:0:0:0:
109,192,21393,1,0,0:0:0:0:
329,192,21393,1,0,0:0:0:0:
475,192,21580,1,0,0:0:0:0:
36,192,21580,1,0,0:0:0:0:
475,192,21768,1,0,0:0:0:0:
182,192,21768,1,0,0:0:0:0:
182,192,21955,1,0,0:0:0:0:
182,192,22143,1,0,0:0:0:0:
329,192,22143,1,0,0:0:0:0:
36,192,22330,1,0,0:0:0:0:
36,192,22518,1,0,0:0:0:0:
475,192,22518,1,0,0:0:0:0:
182,192,22893,1,0,0:0:0:0:
475,192,22893,1,0,0:0:0:0:
329,192,23080,1,0,0:0:0:0:
36,192,23080,1,0,0:0:0:0:
475,192,23268,1,0,0:0:0:0:
36,192,23268,1,0,0:0:0:0:
475,192,23455,1,0,0:0:0:0:
182,192,23455,1,0,0:0:0:0:
329,192,23643,1,0,0:0:0:0:
256,192,23830,1,0,0:0:0:0:
36,192,23924,1,0,0:0:0:0:
109,192,23971,1,0,0:0:0:0:
475,192,24018,1,0,0:0:0:0:
182,192,24018,1,0,0:0:0:0:
402,192,24018,1,0,0:0:0:0:
329,192,24018,1,2,0:0:0:0:
36,192,24393,1,0,0:0:0:0:
402,192,24580,1,0,0:0:0:0:
475,192,24768,1,0,0:0:0:0:
329,192,24768,128,0,26643:0:0:0:0:
36,192,24768,1,0,0:0:0:0:
182,192,24955,1,0,0:0:0:0:
109,192,25143,1,0,0:0:0:0:
402,192,25330,1,0,0:0:0:0:
36,192,25518,1,0,0:0:0:0:
182,192,25518,1,0,0:0:0:0:
402,192,25518,1,0,0:0:0:0:
475,192,25705,1,0,0:0:0:0:
256,192,25705,1,2,0:0:0:0:
109,192,25893,1,0,0:0:0:0:
475,192,26080,1,0,0:0:0:0:
36,192,26080,1,0,0:0:0:0:
475,192,26268,1,0,0:0:0:0:
36,192,26268,1,0,0:0:0:0:
402,192,26455,1,0,0:0:0:0:
256,192,26643,1,0,0:0:0:0:
182,192,26830,1,0,0:0:0:0:
182,192,27018,1,0,0:0:0:0:
329,192,27018,1,2,0:0:0:0:
475,192,27018,1,0,0:0:0:0:
36,192,27018,1,0,0:0:0:0:
256,192,27205,1,0,0:0:0:0:
402,192,27393,1,0,0:0:0:0:
182,192,27580,1,0,0:0:0:0:
182,192,27768,1,0,0:0:0:0:
36,192,27768,1,0,0:0:0:0:
329,192,27768,1,0,0:0:0:0:
475,192,27955,1,0,0:0:0:0:
256,192,27955,1,0,0:0:0:0:
475,192,28143,1,0,0:0:0:0:
256,192,28143,1,0,0:0:0:0:
109,192,28330,1,0,0:0:0:0:
402,192,28518,1,0,0:0:0:0:
182,192,28518,1,0,0:0:0:0:
329,192,28518,1,0,0:0:0:0:
36,192,28705,1,0,0:0:0:0:
475,192,28705,1,2,0:0:0:0:
256,192,28893,1,0,0:0:0:0:
182,192,29080,1,0,0:0:0:0:
329,192,29080,1,0,0:0:0:0:
109,192,29268,1,0,0:0:0:0:
329,192,29268,1,0,0:0:0:0:
475,192,29268,1,2,0:0:0:0:
36,192,29455,1,0,0:0:0:0:
256,192,29643,1,0,0:0:0:0:
329,192,29830,1,0,0:0:0:0:
36,192,30018,1,0,0:0:0:0:
402,192,30018,1,2,0:0:0:0:
256,192,30018,1,0,0:0:0:0:
182,192,30018,1,0,0:0:0:0:
475,192,30205,1,0,0:0:0:0:
36,192,30393,1,0,0:0:0:0:
182,192,30580,1,0,0:0:0:0:
475,192,30768,1,0,0:0:0:0:
329,192,30768,1,0,0:0:0:0:
36,192,30768,128,0,32643:0:0:0:0:
182,192,30955,1,0,0:0:0:0:
402,192,31143,1,0,0:0:0:0:
256,192,31143,1,0,0:0:0:0:
109,192,31330,1,0,0:0:0:0:
329,192,31518,1,0,0:0:0:0:
109,192,31518,1,0,0:0:0:0:
475,192,31518,1,0,0:0:0:0:
402,192,31705,1,2,0:0:0:0:
256,192,31705,1,0,0:0:0:0:
182,192,31893,1,0,0:0:0:0:
475,192,31893,1,0,0:0:0:0:
329,192,32080,1,0,0:0:0:0:
109,192,32080,1,0,0:0:0:0:
475,192,32268,1,0,0:0:0:0:
256,192,32268,1,0,0:0:0:0:
329,192,32455,1,0,0:0:0:0:
182,192,32643,1,0,0:0:0:0:
402,192,32830,1,0,0:0:0:0:
109,192,32830,1,0,0:0:0:0:
182,192,33018,1,0,0:0:0:0:
36,192,33018,1,0,0:0:0:0:
329,192,33018,1,0,0:0:0:0:
475,192,33018,1,2,0:0:0:0:
256,192,33768,1,0,0:0:0:0:
36,192,33768,1,0,0:0:0:0:
402,192,33768,1,2,0:0:0:0:
182,192,33768,1,0,0:0:0:0:
329,192,34518,1,0,0:0:0:0:
182,192,34518,1,0,0:0:0:0:
36,192,34518,1,0,0:0:0:0:
475,192,34518,1,2,0:0:0:0:
182,192,35268,1,0,0:0:0:0:
256,192,35268,1,0,0:0:0:0:
36,192,35268,1,0,0:0:0:0:
402,192,35268,1,2,0:0:0:0:
475,192,36018,1,2,0:0:0:0:
36,192,36018,1,0,0:0:0:0:
475,192,36205,1,0,0:0:0:0:
475,192,36580,1,0,0:0:0:0:
475,192,36768,128,0,36955:0:0:0:0:
475,192,37143,128,0,37518:0:0:0:0:
475,192,38268,128,0,38830:0:0:0:0:
402,192,39018,1,0,0:0:0:0:
256,192,39018,1,2,0:0:0:0:
182,192,39018,1,4,0:0:0:0:
36,192,39018,1,0,0:0:0:0:
109,192,39205,1,0,0:0:0:0:
329,192,39205,1,0,0:0:0:0:
36,192,39393,1,0,0:0:0:0:
256,192,39393,1,0,0:0:0:0:
109,192,39580,1,0,0:0:0:0:
329,192,39580,1,0,0:0:0:0:
402,192,39768,1,0,0:0:0:0:
256,192,39768,1,0,0:0:0:0:
329,192,39955,1,0,0:0:0:0:
182,192,39955,1,0,0:0:0:0:
109,192,40142,1,0,0:0:0:0:
256,192,40142,1,0,0:0:0:0:
182,192,40330,1,0,0:0:0:0:
329,192,40330,1,0,0:0:0:0:
109,192,40517,1,0,0:0:0:0:
256,192,40517,1,0,0:0:0:0:
402,192,40517,1,2,0:0:0:0:
182,192,40705,1,0,0:0:0:0:
329,192,40705,1,0,0:0:0:0:
402,192,40892,1,0,0:0:0:0:
256,192,40892,1,0,0:0:0:0:
182,192,41080,1,0,0:0:0:0:
36,192,41080,1,0,0:0:0:0:
329,192,41080,1,8,0:0:0:0:
475,192,41267,1,0,0:0:0:0:
256,192,41267,1,0,0:0:0:0:
329,192,41455,1,0,0:0:0:0:
109,192,41455,1,0,0:0:0:0:
182,192,41642,1,0,0:0:0:0:
402,192,41642,1,0,0:0:0:0:
256,192,41736,1,0,0:0:0:0:
329,192,41830,1,0,0:0:0:0:
109,192,41830,1,0,0:0:0:0:
402,192,41924,1,0,0:0:0:0:
36,192,42017,1,0,0:0:0:0:
475,192,42017,1,8,0:0:0:0:
256,192,42017,1,2,0:0:0:0:
329,192,42205,1,0,0:0:0:0:
109,192,42205,1,0,0:0:0:0:
256,192,42392,1,0,0:0:0:0:
36,192,42392,1,0,0:0:0:0:
109,192,42580,1,0,0:0:0:0:
329,192,42580,1,0,0:0:0:0:
182,192,42767,1,0,0:0:0:0:
402,192,42767,1,0,0:0:0:0:
36,192,42955,1,0,0:0:0:0:
329,192,42955,1,0,0:0:0:0:
109,192,43142,1,0,0:0:0:0:
402,192,43142,1,0,0:0:0:0:
182,192,43330,1,0,0:0:0:0:
475,192,43330,1,0,0:0:0:0:
256,192,43517,1,0,0:0:0:0:
36,192,43517,1,0,0:0:0:0:
402,192,43517,1,2,0:0:0:0:
329,192,43705,1,0,0:0:0:0:
109,192,43705,1,0,0:0:0:0:
182,192,43892,1,0,0:0:0:0:
402,192,43892,1,0,0:0:0:0:
36,192,44080,1,0,0:0:0:0:
109,192,44080,1,0,0:0:0:0:
475,192,44080,1,2,0:0:0:0:
256,192,44267,1,0,0:0:0:0:
475,192,44267,1,0,0:0:0:0:
182,192,44455,1,0,0:0:0:0:
36,192,44455,1,0,0:0:0:0:
475,192,44642,1,0,0:0:0:0:
329,192,44642,1,0,0:0:0:0:
182,192,44736,1,0,0:0:0:0:
36,192,44830,1,0,0:0:0:0:
402,192,44830,1,0,0:0:0:0:
256,192,44924,1,0,0:0:0:0:
475,192,45017,1,8,0:0:0:0:
36,192,45017,1,0,0:0:0:0:
109,192,45017,1,2,0:0:0:0:
402,192,45205,1,0,0:0:0:0:
182,192,45205,1,0,0:0:0:0:
109,192,45392,1,0,0:0:0:0:
329,192,45392,1,0,0:0:0:0:
182,192,45580,1,0,0:0:0:0:
475,192,45580,1,0,0:0:0:0:
402,192,45767,1,0,0:0:0:0:
256,192,45767,1,0,0:0:0:0:
182,192,45955,1,0,0:0:0:0:
329,192,45955,1,0,0:0:0:0:
109,192,46142,1,0,0:0:0:0:
256,192,46142,1,0,0:0:0:0:
329,192,46330,1,0,0:0:0:0:
182,192,46330,1,0,0:0:0:0:
256,192,46517,1,2,0:0:0:0:
475,192,46517,1,0,0:0:0:0:
36,192,46517,1,0,0:0:0:0:
402,192,46705,1,0,0:0:0:0:
182,192,46705,1,0,0:0:0:0:
329,192,46892,1,0,0:0:0:0:
475,192,46892,1,0,0:0:0:0:
182,192,47080,1,0,0:0:0:0:
36,192,47080,1,0,0:0:0:0:
402,192,47080,1,2,0:0:0:0:
475,192,47267,1,8,0:0:0:0:
256,192,47267,1,0,0:0:0:0:
182,192,47455,1,0,0:0:0:0:
475,192,47455,1,0,0:0:0:0:
36,192,47642,1,0,0:0:0:0:
329,192,47642,1,0,0:0:0:0:
402,192,47736,1,0,0:0:0:0:
475,192,47830,1,0,0:0:0:0:
182,192,47830,1,0,0:0:0:0:
109,192,47924,1,0,0:0:0:0:
36,192,48017,1,0,0:0:0:0:
329,192,48017,1,0,0:0:0:0:
475,192,48017,1,2,0:0:0:0:
182,192,48205,1,0,0:0:0:0:
402,192,48205,1,0,0:0:0:0:
36,192,48392,1,0,0:0:0:0:
402,192,48392,1,0,0:0:0:0:
182,192,48580,1,0,0:0:0:0:
402,192,48580,1,0,0:0:0:0:
256,192,48767,1,0,0:0:0:0:
475,192,48767,1,0,0:0:0:0:
109,192,48955,1,0,0:0:0:0:
329,192,48955,1,0,0:0:0:0:
256,192,49142,1,0,0:0:0:0:
36,192,49142,1,0,0:0:0:0:
329,192,49330,1,0,0:0:0:0:
109,192,49330,1,0,0:0:0:0:
36,192,49517,1,2,0:0:0:0:
475,192,49517,128,0,51017:0:0:0:0:
182,192,49517,1,8,0:0:0:0:
256,192,49892,1,0,0:0:0:0:
402,192,49892,1,0,0:0:0:0:
36,192,50267,1,0,0:0:0:0:
182,192,50267,1,0,0:0:0:0:
256,192,50642,1,0,0:0:0:0:
109,192,50642,1,0,0:0:0:0:
329,192,50736,1,0,0:0:0:0:
182,192,50830,1,0,0:0:0:0:
329,192,50923,1,0,0:0:0:0:
182,192,51017,1,2,0:0:0:0:
36,192,51017,1,4,0:0:0:0:
402,192,51017,1,0,0:0:0:0:
109,192,51205,1,0,0:0:0:0:
402,192,51205,1,0,0:0:0:0:
475,192,51392,1,0,0:0:0:0:
182,192,51580,1,0,0:0:0:0:
329,192,51580,1,0,0:0:0:0:
329,192,51767,1,0,0:0:0:0:
182,192,51767,1,0,0:0:0:0:
256,192,51955,1,0,0:0:0:0:
182,192,52142,1,0,0:0:0:0:
36,192,52142,1,0,0:0:0:0:
182,192,52330,1,0,0:0:0:0:
36,192,52330,1,0,0:0:0:0:
109,192,52517,1,0,0:0:0:0:
475,192,52517,1,2,0:0:0:0:
329,192,52517,1,0,0:0:0:0:
256,192,52705,1,0,0:0:0:0:
402,192,52705,1,0,0:0:0:0:
402,192,52892,1,0,0:0:0:0:
256,192,52892,1,0,0:0:0:0:
109,192,53080,1,0,0:0:0:0:
256,192,53267,1,0,0:0:0:0:
36,192,53267,1,0,0:0:0:0:
182,192,53455,1,0,0:0:0:0:
109,192,53642,1,0,0:0:0:0:
475,192,53642,1,0,0:0:0:0:
182,192,53736,1,0,0:0:0:0:
256,192,53830,1,0,0:0:0:0:
329,192,53923,1,0,0:0:0:0:
182,192,54017,1,0,0:0:0:0:
36,192,54017,1,2,0:0:0:0:
402,192,54017,1,0,0:0:0:0:
182,192,54205,1,0,0:0:0:0:
402,192,54205,1,0,0:0:0:0:
256,192,54392,1,0,0:0:0:0:
329,192,54580,1,0,0:0:0:0:
109,192,54580,1,0,0:0:0:0:
329,192,54767,1,0,0:0:0:0:
109,192,54767,1,0,0:0:0:0:
182,192,54955,1,0,0:0:0:0:
36,192,55142,1,0,0:0:0:0:
256,192,55142,1,0,0:0:0:0:
36,192,55330,1,0,0:0:0:0:
256,192,55330,1,0,0:0:0:0:
329,192,55517,1,0,0:0:0:0:
109,192,55517,1,0,0:0:0:0:
475,192,55517,1,2,0:0:0:0:
182,192,55705,1,0,0:0:0:0:
402,192,55705,1,0,0:0:0:0:
402,192,55892,1,0,0:0:0:0:
182,192,55892,1,0,0:0:0:0:
256,192,56080,1,0,0:0:0:0:
36,192,56267,128,0,57017:0:0:0:0:
329,192,56267,1,0,0:0:0:0:
182,192,56267,1,0,0:0:0:0:
402,192,56455,1,0,0:0:0:0:
182,192,56642,1,0,0:0:0:0:
475,192,56642,1,0,0:0:0:0:
402,192,56736,1,0,0:0:0:0:
329,192,56830,1,0,0:0:0:0:
256,192,56923,1,0,0:0:0:0:
182,192,57017,1,2,0:0:0:0:
109,192,57017,1,0,0:0:0:0:
475,192,57017,128,0,57392:0:0:0:0:
109,192,57205,1,0,0:0:0:0:
182,192,57205,1,0,0:0:0:0:
256,192,57392,1,0,0:0:0:0:
182,192,57580,128,0,60017:0:0:0:0:
475,192,57580,1,0,0:0:0:0:
329,192,57580,1,0,0:0:0:0:
329,192,57767,1,0,0:0:0:0:
475,192,57767,1,0,0:0:0:0:
109,192,57955,1,0,0:0:0:0:
402,192,58142,1,0,0:0:0:0:
256,192,58142,1,0,0:0:0:0:
402,192,58330,1,0,0:0:0:0:
256,192,58330,1,0,0:0:0:0:
329,192,58517,1,0,0:0:0:0:
475,192,58517,1,0,0:0:0:0:
36,192,58517,1,2,0:0:0:0:
402,192,58705,1,0,0:0:0:0:
109,192,58705,1,0,0:0:0:0:
402,192,58892,1,0,0:0:0:0:
109,192,58892,1,0,0:0:0:0:
475,192,59080,1,0,0:0:0:0:
329,192,59267,1,0,0:0:0:0:
36,192,59267,1,0,0:0:0:0:
402,192,59455,1,0,0:0:0:0:
329,192,59642,1,0,0:0:0:0:
109,192,59642,1,0,0:0:0:0:
475,192,59736,1,0,0:0:0:0:
36,192,59830,1,0,0:0:0:0:
256,192,59923,1,0,0:0:0:0:
329,192,60017,1,0,0:0:0:0:
475,192,60017,1,0,0:0:0:0:
36,192,60017,1,2,0:0:0:0:
329,192,60204,1,0,0:0:0:0:
475,192,60204,1,0,0:0:0:0:
329,192,60392,128,0,62454:0:0:0:0:
182,192,60392,1,0,0:0:0:0:
36,192,60579,1,0,0:0:0:0:
402,192,60579,1,0,0:0:0:0:
36,192,60767,1,0,0:0:0:0:
402,192,60767,1,0,0:0:0:0:
475,192,60954,1,0,0:0:0:0:
182,192,61142,1,0,0:0:0:0:
109,192,61142,1,0,0:0:0:0:
109,192,61329,1,0,0:0:0:0:
182,192,61329,1,0,0:0:0:0:
256,192,61517,1,0,0:0:0:0:
402,192,61517,1,0,0:0:0:0:
475,192,61517,1,2,0:0:0:0:
36,192,61704,1,0,0:0:0:0:
182,192,61704,1,0,0:0:0:0:
182,192,61892,1,0,0:0:0:0:
36,192,61892,1,0,0:0:0:0:
475,192,62079,1,0,0:0:0:0:
36,192,62267,1,0,0:0:0:0:
256,192,62267,1,0,0:0:0:0:
109,192,62454,1,0,0:0:0:0:
182,192,62454,128,0,63017:0:0:0:0:
475,192,62642,1,0,0:0:0:0:
36,192,62642,1,0,0:0:0:0:
402,192,62736,1,0,0:0:0:0:
329,192,62829,1,0,0:0:0:0:
256,192,62923,1,0,0:0:0:0:
475,192,63017,128,0,66017:0:0:0:0:
402,192,63017,1,4,0:0:0:0:
36,192,63017,1,2,0:0:0:0:
109,192,63017,1,0,0:0:0:0:
182,192,63204,1,0,0:0:0:0:
329,192,63204,1,0,0:0:0:0:
109,192,63392,1,0,0:0:0:0:
402,192,63579,1,0,0:0:0:0:
256,192,63579,1,0,0:0:0:0:
256,192,63767,1,0,0:0:0:0:
402,192,63767,1,0,0:0:0:0:
36,192,63954,1,0,0:0:0:0:
329,192,64142,1,0,0:0:0:0:
109,192,64142,1,0,0:0:0:0:
329,192,64329,1,0,0:0:0:0:
109,192,64329,1,0,0:0:0:0:
182,192,64517,1,0,0:0:0:0:
36,192,64517,1,2,0:0:0:0:
402,192,64517,1,0,0:0:0:0:
256,192,64704,1,0,0:0:0:0:
109,192,64704,1,0,0:0:0:0:
109,192,64892,1,0,0:0:0:0:
256,192,64892,1,0,0:0:0:0:
329,192,65079,1,0,0:0:0:0:
402,192,65267,1,0,0:0:0:0:
36,192,65267,1,0,0:0:0:0:
329,192,65454,1,0,0:0:0:0:
256,192,65642,1,0,0:0:0:0:
36,192,65642,1,0,0:0:0:0:
109,192,65736,1,0,0:0:0:0:
182,192,65829,1,0,0:0:0:0:
256,192,65923,1,0,0:0:0:0:
329,192,66017,1,0,0:0:0:0:
36,192,66017,1,0,0:0:0:0:
182,192,66017,1,2,0:0:0:0:
36,192,66204,1,0,0:0:0:0:
329,192,66204,1,0,0:0:0:0:
182,192,66392,128,0,67892:0:0:0:0:
402,192,66392,1,0,0:0:0:0:
475,192,66579,1,0,0:0:0:0:
109,192,66579,1,0,0:0:0:0:
475,192,66767,1,0,0:0:0:0:
109,192,66767,1,0,0:0:0:0:
256,192,66954,1,0,0:0:0:0:
329,192,67142,1,0,0:0:0:0:
36,192,67142,1,0,0:0:0:0:
329,192,67329,1,0,0:0:0:0:
36,192,67329,1,0,0:0:0:0:
475,192,67517,1,2,0:0:0:0:
256,192,67517,1,0,0:0:0:0:
109,192,67704,1,0,0:0:0:0:
329,192,67704,1,0,0:0:0:0:
109,192,67892,1,0,0:0:0:0:
329,192,67892,1,0,0:0:0:0:
256,192,68079,1,0,0:0:0:0:
475,192,68267,128,0,69017:0:0:0:0:
329,192,68267,1,0,0:0:0:0:
182,192,68267,1,0,0:0:0:0:
109,192,68454,1,0,0:0:0:0:
329,192,68642,1,0,0:0:0:0:
36,192,68642,1,0,0:0:0:0:
256,192,68736,1,0,0:0:0:0:
182,192,68829,1,0,0:0:0:0:
109,192,68923,1,0,0:0:0:0:
182,192,69017,1,0,0:0:0:0:
256,192,69017,1,0,0:0:0:0:
36,192,69017,1,4,0:0:0:0:
402,192,69017,1,2,0:0:0:0:
182,192,69204,1,0,0:0:0:0:
402,192,69204,1,0,0:0:0:0:
36,192,69392,128,0,72017:0:0:0:0:
475,192,69392,1,0,0:0:0:0:
329,192,69579,1,0,0:0:0:0:
109,192,69579,1,0,0:0:0:0:
329,192,69767,1,0,0:0:0:0:
109,192,69767,1,0,0:0:0:0:
402,192,69954,1,0,0:0:0:0:
475,192,70142,1,0,0:0:0:0:
256,192,70142,1,0,0:0:0:0:
475,192,70329,1,0,0:0:0:0:
256,192,70329,1,0,0:0:0:0:
109,192,70517,1,2,0:0:0:0:
402,192,70517,1,0,0:0:0:0:
182,192,70517,1,0,0:0:0:0:
329,192,70704,1,0,0:0:0:0:
475,192,70704,1,0,0:0:0:0:
329,192,70892,1,0,0:0:0:0:
475,192,70892,1,0,0:0:0:0:
256,192,71079,1,0,0:0:0:0:
182,192,71267,1,0,0:0:0:0:
402,192,71267,1,0,0:0:0:0:
329,192,71454,1,0,0:0:0:0:
475,192,71642,1,0,0:0:0:0:
256,192,71642,1,0,0:0:0:0:
329,192,71735,1,0,0:0:0:0:
182,192,71829,1,0,0:0:0:0:
475,192,71923,1,0,0:0:0:0:
329,192,72017,128,0,74642:0:0:0:0:
109,192,72017,1,2,0:0:0:0:
329,192,72017,1,0,0:0:0:0:
36,192,72204,1,0,0:0:0:0:
36,192,72392,1,0,0:0:0:0:
109,192,72579,1,2,0:0:0:0:
475,192,72579,1,0,0:0:0:0:
402,192,72767,1,0,0:0:0:0:
402,192,72954,1,0,0:0:0:0:
36,192,73142,1,0,0:0:0:0:
256,192,73142,1,2,0:0:0:0:
109,192,73329,1,0,0:0:0:0:
109,192,73517,1,0,0:0:0:0:
182,192,73704,1,2,0:0:0:0:
475,192,73704,1,0,0:0:0:0:
402,192,73892,1,0,0:0:0:0:
402,192,74079,1,0,0:0:0:0:
36,192,74267,1,0,0:0:0:0:
182,192,74267,1,0,0:0:0:0:
475,192,74267,1,2,0:0:0:0:
109,192,74642,1,2,0:0:0:0:
256,192,74642,1,0,0:0:0:0:
402,192,74642,1,0,0:0:0:0:
182,192,75017,1,4,0:0:0:0:
329,192,75017,1,0,0:0:0:0:
36,192,75017,1,2,0:0:0:0:
475,192,75017,128,0,77267:0:0:0:0:
182,192,75204,1,0,0:0:0:0:
329,192,75204,1,0,0:0:0:0:
402,192,75392,1,0,0:0:0:0:
109,192,75579,1,0,0:0:0:0:
256,192,75579,1,0,0:0:0:0:
256,192,75767,1,0,0:0:0:0:
109,192,75767,1,0,0:0:0:0:
329,192,75954,1,0,0:0:0:0:
182,192,76142,1,0,0:0:0:0:
36,192,76142,1,0,0:0:0:0:
182,192,76329,1,0,0:0:0:0:
36,192,76329,1,0,0:0:0:0:
109,192,76517,1,0,0:0:0:0:
256,192,76517,1,0,0:0:0:0:
402,192,76517,1,2,0:0:0:0:
182,192,76704,1,0,0:0:0:0:
329,192,76704,1,0,0:0:0:0:
329,192,76892,1,0,0:0:0:0:
182,192,76892,1,0,0:0:0:0:
109,192,77079,1,0,0:0:0:0:
182,192,77267,1,0,0:0:0:0:
402,192,77267,1,0,0:0:0:0:
36,192,77267,128,0,78017:0:0:0:0:
329,192,77454,1,0,0:0:0:0:
475,192,77642,1,0,0:0:0:0:
109,192,77642,1,0,0:0:0:0:
402,192,77735,1,0,0:0:0:0:
329,192,77829,1,0,0:0:0:0:
256,192,77923,1,0,0:0:0:0:
402,192,78017,1,2,0:0:0:0:
182,192,78017,128,0,79517:0:0:0:0:
475,192,78017,1,0,0:0:0:0:
402,192,78204,1,0,0:0:0:0:
475,192,78204,1,0,0:0:0:0:
36,192,78392,1,0,0:0:0:0:
329,192,78579,1,0,0:0:0:0:
109,192,78579,1,0,0:0:0:0:
329,192,78767,1,0,0:0:0:0:
109,192,78767,1,0,0:0:0:0:
256,192,78954,1,0,0:0:0:0:
36,192,79142,1,0,0:0:0:0:
402,192,79142,1,0,0:0:0:0:
36,192,79329,1,0,0:0:0:0:
402,192,79329,1,0,0:0:0:0:
256,192,79517,1,0,0:0:0:0:
109,192,79517,1,2,0:0:0:0:
475,192,79517,128,0,80266:0:0:0:0:
182,192,79704,1,0,0:0:0:0:
329,192,79704,1,0,0:0:0:0:
329,192,79892,1,0,0:0:0:0:
182,192,79892,1,0,0:0:0:0:
256,192,80079,1,0,0:0:0:0:
36,192,80266,128,0,81016:0:0:0:0:
402,192,80266,1,0,0:0:0:0:
109,192,80266,1,0,0:0:0:0:
256,192,80454,1,0,0:0:0:0:
109,192,80641,1,0,0:0:0:0:
475,192,80641,1,0,0:0:0:0:
182,192,80735,1,0,0:0:0:0:
475,192,80829,1,0,0:0:0:0:
402,192,80923,1,0,0:0:0:0:
329,192,81016,128,0,83266:0:0:0:0:
256,192,81016,1,4,0:0:0:0:
109,192,81016,1,2,0:0:0:0:
109,192,81204,1,0,0:0:0:0:
256,192,81204,1,0,0:0:0:0:
475,192,81391,1,0,0:0:0:0:
36,192,81579,1,0,0:0:0:0:
182,192,81579,1,0,0:0:0:0:
182,192,81766,1,0,0:0:0:0:
36,192,81766,1,0,0:0:0:0:
256,192,81954,1,0,0:0:0:0:
109,192,82141,1,0,0:0:0:0:
475,192,82141,1,0,0:0:0:0:
109,192,82329,1,0,0:0:0:0:
475,192,82329,1,0,0:0:0:0:
256,192,82516,1,0,0:0:0:0:
36,192,82516,1,2,0:0:0:0:
402,192,82516,1,0,0:0:0:0:
182,192,82704,1,0,0:0:0:0:
475,192,82704,1,0,0:0:0:0:
182,192,82891,1,0,0:0:0:0:
475,192,82891,1,0,0:0:0:0:
109,192,83079,1,0,0:0:0:0:
36,192,83266,1,0,0:0:0:0:
256,192,83266,1,0,0:0:0:0:
182,192,83266,128,0,84016:0:0:0:0:
329,192,83454,1,0,0:0:0:0:
402,192,83641,1,0,0:0:0:0:
36,192,83641,1,0,0:0:0:0:
256,192,83735,1,0,0:0:0:0:
109,192,83829,1,0,0:0:0:0:
402,192,83829,1,0,0:0:0:0:
329,192,84016,1,0,0:0:0:0:
36,192,84016,1,2,0:0:0:0:
475,192,84016,128,0,85516:0:0:0:0:
329,192,84204,1,0,0:0:0:0:
36,192,84204,1,0,0:0:0:0:
182,192,84391,1,0,0:0:0:0:
109,192,84579,1,0,0:0:0:0:
256,192,84579,1,0,0:0:0:0:
256,192,84766,1,0,0:0:0:0:
109,192,84766,1,0,0:0:0:0:
36,192,84954,1,0,0:0:0:0:
329,192,85141,1,0,0:0:0:0:
182,192,85141,1,0,0:0:0:0:
182,192,85329,1,0,0:0:0:0:
329,192,85329,1,0,0:0:0:0:
402,192,85516,1,2,0:0:0:0:
256,192,85516,1,0,0:0:0:0:
182,192,85516,128,0,86266:0:0:0:0:
329,192,85704,1,0,0:0:0:0:
109,192,85704,1,0,0:0:0:0:
109,192,85891,1,0,0:0:0:0:
329,192,85891,1,0,0:0:0:0:
36,192,86079,1,0,0:0:0:0:
329,192,86266,1,0,0:0:0:0:
475,192,86266,1,0,0:0:0:0:
256,192,86266,128,0,87016:0:0:0:0:
182,192,86454,1,0,0:0:0:0:
36,192,86641,1,0,0:0:0:0:
475,192,86641,1,0,0:0:0:0:
182,192,86735,1,0,0:0:0:0:
36,192,86829,1,0,0:0:0:0:
182,192,86923,1,0,0:0:0:0:
36,192,87016,128,0,89266:0:0:0:0:
329,192,87016,1,2,0:0:0:0:
109,192,87016,1,0,0:0:0:0:
475,192,87016,1,4,0:0:0:0:
329,192,87204,1,0,0:0:0:0:
475,192,87204,1,0,0:0:0:0:
182,192,87391,1,0,0:0:0:0:
256,192,87579,1,0,0:0:0:0:
402,192,87579,1,0,0:0:0:0:
402,192,87766,1,0,0:0:0:0:
256,192,87766,1,0,0:0:0:0:
109,192,87954,1,0,0:0:0:0:
182,192,88141,1,0,0:0:0:0:
329,192,88141,1,0,0:0:0:0:
182,192,88329,1,0,0:0:0:0:
329,192,88329,1,0,0:0:0:0:
256,192,88516,1,0,0:0:0:0:
402,192,88516,1,0,0:0:0:0:
109,192,88516,1,2,0:0:0:0:
329,192,88704,1,0,0:0:0:0:
475,192,88704,1,0,0:0:0:0:
475,192,88891,1,0,0:0:0:0:
329,192,88891,1,0,0:0:0:0:
256,192,89079,1,0,0:0:0:0:
475,192,89266,128,0,90016:0:0:0:0:
182,192,89266,1,0,0:0:0:0:
329,192,89266,1,0,0:0:0:0:
109,192,89454,1,0,0:0:0:0:
329,192,89641,1,0,0:0:0:0:
36,192,89641,1,0,0:0:0:0:
256,192,89735,1,0,0:0:0:0:
182,192,89829,1,0,0:0:0:0:
109,192,89923,1,0,0:0:0:0:
329,192,90016,128,0,91516:0:0:0:0:
36,192,90016,1,0,0:0:0:0:
402,192,90016,1,2,0:0:0:0:
36,192,90204,1,0,0:0:0:0:
402,192,90204,1,0,0:0:0:0:
182,192,90391,1,0,0:0:0:0:
36,192,90579,1,0,0:0:0:0:
475,192,90579,1,0,0:0:0:0:
36,192,90766,1,0,0:0:0:0:
475,192,90766,1,0,0:0:0:0:
256,192,90954,1,0,0:0:0:0:
182,192,91141,1,0,0:0:0:0:
402,192,91141,1,0,0:0:0:0:
182,192,91329,1,0,0:0:0:0:
402,192,91329,1,0,0:0:0:0:
109,192,91516,1,2,0:0:0:0:
36,192,91516,128,0,92266:0:0:0:0:
475,192,91516,1,0,0:0:0:0:
182,192,91704,1,0,0:0:0:0:
402,192,91704,1,0,0:0:0:0:
329,192,91891,1,0,0:0:0:0:
256,192,92079,1,0,0:0:0:0:
475,192,92266,128,0,93016:0:0:0:0:
182,192,92266,1,0,0:0:0:0:
402,192,92266,1,0,0:0:0:0:
256,192,92454,1,0,0:0:0:0:
329,192,92641,1,0,0:0:0:0:
36,192,92641,1,0,0:0:0:0:
109,192,92735,1,0,0:0:0:0:
182,192,92829,1,0,0:0:0:0:
256,192,92922,1,0,0:0:0:0:
109,192,93016,1,0,0:0:0:0:
329,192,93016,1,4,0:0:0:0:
402,192,93016,1,2,0:0:0:0:
36,192,93016,128,0,95266:0:0:0:0:
109,192,93204,1,0,0:0:0:0:
402,192,93204,1,0,0:0:0:0:
475,192,93391,1,0,0:0:0:0:
329,192,93579,1,0,0:0:0:0:
182,192,93579,1,0,0:0:0:0:
329,192,93766,1,0,0:0:0:0:
182,192,93766,1,0,0:0:0:0:
402,192,93954,1,0,0:0:0:0:
475,192,94141,1,0,0:0:0:0:
256,192,94141,1,0,0:0:0:0:
475,192,94329,1,0,0:0:0:0:
256,192,94329,1,0,0:0:0:0:
109,192,94516,1,0,0:0:0:0:
402,192,94516,1,2,0:0:0:0:
182,192,94516,1,0,0:0:0:0:
329,192,94704,1,0,0:0:0:0:
475,192,94704,1,0,0:0:0:0:
329,192,94891,1,0,0:0:0:0:
475,192,94891,1,0,0:0:0:0:
256,192,95079,1,0,0:0:0:0:
182,192,95266,1,0,0:0:0:0:
402,192,95266,1,0,0:0:0:0:
475,192,95266,128,0,96016:0:0:0:0:
256,192,95454,1,0,0:0:0:0:
329,192,95641,1,0,0:0:0:0:
182,192,95641,1,0,0:0:0:0:
36,192,95735,1,0,0:0:0:0:
109,192,95829,1,0,0:0:0:0:
182,192,95922,1,0,0:0:0:0:
256,192,96016,128,0,98641:0:0:0:0:
402,192,96016,1,2,0:0:0:0:
36,192,96016,1,0,0:0:0:0:
109,192,96204,1,0,0:0:0:0:
109,192,96391,1,0,0:0:0:0:
475,192,96579,1,0,0:0:0:0:
329,192,96579,1,2,0:0:0:0:
36,192,96579,1,0,0:0:0:0:
402,192,96766,1,0,0:0:0:0:
402,192,96954,1,0,0:0:0:0:
36,192,97141,1,0,0:0:0:0:
475,192,97141,1,2,0:0:0:0:
182,192,97141,1,0,0:0:0:0:
109,192,97329,1,0,0:0:0:0:
109,192,97516,1,0,0:0:0:0:
475,192,97704,1,0,0:0:0:0:
36,192,97704,1,2,0:0:0:0:
329,192,97704,1,0,0:0:0:0:
402,192,97891,1,0,0:0:0:0:
402,192,98079,1,0,0:0:0:0:
36,192,98266,1,0,0:0:0:0:
475,192,98266,1,2,0:0:0:0:
329,192,98266,1,0,0:0:0:0:
182,192,98266,1,0,0:0:0:0:
402,192,98641,1,0,0:0:0:0:
36,192,98641,1,0,0:0:0:0:
109,192,98641,1,0,0:0:0:0:
475,192,98641,1,2,0:0:0:0:
