osu file format v14

[General]
AudioFilename: audio.mp3
AudioLeadIn: 0
PreviewTime: -1
Countdown: 1
SampleSet: None
StackLeniency: 0.7
Mode: 0
LetterboxInBreaks: 0
WidescreenStoryboard: 0

[Editor]
DistanceSpacing: 0.8
BeatDivisor: 1
GridSize: 32
TimelineZoom: 1

[Metadata]
Title:Into The Past
TitleUnicode:Into The Past
Artist:NERO
ArtistUnicode:NERO
Creator:despicablealex
Version:Insane
Source:
Tags:
BeatmapID:1159013
BeatmapSetID:547184

[Difficulty]
HPDrainRate:5
CircleSize:5
OverallDifficulty:7
ApproachRate:5
SliderMultiplier:1.4
SliderTickRate:1

[Events]
//Background and Video events
//Break Periods
//Storyboard Layer 0 (Background)
//Storyboard Layer 1 (Fail)
//Storyboard Layer 2 (Pass)
//Storyboard Layer 3 (Foreground)
//Storyboard Sound Samples

[TimingPoints]
286423,835.864144214427,4,1,0,100,1,0

[HitObjects]
192,128,15721,5,0,0:0:0:0:
224,160,18126,1,0,0:0:0:0:
256,160,20531,1,0,0:0:0:0:
320,128,24139,1,0,0:0:0:0:
96,288,25341,1,0,0:0:0:0:
352,96,27145,1,0,0:0:0:0:
224,192,27747,1,0,0:0:0:0:
384,96,28949,1,0,0:0:0:0:
224,128,30152,1,0,0:0:0:0:
352,192,30753,1,0,0:0:0:0:
160,128,31956,1,0,0:0:0:0:
320,128,33159,1,0,0:0:0:0:
87,167,34361,1,0,0:0:0:0:
233,140,34962,1,0,0:0:0:0:
233,140,35564,1,0,0:0:0:0:
375,109,36165,1,0,0:0:0:0:
246,136,36766,1,0,0:0:0:0:
246,136,37368,1,0,0:0:0:0:
246,136,37969,1,0,0:0:0:0:
222,125,39172,5,0,0:0:0:0:
243,125,40374,1,0,0:0:0:0:
243,125,41577,1,0,0:0:0:0:
243,125,42178,1,0,0:0:0:0:
243,125,42779,1,0,0:0:0:0:
254,132,43381,1,0,0:0:0:0:
254,132,43982,1,0,0:0:0:0:
254,132,44583,1,0,0:0:0:0:
254,132,45185,1,0,0:0:0:0:
254,132,45786,1,0,0:0:0:0:
254,132,46387,1,0,0:0:0:0:
254,132,46989,1,0,0:0:0:0:
254,132,47590,1,0,0:0:0:0:
254,132,48191,1,0,0:0:0:0:
330,162,48793,1,0,0:0:0:0:
262,176,49394,1,0,0:0:0:0:
267,116,50597,5,0,0:0:0:0:
434,275,51799,1,0,0:0:0:0:
337,190,52400,1,0,0:0:0:0:
257,119,53002,1,0,0:0:0:0:
372,218,53603,1,0,0:0:0:0:
258,119,54204,1,0,0:0:0:0:
339,192,54806,1,0,0:0:0:0:
295,153,55407,1,0,0:0:0:0:
295,153,57211,5,0,0:0:0:0:
147,103,57812,1,0,0:0:0:0:
319,152,59015,1,0,0:0:0:0:
231,64,59616,1,0,0:0:0:0:
282,201,60218,1,0,0:0:0:0:
317,50,60819,1,0,0:0:0:0:
220,205,62021,1,0,0:0:0:0:
292,123,62623,1,0,0:0:0:0:
118,214,63825,1,0,0:0:0:0:
302,156,65028,1,0,0:0:0:0:
180,78,65629,1,0,0:0:0:0:
329,229,66832,1,0,0:0:0:0:
304,55,68035,1,0,0:0:0:0:
213,151,68636,1,0,0:0:0:0:
388,123,69838,1,0,0:0:0:0:
272,170,70440,1,0,0:0:0:0:
210,8,71642,1,0,0:0:0:0:
295,126,72244,1,0,0:0:0:0:
228,335,73446,5,0,0:0:0:0:
286,168,74649,1,0,0:0:0:0:
190,128,75250,1,0,0:0:0:0:
334,167,75852,1,0,0:0:0:0:
43,312,77656,1,0,0:0:0:0:
195,228,78858,1,0,0:0:0:0:
255,173,79459,1,0,0:0:0:0:
387,226,80061,1,0,0:0:0:0:
228,149,81263,1,0,0:0:0:0:
329,199,81865,1,0,0:0:0:0:
230,149,82466,1,0,0:0:0:0:
341,205,83067,1,0,0:0:0:0:
219,144,83669,1,0,0:0:0:0:
207,135,84871,1,0,0:0:0:0:
318,120,86074,1,0,0:0:0:0:
231,223,86675,1,0,0:0:0:0:
210,164,87878,1,0,0:0:0:0:
256,192,90129,12,0,105835,0:0:0:0:
353,84,105835,5,0,0:0:0:0:
186,129,106918,1,0,0:0:0:0:
330,100,107460,1,0,0:0:0:0:
146,164,108543,1,0,0:0:0:0:
302,111,109626,1,0,0:0:0:0:
364,199,110168,1,0,0:0:0:0:
149,146,111251,1,0,0:0:0:0:
301,94,111793,1,0,0:0:0:0:
292,218,112334,1,0,0:0:0:0:
108,102,112876,1,0,0:0:0:0:
225,73,113418,1,0,0:0:0:0:
184,189,113959,1,0,0:0:0:0:
233,170,114501,1,0,0:0:0:0:
246,122,115584,1,0,0:0:0:0:
246,122,116126,1,0,0:0:0:0:
246,122,116667,1,0,0:0:0:0:
246,122,117209,1,0,0:0:0:0:
246,122,117751,1,0,0:0:0:0:
99,85,118834,1,0,0:0:0:0:
332,128,119375,1,0,0:0:0:0:
122,195,120459,1,0,0:0:0:0:
235,55,121000,1,0,0:0:0:0:
439,179,121542,1,0,0:0:0:0:
289,237,122083,1,0,0:0:0:0:
180,135,123708,5,0,0:0:0:0:
200,134,125115,1,0,0:0:0:0:
272,101,126355,1,0,0:0:0:0:
184,164,126975,1,0,0:0:0:0:
293,172,128215,1,0,0:0:0:0:
218,110,128835,1,0,0:0:0:0:
303,78,130075,1,0,0:0:0:0:
233,195,130695,1,0,0:0:0:0:
118,125,131935,1,0,0:0:0:0:
287,164,132555,1,0,0:0:0:0:
290,248,133795,1,0,0:0:0:0:
138,123,134415,1,0,0:0:0:0:
186,119,135665,1,0,0:0:0:0:
286,102,136267,1,0,0:0:0:0:
157,216,137469,1,0,0:0:0:0:
190,167,138672,1,0,0:0:0:0:
190,167,139273,1,0,0:0:0:0:
190,167,139875,1,0,0:0:0:0:
190,167,140476,1,0,0:0:0:0:
190,167,141077,1,0,0:0:0:0:
190,167,141679,1,0,0:0:0:0:
190,167,142280,1,0,0:0:0:0:
190,167,142881,1,0,0:0:0:0:
309,109,144685,1,0,0:0:0:0:
62,54,145286,1,0,0:0:0:0:
199,232,146489,1,0,0:0:0:0:
365,163,147090,1,0,0:0:0:0:
308,71,147692,1,0,0:0:0:0:
106,151,148293,1,0,0:0:0:0:
373,258,148894,1,0,0:0:0:0:
381,130,149496,1,0,0:0:0:0:
151,193,150097,1,0,0:0:0:0:
362,222,150698,1,0,0:0:0:0:
361,112,151300,1,0,0:0:0:0:
142,159,151901,1,0,0:0:0:0:
389,269,152502,1,0,0:0:0:0:
387,144,153104,1,0,0:0:0:0:
168,153,153705,1,0,0:0:0:0:
197,260,154306,1,0,0:0:0:0:
56,103,156711,1,0,0:0:0:0:
97,147,157313,1,0,0:0:0:0:
223,149,157914,1,0,0:0:0:0:
294,114,158515,1,0,0:0:0:0:
365,145,159117,1,0,0:0:0:0:
351,223,159718,1,0,0:0:0:0:
249,191,160319,1,0,0:0:0:0:
193,107,160921,1,0,0:0:0:0:
161,194,161522,1,0,0:0:0:0:
249,200,162123,1,0,0:0:0:0:
297,175,162724,1,0,0:0:0:0:
324,205,163326,1,0,0:0:0:0:
257,240,163927,1,0,0:0:0:0:
220,224,164528,1,0,0:0:0:0:
226,207,165731,1,0,0:0:0:0:
137,97,166332,2,0,L|303:245,22,140
186,98,179959,5,0,0:0:0:0:
243,131,180332,1,0,0:0:0:0:
307,118,181078,1,0,0:0:0:0:
252,89,181451,1,0,0:0:0:0:
190,160,182198,1,0,0:0:0:0:
242,190,182944,1,0,0:0:0:0:
309,126,183317,1,0,0:0:0:0:
110,140,183690,1,0,0:0:0:0:
123,166,184064,1,0,0:0:0:0:
251,206,184437,1,0,0:0:0:0:
276,157,184810,1,0,0:0:0:0:
342,151,185183,1,0,0:0:0:0:
345,210,185556,1,0,0:0:0:0:
186,229,185929,1,0,0:0:0:0:
196,161,186303,1,0,0:0:0:0:
265,129,186676,1,0,0:0:0:0:
189,140,187795,1,0,0:0:0:0:
216,145,188169,1,0,0:0:0:0:
219,157,188542,1,0,0:0:0:0:
175,184,188915,1,0,0:0:0:0:
201,164,189288,1,0,0:0:0:0:
306,121,189661,1,0,0:0:0:0:
228,111,190034,1,0,0:0:0:0:
212,132,190408,1,0,0:0:0:0:
213,138,190781,1,0,0:0:0:0:
179,146,191154,1,0,0:0:0:0:
212,126,191527,1,0,0:0:0:0:
212,126,191900,1,0,0:0:0:0:
212,126,192273,1,0,0:0:0:0:
212,126,192647,1,0,0:0:0:0:
212,126,193020,1,0,0:0:0:0:
212,126,193393,1,0,0:0:0:0:
212,126,193766,1,0,0:0:0:0:
212,126,194139,1,0,0:0:0:0:
212,126,194513,1,0,0:0:0:0:
212,126,194886,1,0,0:0:0:0:
322,92,195259,1,0,0:0:0:0:
264,165,195632,1,0,0:0:0:0:
234,133,196378,1,0,0:0:0:0:
136,168,196752,1,0,0:0:0:0:
210,151,197125,1,0,0:0:0:0:
216,169,197498,1,0,0:0:0:0:
257,148,197871,1,0,0:0:0:0:
265,151,198244,1,0,0:0:0:0:
286,138,198617,1,0,0:0:0:0:
214,157,198991,1,0,0:0:0:0:
232,131,199737,5,0,0:0:0:0:
260,134,200110,1,0,0:0:0:0:
228,171,200483,1,0,0:0:0:0:
276,151,200857,1,0,0:0:0:0:
237,149,201230,1,0,0:0:0:0:
263,138,201603,1,0,0:0:0:0:
242,134,201976,1,0,0:0:0:0:
241,143,202349,1,0,0:0:0:0:
133,141,203096,1,0,0:0:0:0:
203,141,203469,1,0,0:0:0:0:
275,115,203842,1,0,0:0:0:0:
257,166,204215,1,0,0:0:0:0:
231,179,204588,1,0,0:0:0:0:
172,153,204961,1,0,0:0:0:0:
224,135,205335,1,0,0:0:0:0:
234,143,205708,1,0,0:0:0:0:
197,167,206081,1,0,0:0:0:0:
268,147,206827,1,0,0:0:0:0:
268,147,207201,1,0,0:0:0:0:
268,147,207574,1,0,0:0:0:0:
268,147,207947,1,0,0:0:0:0:
268,147,208320,1,0,0:0:0:0:
268,147,208693,1,0,0:0:0:0:
211,177,209066,1,0,0:0:0:0:
211,177,209440,1,0,0:0:0:0:
236,201,209813,1,0,0:0:0:0:
271,185,210186,1,0,0:0:0:0:
271,185,210559,1,0,0:0:0:0:
297,204,210932,1,0,0:0:0:0:
302,201,211305,1,0,0:0:0:0:
323,177,211679,1,0,0:0:0:0:
291,178,212052,1,0,0:0:0:0:
250,187,212425,1,0,0:0:0:0:
250,187,212798,1,0,0:0:0:0:
277,177,213171,1,0,0:0:0:0:
265,195,213545,1,0,0:0:0:0:
145,223,215410,1,0,0:0:0:0:
179,200,215784,1,0,0:0:0:0:
192,179,216157,1,0,0:0:0:0:
258,196,216530,1,0,0:0:0:0:
264,206,216903,1,0,0:0:0:0:
301,199,217276,1,0,0:0:0:0:
301,199,217649,1,0,0:0:0:0:
301,199,218023,1,0,0:0:0:0:
301,199,218396,1,0,0:0:0:0:
301,199,218769,1,0,0:0:0:0:
301,199,219142,1,0,0:0:0:0:
301,199,219515,1,0,0:0:0:0:
301,199,219889,1,0,0:0:0:0:
301,199,220262,1,0,0:0:0:0:
301,199,220635,1,0,0:0:0:0:
301,199,221008,1,0,0:0:0:0:
301,199,221381,1,0,0:0:0:0:
301,199,221754,1,0,0:0:0:0:
301,199,222128,1,0,0:0:0:0:
301,199,222501,1,0,0:0:0:0:
301,199,222874,1,0,0:0:0:0:
301,199,223247,1,0,0:0:0:0:
268,175,223620,1,0,0:0:0:0:
268,175,223993,1,0,0:0:0:0:
312,161,224367,1,0,0:0:0:0:
308,174,224740,1,0,0:0:0:0:
314,182,225113,1,0,0:0:0:0:
329,180,225486,1,0,0:0:0:0:
328,165,225859,1,0,0:0:0:0:
341,160,226233,1,0,0:0:0:0:
349,155,226606,1,0,0:0:0:0:
367,162,226979,1,0,0:0:0:0:
379,182,227352,1,0,0:0:0:0:
382,195,227725,1,0,0:0:0:0:
136,112,228098,2,0,L|266:255,12,140
175,121,233323,1,0,0:0:0:0:
233,182,234069,1,0,0:0:0:0:
226,165,234442,1,0,0:0:0:0:
226,165,234816,1,0,0:0:0:0:
226,165,235189,1,0,0:0:0:0:
226,165,235562,1,0,0:0:0:0:
226,165,235935,1,0,0:0:0:0:
226,165,236308,1,0,0:0:0:0:
226,165,236681,1,0,0:0:0:0:
226,165,237055,1,0,0:0:0:0:
226,165,237428,1,0,0:0:0:0:
362,138,238174,1,0,0:0:0:0:
219,139,238547,1,0,0:0:0:0:
303,67,238921,1,0,0:0:0:0:
458,159,239667,1,0,0:0:0:0:
274,245,240040,1,0,0:0:0:0:
227,139,240413,1,0,0:0:0:0:
394,134,241160,1,0,0:0:0:0:
369,249,241533,1,0,0:0:0:0:
72,173,241906,1,0,0:0:0:0:
262,84,242652,1,0,0:0:0:0:
356,155,243025,1,0,0:0:0:0:
327,242,243399,1,0,0:0:0:0:
201,195,244145,1,0,0:0:0:0:
251,114,244518,1,0,0:0:0:0:
367,135,245264,1,0,0:0:0:0:
263,229,245638,1,0,0:0:0:0:
157,171,246384,1,0,0:0:0:0:
388,140,246757,1,0,0:0:0:0:
201,300,247504,1,0,0:0:0:0:
134,152,247877,1,0,0:0:0:0:
280,129,248996,5,0,0:0:0:0:
111,177,249369,1,0,0:0:0:0:
407,263,249743,1,0,0:0:0:0:
391,142,250489,1,0,0:0:0:0:
226,202,250862,1,0,0:0:0:0:
272,280,251608,1,0,0:0:0:0:
405,172,251982,1,0,0:0:0:0:
313,135,253101,1,0,0:0:0:0:
200,180,253474,1,0,0:0:0:0:
186,253,254221,1,0,0:0:0:0:
408,174,255340,1,0,0:0:0:0:
281,158,256087,1,0,0:0:0:0:
222,163,256460,1,0,0:0:0:0:
132,125,257206,1,0,0:0:0:0:
371,112,257579,1,0,0:0:0:0:
296,184,257952,1,0,0:0:0:0:
133,303,258326,1,0,0:0:0:0:
315,160,258699,1,0,0:0:0:0:
384,158,259072,1,0,0:0:0:0:
227,113,259445,1,0,0:0:0:0:
219,113,259818,1,0,0:0:0:0:
413,112,260192,1,0,0:0:0:0:
190,200,260565,1,0,0:0:0:0:
190,151,260938,1,0,0:0:0:0:
303,104,261311,1,0,0:0:0:0:
239,154,262057,1,0,0:0:0:0:
239,154,262431,1,0,0:0:0:0:
239,154,262804,1,0,0:0:0:0:
343,167,263550,1,0,0:0:0:0:
343,167,263923,1,0,0:0:0:0:
343,167,264296,1,0,0:0:0:0:
343,167,264670,1,0,0:0:0:0:
223,260,265416,1,0,0:0:0:0:
223,260,265789,1,0,0:0:0:0:
223,260,266162,1,0,0:0:0:0:
355,231,266909,1,0,0:0:0:0:
355,231,267282,1,0,0:0:0:0:
355,231,267655,1,0,0:0:0:0:
355,231,268028,1,0,0:0:0:0:
221,193,268775,1,0,0:0:0:0:
221,193,269148,1,0,0:0:0:0:
221,193,269521,1,0,0:0:0:0:
221,193,269894,1,0,0:0:0:0:
339,158,270640,1,0,0:0:0:0:
339,158,271014,1,0,0:0:0:0:
339,158,271387,1,0,0:0:0:0:
339,158,271760,1,0,0:0:0:0:
184,130,272506,1,0,0:0:0:0:
184,130,272880,1,0,0:0:0:0:
184,130,273253,1,0,0:0:0:0:
184,130,273626,1,0,0:0:0:0:
321,131,274372,1,0,0:0:0:0:
321,131,274745,1,0,0:0:0:0:
321,131,275119,1,0,0:0:0:0:
321,131,275492,1,0,0:0:0:0:
321,131,275865,1,0,0:0:0:0:
183,269,276611,1,0,0:0:0:0:
183,269,276984,1,0,0:0:0:0:
183,269,277358,1,0,0:0:0:0:
183,269,277731,1,0,0:0:0:0:
183,269,278104,1,0,0:0:0:0:
328,137,278477,1,0,0:0:0:0:
328,137,278850,1,0,0:0:0:0:
328,137,279224,1,0,0:0:0:0:
328,137,279597,1,0,0:0:0:0:
328,137,279970,1,0,0:0:0:0:
202,141,280716,1,0,0:0:0:0:
202,141,281089,1,0,0:0:0:0:
202,141,281463,1,0,0:0:0:0:
202,141,281836,1,0,0:0:0:0:
299,241,282582,1,0,0:0:0:0:
299,241,282955,1,0,0:0:0:0:
299,241,283328,1,0,0:0:0:0:
299,241,283702,1,0,0:0:0:0:
299,241,284075,1,0,0:0:0:0:
299,241,284448,1,0,0:0:0:0:
299,241,284821,1,0,0:0:0:0:
343,146,285568,1,0,0:0:0:0:
338,116,287258,1,0,0:0:0:0:
229,172,288094,1,0,0:0:0:0:
146,86,288930,1,0,0:0:0:0:
264,79,290602,1,0,0:0:0:0:
282,180,291438,1,0,0:0:0:0:
209,201,292274,1,0,0:0:0:0:
293,141,293109,1,0,0:0:0:0:
332,211,293945,1,0,0:0:0:0:
204,98,294781,5,0,0:0:0:0:
332,89,295617,1,0,0:0:0:0:
178,176,296453,1,0,0:0:0:0:
256,192,298960,12,0,313170,0:0:0:0:
