osu file format v14

[General]
AudioFilename: audio.mp3
AudioLeadIn: 0
PreviewTime: 79287
Countdown: 0
SampleSet: Soft
StackLeniency: 0.4
Mode: 0
LetterboxInBreaks: 0
WidescreenStoryboard: 0

[Editor]
Bookmarks: 149839,248321,305425,321976
DistanceSpacing: 0.8
BeatDivisor: 4
GridSize: 4
TimelineZoom: 1.4

[Metadata]
Title:BLOOD/ORDER
TitleUnicode:BLOOD/ORDER
Artist:NEQRE
ArtistUnicode:NEQRE
Creator:gazimal
Version:ADVENT / GAZIMAL
Source:RE:D Cherish!
Tags:AdveNt eroge op full CRYSTALiA japanese electronic video game
BeatmapID:3676385
BeatmapSetID:1793818

[Difficulty]
HPDrainRate:5
CircleSize:4
OverallDifficulty:9
ApproachRate:9.4
SliderMultiplier:2.1
SliderTickRate:1

[Events]
//Background and Video events
0,0,"1920x1080px_c_unica.png",0,0
//Break Periods
2,295692,304883
//Storyboard Layer 0 (Background)
//Storyboard Layer 1 (Fail)
//Storyboard Layer 2 (Pass)
//Storyboard Layer 3 (Foreground)
//Storyboard Layer 4 (Overlay)
//Storyboard Sound Samples

[TimingPoints]
46,413.793103448276,4,2,0,60,1,0
6666,-100,4,2,2,60,0,0
12459,-83.3333333333333,4,2,2,60,0,0
13183,-83.3333333333333,4,2,2,5,0,0
13287,-500,4,2,2,60,0,0
16494,-500,4,2,2,5,0,0
16597,-100,4,2,2,60,0,0
19908,-50,4,2,1,70,0,0
19959,-50,4,2,1,5,0,0
20321,-50,4,2,2,55,0,0
20735,-50,4,2,2,60,0,0
21149,-50,4,2,2,65,0,0
21563,-66.6666666666667,4,2,1,70,0,0
21873,-66.6666666666667,4,2,1,5,0,0
21977,-83.3333333333333,4,2,1,70,0,0
22287,-83.3333333333333,4,2,2,70,0,0
22597,-83.3333333333333,4,2,1,70,0,0
23114,-83.3333333333333,4,2,2,70,0,0
23425,-83.3333333333333,4,2,1,70,0,0
26528,-83.3333333333333,4,2,2,70,0,0
26735,-83.3333333333333,4,2,1,70,0,0
28287,-83.3333333333333,4,2,2,70,0,0
28597,-83.3333333333333,4,2,1,70,0,0
28908,-83.3333333333333,4,2,2,70,0,0
29218,-83.3333333333333,4,2,1,70,0,0
30149,-83.3333333333333,4,2,2,70,0,0
30459,-83.3333333333333,4,2,1,70,0,0
31494,-76.9230769230769,4,2,1,70,0,0
31701,-76.9230769230769,4,2,1,5,0,0
31804,-76.9230769230769,4,2,1,70,0,0
32011,-76.9230769230769,4,2,1,5,0,0
32114,-142.857142857143,4,2,1,70,0,0
32321,-76.9230769230769,4,2,1,70,0,0
32528,-76.9230769230769,4,2,1,5,0,0
32632,-76.9230769230769,4,2,1,70,0,0
32839,-76.9230769230769,4,2,1,5,0,0
32942,-142.857142857143,4,2,1,70,0,0
33149,-76.9230769230769,4,2,1,70,0,0
33356,-76.9230769230769,4,2,1,5,0,0
33459,-76.9230769230769,4,2,1,70,0,0
33666,-76.9230769230769,4,2,1,5,0,0
33770,-142.857142857143,4,2,1,70,0,0
33977,-76.9230769230769,4,2,1,70,0,0
35011,-76.9230769230769,4,2,1,55,0,0
35839,-200,4,2,1,55,0,0
36459,-66.6666666666667,4,2,1,60,0,0
36770,-76.9230769230769,4,2,1,5,0,0
36873,-83.3333333333333,4,2,4,60,0,0
36977,-83.3333333333333,4,2,2,60,0,0
37701,-83.3333333333333,4,2,4,60,0,0
37908,-83.3333333333333,4,2,2,60,0,0
38528,-83.3333333333333,4,2,4,60,0,0
38735,-83.3333333333333,4,2,2,60,0,0
39563,-83.3333333333333,4,2,1,60,0,0
39977,-125,4,2,1,60,0,0
40183,-125,4,2,4,60,0,0
40390,-83.3333333333333,4,2,2,60,0,0
40804,-166.666666666667,4,2,2,60,0,0
41114,-166.666666666667,4,2,4,5,0,0
41218,-166.666666666667,4,2,2,60,0,0
41528,-166.666666666667,4,2,2,5,0,0
41632,-166.666666666667,4,2,2,60,0,0
41839,-166.666666666667,4,2,4,60,0,0
41942,-166.666666666667,4,2,2,60,0,0
42252,-333.333333333334,4,2,2,60,0,0
42563,-76.9230769230769,4,2,1,5,0,0
42666,-100,4,2,2,60,0,0
43080,-83.3333333333333,4,2,2,60,0,0
43390,-76.9230769230769,4,2,1,5,0,0
43494,-83.3333333333333,4,2,2,60,0,0
44218,-83.3333333333333,4,2,2,5,0,0
44321,-125,4,2,2,60,0,0
44942,-83.3333333333333,4,2,2,60,0,0
46390,-76.9230769230769,4,2,2,60,0,0
46701,-76.9230769230769,4,2,1,5,0,0
46804,-125,4,2,2,60,0,0
47218,-83.3333333333333,4,2,2,60,0,0
47528,-76.9230769230769,4,2,1,5,0,0
47632,-125,4,2,2,60,0,0
49701,-125,4,2,2,65,0,0
50321,-125,4,2,1,65,0,0
50425,-125,4,2,2,65,0,0
50735,-125,4,2,1,65,0,0
50839,-125,4,2,2,65,0,0
51149,-125,4,2,1,65,0,0
51253,-125,4,2,2,65,0,0
51563,-125,4,2,1,65,0,0
51667,-125,4,2,2,65,0,0
51977,-125,4,2,1,65,0,0
52081,-125,4,2,2,65,0,0
52390,-125,4,2,1,65,0,0
52494,-125,4,2,2,65,0,0
52804,-125,4,2,1,65,0,0
52908,-125,4,2,2,65,0,0
53218,-125,4,2,1,65,0,0
53322,-125,4,2,2,65,0,0
53632,-125,4,2,1,65,0,0
53736,-125,4,2,2,65,0,0
54046,-125,4,2,1,65,0,0
54150,-125,4,2,2,65,0,0
54459,-125,4,2,1,65,0,0
54563,-125,4,2,2,65,0,0
54873,-125,4,2,1,65,0,0
54977,-125,4,2,2,65,0,0
55287,-125,4,2,1,65,0,0
55391,-125,4,2,2,65,0,0
55701,-125,4,2,1,65,0,0
55805,-125,4,2,2,65,0,0
56114,-125,4,2,1,65,0,0
56218,-125,4,2,2,65,0,0
56528,-125,4,2,1,65,0,0
56632,-125,4,2,2,65,0,0
56942,-125,4,2,1,65,0,0
57046,-125,4,2,2,65,0,0
57356,-125,4,2,1,65,0,0
57460,-125,4,2,2,65,0,0
57770,-125,4,2,1,65,0,0
57874,-125,4,2,2,65,0,0
58183,-125,4,2,1,65,0,0
58287,-125,4,2,2,65,0,0
58597,-125,4,2,1,65,0,0
58701,-125,4,2,2,65,0,0
59011,-125,4,2,1,65,0,0
59115,-125,4,2,2,65,0,0
59839,-125,4,2,1,65,0,0
59943,-125,4,2,2,65,0,0
60252,-125,4,2,1,65,0,0
60356,-125,4,2,2,65,0,0
60666,-125,4,2,1,65,0,0
60770,-125,4,2,2,65,0,0
61080,-76.9230769230769,4,2,2,65,0,0
61390,-76.9230769230769,4,2,1,5,0,0
61494,-125,4,2,1,65,0,0
61598,-125,4,2,2,65,0,0
61908,-125,4,2,1,65,0,0
62012,-125,4,2,2,65,0,0
62321,-125,4,2,1,65,0,0
62425,-125,4,2,2,65,0,0
62735,-125,4,2,1,65,0,0
62839,-125,4,2,2,65,0,0
62942,-500,4,2,2,65,0,0
63252,-76.9230769230769,4,2,1,5,0,0
63356,-166.666666666667,4,2,2,65,0,0
63666,-76.9230769230769,4,2,1,5,0,0
63770,-333.333333333334,4,2,2,55,0,0
65425,-125,4,2,2,55,0,0
68321,-125,4,2,2,60,0,0
68735,-125,4,2,2,65,0,0
69149,-125,4,2,2,70,0,0
69563,-83.3333333333333,4,2,2,70,0,0
69770,-76.9230769230769,4,2,1,5,0,0
69873,-83.3333333333333,4,2,2,70,0,0
70080,-76.9230769230769,4,2,1,5,0,0
70183,-83.3333333333333,4,2,2,70,0,0
70390,-83.3333333333333,4,2,2,70,0,0
71218,-66.6666666666667,4,2,2,70,0,0
71425,-76.9230769230769,4,2,1,5,0,0
71528,-66.6666666666667,4,2,2,70,0,0
71735,-76.9230769230769,4,2,1,5,0,0
71839,-66.6666666666667,4,2,2,70,0,0
72046,-100,4,2,2,70,0,0
72873,-76.9230769230769,4,2,2,70,0,0
73080,-76.9230769230769,4,2,1,70,0,0
73183,-76.9230769230769,4,2,2,70,0,0
73287,-125,4,2,2,70,0,0
73494,-125,4,2,1,70,0,0
73597,-125,4,2,2,70,0,0
73701,-76.9230769230769,4,2,2,70,0,0
73908,-76.9230769230769,4,2,1,70,0,0
74011,-76.9230769230769,4,2,2,70,0,0
74114,-125,4,2,2,70,0,0
74321,-125,4,2,1,70,0,0
74424,-125,4,2,2,70,0,0
74528,-76.9230769230769,4,2,2,70,0,0
74735,-76.9230769230769,4,2,1,70,0,0
74838,-76.9230769230769,4,2,2,70,0,0
74942,-125,4,2,2,70,0,0
75149,-125,4,2,1,70,0,0
75252,-125,4,2,2,70,0,0
75770,-76.9230769230769,4,2,2,70,0,0
76183,-111.111111111111,4,2,2,70,0,0
77321,-76.9230769230769,4,2,1,5,0,0
77425,-138.888888888889,4,2,2,55,0,0
78046,-138.888888888889,4,2,1,55,0,0
78252,-138.888888888889,4,2,1,60,0,0
78666,-138.888888888889,4,2,1,65,0,0
78873,-138.888888888889,4,2,1,60,0,0
79080,-138.888888888889,4,2,1,55,0,0
79287,-138.888888888889,4,2,1,50,0,0
79494,-43.4782608695652,4,2,1,75,0,0
79804,-76.9230769230769,4,2,1,5,0,0
79908,-43.4782608695652,4,2,1,55,0,0
80321,-43.4782608695652,4,2,1,60,0,0
80735,-43.4782608695652,4,2,1,65,0,0
81149,-66.6666666666667,4,2,1,80,0,1
81459,-66.6666666666667,4,2,1,5,0,1
81563,-76.9230769230769,4,2,1,80,0,1
81873,-76.9230769230769,4,2,2,80,0,1
82183,-76.9230769230769,4,2,1,80,0,1
82701,-76.9230769230769,4,2,2,80,0,1
83011,-76.9230769230769,4,2,1,80,0,1
83632,-76.9230769230769,4,2,2,80,0,1
83839,-76.9230769230769,4,2,1,80,0,1
86218,-66.6666666666667,4,2,1,5,0,1
86321,-76.9230769230769,4,2,1,80,0,1
86632,-66.6666666666667,4,2,1,5,0,1
86735,-76.9230769230769,4,2,1,80,0,1
87873,-76.9230769230769,4,2,2,80,0,1
88183,-76.9230769230769,4,2,1,80,0,1
88908,-76.9230769230769,4,2,2,80,0,1
89218,-76.9230769230769,4,2,1,80,0,1
89839,-76.9230769230769,4,2,2,80,0,1
90046,-76.9230769230769,4,2,1,80,0,1
91287,-153.846153846154,4,2,1,80,0,1
91701,-66.6666666666667,4,2,1,80,0,1
92011,-66.6666666666667,4,2,1,5,0,1
92114,-66.6666666666667,4,2,1,80,0,1
92425,-66.6666666666667,4,2,1,5,0,1
92528,-83.3333333333333,4,2,1,80,0,1
94390,-66.6666666666667,4,2,1,80,0,1
94701,-66.6666666666667,4,2,1,5,0,1
94804,-76.9230769230769,4,2,1,80,0,1
95114,-76.9230769230769,4,2,2,80,0,1
95425,-76.9230769230769,4,2,1,80,0,1
95942,-76.9230769230769,4,2,2,80,0,1
96252,-76.9230769230769,4,2,1,80,0,1
96873,-76.9230769230769,4,2,2,80,0,1
97494,-76.9230769230769,4,2,1,80,0,1
99563,-66.6666666666667,4,2,1,80,0,1
99873,-66.6666666666667,4,2,1,5,0,1
99977,-76.9230769230769,4,2,1,80,0,1
101218,-66.6666666666667,4,2,1,5,0,1
101321,-76.9230769230769,4,2,1,80,0,1
101528,-66.6666666666667,4,2,1,5,0,1
101632,-76.9230769230769,4,2,1,80,0,1
102873,-66.6666666666667,4,2,1,5,0,1
102977,-76.9230769230769,4,2,1,80,0,1
103183,-66.6666666666667,4,2,1,5,0,1
103287,-76.9230769230769,4,2,1,80,0,1
107632,-66.6666666666667,4,2,1,80,0,1
107942,-66.6666666666667,4,2,1,5,0,1
108046,-100,4,2,1,80,0,1
108252,-83.3333333333333,4,2,1,80,0,1
110114,-71.4285714285714,4,2,1,80,0,1
110425,-66.6666666666667,4,2,1,5,0,1
110528,-83.3333333333333,4,2,1,80,0,1
112597,-83.3333333333333,4,2,2,80,0,1
112804,-83.3333333333333,4,2,1,80,0,1
112908,-83.3333333333333,4,2,2,80,0,1
113218,-83.3333333333333,4,2,1,80,0,1
113321,-83.3333333333333,4,2,2,80,0,1
113425,-83.3333333333333,4,2,1,80,0,1
113528,-71.4285714285714,4,2,1,80,0,1
114252,-55.5555555555556,4,2,1,80,0,1
114563,-66.6666666666667,4,2,1,5,0,1
114666,-83.3333333333333,4,2,1,80,0,1
115908,-83.3333333333333,4,2,2,80,0,1
116528,-83.3333333333333,4,2,1,80,0,1
116735,-83.3333333333333,4,2,2,80,0,1
117563,-66.6666666666667,4,2,1,80,0,1
117770,-66.6666666666667,4,2,1,5,0,1
117873,-66.6666666666667,4,2,1,80,0,1
118080,-66.6666666666667,4,2,1,5,0,1
118183,-100,4,2,1,80,0,1
118390,-66.6666666666667,4,2,1,80,0,1
118597,-66.6666666666667,4,2,1,5,0,1
118701,-66.6666666666667,4,2,1,80,0,1
118908,-66.6666666666667,4,2,1,5,0,1
119011,-100,4,2,1,80,0,1
119218,-66.6666666666667,4,2,1,80,0,1
119425,-66.6666666666667,4,2,1,5,0,1
119528,-66.6666666666667,4,2,1,80,0,1
119735,-66.6666666666667,4,2,1,5,0,1
119839,-100,4,2,1,80,0,1
120046,-83.3333333333333,4,2,1,80,0,1
120873,-83.3333333333333,4,2,1,50,0,0
121287,-500,4,2,1,50,0,0
121597,-500,4,2,1,5,0,0
121701,413.793103448276,4,2,1,70,1,0
121701,-71.4285714285714,4,2,1,70,0,1
122011,-71.4285714285714,4,2,1,5,0,1
122114,-125,4,2,1,70,0,0
122942,-83.3333333333333,4,2,1,70,0,0
123252,-83.3333333333333,4,2,1,5,0,0
123356,-83.3333333333333,4,2,1,70,0,0
123666,-83.3333333333333,4,2,1,5,0,0
123769,-142.857142857143,4,2,1,70,0,0
124390,-100,4,2,1,70,0,0
125011,-83.3333333333333,4,2,1,70,0,0
125735,-83.3333333333333,4,2,1,5,0,0
125838,-83.3333333333333,4,2,1,70,0,0
127390,-83.3333333333333,4,2,1,5,0,0
127494,-83.3333333333333,4,2,1,70,0,0
128321,-125,4,2,1,70,0,0
128838,-125,4,2,2,70,0,0
129149,-125,4,2,1,70,0,0
130701,-125,4,2,1,5,0,0
130804,-125,4,2,1,70,0,0
131632,-71.4285714285714,4,2,1,70,0,0
132356,-71.4285714285714,4,2,1,5,0,0
132459,-125,4,2,1,70,0,0
134942,-71.4285714285714,4,2,1,70,0,0
135252,-71.4285714285714,4,2,1,5,0,0
135356,-125,4,2,1,70,0,0
136183,-100,4,2,1,70,0,0
136494,-71.4285714285714,4,2,1,5,0,0
136597,-100,4,2,1,70,0,0
136907,-71.4285714285714,4,2,1,5,0,0
137011,-100,4,2,1,70,0,0
137528,-100,4,2,2,70,0,0
137632,-100,4,2,1,70,0,0
138252,-83.3333333333333,4,2,1,70,0,0
138563,-71.4285714285714,4,2,1,5,0,0
138666,-100,4,2,1,70,0,0
140218,-71.4285714285714,4,2,1,5,0,0
140321,-100,4,2,1,70,0,0
140735,-100,4,2,2,70,0,0
141356,-100,4,2,1,70,0,0
141563,-76.9230769230769,4,2,1,70,0,0
141976,-142.857142857143,4,2,1,70,0,0
142390,-76.9230769230769,4,2,1,70,0,0
142804,-142.857142857143,4,2,1,70,0,0
143218,-166.666666666667,4,2,1,70,0,0
143425,-111.111111111111,4,2,1,70,0,0
143632,-166.666666666666,4,2,1,70,0,0
143838,-111.111111111111,4,2,1,70,0,0
144045,-125,4,2,2,70,0,0
144459,-125,4,2,1,70,0,0
144873,-66.6666666666667,4,2,1,70,0,0
145080,-71.4285714285714,4,2,1,5,0,0
145183,-58.8235294117647,4,2,1,70,0,0
145390,-71.4285714285714,4,2,1,5,0,0
145494,-100,4,2,1,70,0,0
146011,-66.6666666666667,4,2,1,70,0,0
146218,-71.4285714285714,4,2,1,5,0,0
146321,-100,4,2,1,70,0,0
148390,-100,4,2,1,55,0,0
149838,-55.5555555555556,4,2,1,75,0,0
150252,-83.3333333333333,4,2,1,60,0,0
156769,-83.3333333333333,4,2,1,5,0,0
156873,-83.3333333333333,4,2,1,60,0,0
161425,-83.3333333333333,4,2,2,60,0,0
163080,-83.3333333333333,4,2,2,65,0,0
163700,-83.3333333333333,4,2,1,65,0,0
163804,-83.3333333333333,4,2,2,65,0,0
164114,-83.3333333333333,4,2,1,65,0,0
164218,-83.3333333333333,4,2,2,65,0,0
164528,-83.3333333333333,4,2,1,65,0,0
164632,-83.3333333333333,4,2,2,65,0,0
164942,-83.3333333333333,4,2,1,65,0,0
165046,-83.3333333333333,4,2,2,65,0,0
165356,-83.3333333333333,4,2,1,65,0,0
165460,-83.3333333333333,4,2,2,65,0,0
165769,-83.3333333333333,4,2,1,65,0,0
165873,-83.3333333333333,4,2,2,65,0,0
166183,-83.3333333333333,4,2,1,65,0,0
166287,-83.3333333333333,4,2,2,65,0,0
166597,-83.3333333333333,4,2,1,65,0,0
166701,-83.3333333333333,4,2,2,65,0,0
167011,-83.3333333333333,4,2,1,65,0,0
167115,-83.3333333333333,4,2,2,65,0,0
167425,-83.3333333333333,4,2,1,65,0,0
167529,-83.3333333333333,4,2,2,65,0,0
167838,-83.3333333333333,4,2,1,65,0,0
167942,-83.3333333333333,4,2,2,65,0,0
168252,-83.3333333333333,4,2,1,65,0,0
168356,-83.3333333333333,4,2,2,65,0,0
168666,-83.3333333333333,4,2,1,65,0,0
168770,-83.3333333333333,4,2,2,65,0,0
169080,-83.3333333333333,4,2,1,65,0,0
169184,-83.3333333333333,4,2,2,65,0,0
169493,-83.3333333333333,4,2,1,65,0,0
169597,-83.3333333333333,4,2,2,65,0,0
169907,-83.3333333333333,4,2,1,65,0,0
170011,-83.3333333333333,4,2,2,65,0,0
170321,-83.3333333333333,4,2,1,65,0,0
170425,-83.3333333333333,4,2,2,65,0,0
170735,-83.3333333333333,4,2,1,65,0,0
170839,-83.3333333333333,4,2,2,65,0,0
171149,-83.3333333333333,4,2,1,65,0,0
171253,-83.3333333333333,4,2,2,65,0,0
171562,-83.3333333333333,4,2,1,65,0,0
171666,-83.3333333333333,4,2,2,65,0,0
171976,-83.3333333333333,4,2,1,65,0,0
172080,-83.3333333333333,4,2,2,65,0,0
172390,-83.3333333333333,4,2,1,65,0,0
172494,-83.3333333333333,4,2,2,65,0,0
173218,-83.3333333333333,4,2,1,65,0,0
173322,-83.3333333333333,4,2,2,65,0,0
173631,-83.3333333333333,4,2,1,65,0,0
173735,-83.3333333333333,4,2,2,65,0,0
173942,-71.4285714285714,4,2,1,5,0,0
174045,-83.3333333333333,4,2,1,65,0,0
174149,-83.3333333333333,4,2,2,65,0,0
174769,-71.4285714285714,4,2,1,5,0,0
174873,-83.3333333333333,4,2,1,65,0,0
174977,-83.3333333333333,4,2,2,65,0,0
175287,-83.3333333333333,4,2,1,65,0,0
175391,-83.3333333333333,4,2,2,65,0,0
175700,-83.3333333333333,4,2,1,65,0,0
175804,-83.3333333333333,4,2,2,65,0,0
176114,-83.3333333333333,4,2,1,65,0,0
176218,-83.3333333333333,4,2,2,65,0,0
176321,-200,4,2,2,65,0,0
177045,-200,4,2,2,5,0,0
177149,-200,4,2,2,55,0,0
181700,-200,4,2,2,60,0,0
182114,-200,4,2,2,65,0,0
182528,-200,4,2,2,70,0,0
182942,-100,4,2,2,70,0,0
186459,-100,4,2,1,70,0,0
186562,-100,4,2,2,70,0,0
186769,-71.4285714285714,4,2,1,5,0,0
186873,-100,4,2,1,70,0,0
186976,-100,4,2,2,70,0,0
187287,-100,4,2,1,70,0,0
187390,-100,4,2,2,70,0,0
187597,-71.4285714285714,4,2,1,5,0,0
187700,-100,4,2,1,70,0,0
187803,-100,4,2,2,70,0,0
188114,-100,4,2,1,70,0,0
188217,-100,4,2,2,70,0,0
188425,-71.4285714285714,4,2,1,5,0,0
188528,-100,4,2,1,70,0,0
188631,-100,4,2,2,70,0,0
190804,-100,4,2,2,55,0,0
191425,-100,4,2,1,55,0,0
191631,-100,4,2,1,60,0,0
192045,-100,4,2,1,65,0,0
192252,-100,4,2,1,60,0,0
192459,-100,4,2,1,55,0,0
192666,-100,4,2,1,50,0,0
192873,-50,4,2,1,75,0,0
193287,-100,4,2,1,55,0,0
193700,-100,4,2,1,60,0,0
194114,-100,4,2,1,65,0,0
194528,-66.6666666666667,4,2,1,80,0,1
196804,-66.6666666666667,4,2,2,80,0,1
197425,-66.6666666666667,4,2,1,80,0,1
201459,-66.6666666666667,4,2,1,5,0,1
201563,-66.6666666666667,4,2,1,80,0,1
204459,-55.5555555555556,4,2,1,80,0,1
205080,-66.6666666666667,4,2,1,80,0,1
205494,-55.5555555555556,4,2,1,80,0,1
206114,-66.6666666666667,4,2,1,80,0,1
206632,-66.6666666666667,4,2,1,5,0,1
206735,-66.6666666666667,4,2,1,80,0,1
210045,-66.6666666666667,4,2,2,80,0,1
210666,-66.6666666666667,4,2,1,80,0,1
214597,-66.6666666666667,4,2,1,5,0,1
214701,-66.6666666666667,4,2,1,80,0,1
216252,-66.6666666666667,4,2,1,5,0,1
216356,-66.6666666666667,4,2,1,80,0,1
219873,-66.6666666666667,4,2,1,5,0,1
219976,-66.6666666666667,4,2,1,80,0,1
224321,-66.6666666666667,4,2,2,80,0,1
225149,-66.6666666666667,4,2,1,80,0,1
225976,-66.6666666666667,4,2,2,80,0,1
226183,-66.6666666666667,4,2,1,80,0,1
226287,-66.6666666666667,4,2,2,80,0,1
226597,-66.6666666666667,4,2,1,80,0,1
226700,-66.6666666666667,4,2,2,80,0,1
226804,-66.6666666666667,4,2,1,80,0,1
230114,-66.6666666666667,4,2,2,80,0,1
230528,-66.6666666666667,4,2,1,80,0,1
230838,-66.6666666666667,4,2,1,5,0,1
230942,-66.6666666666667,4,2,1,80,0,1
234252,-100,4,2,1,50,0,0
234769,-250,4,2,1,50,0,0
234976,-250,4,2,1,5,0,0
235080,413.793103448276,4,2,1,70,1,1
235080,-100,4,2,1,70,0,1
235286,-100,4,2,1,70,0,0
242424,-66.6666666666667,4,2,1,5,0,0
242528,-100,4,2,1,70,0,0
244080,-66.6666666666667,4,2,1,5,0,0
244183,-100,4,2,1,70,0,0
245735,-66.6666666666667,4,2,1,5,0,0
245838,-100,4,2,1,70,0,0
247390,-66.6666666666667,4,2,1,5,0,0
247493,-100,4,2,1,70,0,0
248735,-100,4,2,1,55,0,0
248838,-333.333333333333,4,2,1,55,0,0
249044,-333.333333333333,4,2,1,5,0,0
249148,413.793103448276,4,2,1,75,1,0
249148,-50,4,2,1,75,0,0
249458,-50,4,2,1,5,0,0
249563,-50,4,2,1,50,0,0
249976,-50,4,2,1,55,0,0
250390,-50,4,2,1,60,0,0
250803,-62.5,4,2,1,75,0,0
251113,-62.5,4,2,1,5,0,0
251216,-100,4,2,1,75,0,0
252044,-71.4285714285714,4,2,1,75,0,0
252768,-62.5,4,2,1,5,0,0
252872,-100,4,2,1,75,0,0
254113,-71.4285714285714,4,2,1,75,0,0
254423,-62.5,4,2,1,5,0,0
254527,-100,4,2,1,75,0,0
255561,-71.4285714285714,4,2,1,75,0,0
255872,-62.5,4,2,1,5,0,0
255975,-71.4285714285714,4,2,1,75,0,0
256285,-62.5,4,2,1,5,0,0
256389,-71.4285714285714,4,2,1,75,0,0
257010,-333.333333333333,4,2,1,75,0,0
257320,-62.5,4,2,1,5,0,0
257423,-83.3333333333333,4,2,1,75,0,0
258251,-100,4,2,1,75,0,0
258769,-100,4,2,2,75,0,0
259079,-125,4,2,1,75,0,0
260734,-100,4,2,1,75,0,0
260941,-71.4285714285714,4,2,1,75,0,0
261251,-62.5,4,2,1,5,0,0
261354,-71.4285714285714,4,2,1,75,0,0
261665,-62.5,4,2,1,5,0,0
261768,-71.4285714285714,4,2,1,75,0,0
262079,-62.5,4,2,1,5,0,0
262182,-100,4,2,1,75,0,0
264044,-100,4,2,1,80,0,1
264252,-66.6666666666667,4,2,1,80,0,1
267354,-66.6666666666667,4,2,1,70,0,0
267768,-100,4,2,1,70,0,0
269216,-66.6666666666667,4,2,1,70,0,0
269527,-62.5,4,2,1,5,0,0
269630,-100,4,2,1,70,0,0
269942,-100,4,2,2,70,0,0
270665,-66.6666666666667,4,2,1,75,0,0
270872,-62.5,4,2,1,5,0,0
270975,-55.5555555555556,4,2,1,75,0,0
271182,-62.5,4,2,1,5,0,0
271285,-83.3333333333333,4,2,1,75,0,0
272320,-66.6666666666667,4,2,1,75,0,0
272527,-62.5,4,2,1,5,0,0
272630,-52.6315789473684,4,2,1,75,0,0
272837,-62.5,4,2,1,5,0,0
272941,-83.3333333333333,4,2,1,75,0,0
273975,-55.5555555555556,4,2,1,75,0,0
274287,-83.3333333333333,4,2,1,75,0,0
274803,-55.5555555555556,4,2,1,75,0,0
275114,-83.3333333333333,4,2,1,75,0,0
275734,-83.3333333333333,4,2,2,75,0,0
276458,-83.3333333333333,4,2,1,75,0,0
278113,-333.333333333333,4,2,1,55,0,0
279768,-125,4,2,1,55,0,0
282252,-125,4,2,2,55,0,0
282666,-125,4,2,2,60,0,0
283080,-125,4,2,2,65,0,0
283494,-125,4,2,2,70,0,0
283906,-55.5555555555556,4,2,2,70,0,0
284113,-62.5,4,2,1,5,0,0
284216,-55.5555555555556,4,2,2,70,0,0
284423,-62.5,4,2,1,5,0,0
284527,-83.3333333333333,4,2,2,70,0,0
285561,-55.5555555555556,4,2,2,70,0,0
285768,-62.5,4,2,1,5,0,0
285872,-55.5555555555556,4,2,2,70,0,0
286079,-62.5,4,2,1,5,0,0
286182,-83.3333333333333,4,2,2,70,0,0
286596,-125,4,2,2,70,0,0
286803,-71.4285714285714,4,2,2,70,0,0
287425,-71.4285714285714,4,2,1,70,0,0
287528,-125,4,2,2,70,0,0
287837,-125,4,2,1,70,0,0
287942,-125,4,2,2,70,0,0
288044,-71.4285714285714,4,2,2,70,0,0
288253,-71.4285714285714,4,2,1,70,0,0
288356,-71.4285714285714,4,2,2,70,0,0
288458,-125,4,2,2,70,0,0
288666,-125,4,2,1,70,0,0
288769,-125,4,2,2,70,0,0
288872,-71.4285714285714,4,2,2,70,0,0
289080,-71.4285714285714,4,2,1,70,0,0
289183,-71.4285714285714,4,2,2,70,0,0
289285,-125,4,2,2,70,0,0
289494,-125,4,2,1,70,0,0
289597,-125,4,2,2,70,0,0
290113,-71.4285714285714,4,2,2,70,0,0
290527,-111.111111111111,4,2,2,70,0,0
291665,-62.5,4,2,1,5,0,0
291768,-138.888888888889,4,2,2,55,0,0
292391,-138.888888888889,4,2,1,55,0,0
292597,-138.888888888889,4,2,1,60,0,0
293011,-138.888888888889,4,2,1,65,0,0
293218,-138.888888888889,4,2,1,60,0,0
293425,-138.888888888889,4,2,1,55,0,0
293630,-138.888888888889,4,2,1,50,0,0
293837,-200,4,2,1,75,0,0
294253,-200,4,2,1,55,0,0
294666,-200,4,2,1,60,0,0
295080,-200,4,2,1,65,0,0
305423,-83.3333333333333,4,2,1,65,0,0
307079,-45.4545454545455,4,2,1,75,0,0
307183,-45.4545454545455,4,2,1,65,0,0
307287,-66.6666666666667,4,2,1,65,0,0
307803,-66.6666666666667,4,2,1,5,0,0
307906,-66.6666666666667,4,2,1,65,0,0
308734,-58.1395348837209,4,2,1,85,0,1
311216,-58.1395348837209,4,2,2,85,0,1
312044,-58.1395348837209,4,2,1,85,0,1
318665,-58.1395348837209,4,2,2,85,0,1
319906,-58.1395348837209,4,2,1,85,0,1
320837,-62.5,4,2,1,5,0,1
320941,-58.1395348837209,4,2,1,85,0,1
321975,-55.5555555555556,4,2,1,85,0,1
322285,-62.5,4,2,1,5,0,1
322389,-66.6666666666667,4,2,1,85,0,1
324458,-66.6666666666667,4,2,2,85,0,1
324872,-66.6666666666667,4,2,1,85,0,1
326942,-66.6666666666667,4,2,2,85,0,1
327149,-66.6666666666667,4,2,1,85,0,1
327253,-66.6666666666667,4,2,2,85,0,1
327563,-66.6666666666667,4,2,1,85,0,1
327666,-66.6666666666667,4,2,2,85,0,1
327770,-66.6666666666667,4,2,1,85,0,1
328596,-55.5555555555556,4,2,1,85,0,1
328906,-55.5555555555556,4,2,1,5,0,1
329010,-66.6666666666667,4,2,1,85,0,1
330251,-66.6666666666667,4,2,2,85,0,1
330872,-66.6666666666667,4,2,1,85,0,1
331906,-55.5555555555556,4,2,1,85,0,1
332113,-55.5555555555556,4,2,1,5,0,1
332216,-58.8235294117647,4,2,1,85,0,1
332423,-55.5555555555556,4,2,1,5,0,1
332527,-100,4,2,1,85,0,1
332734,-55.5555555555556,4,2,1,85,0,1
332941,-55.5555555555556,4,2,1,5,0,1
333044,-55.5555555555556,4,2,1,85,0,1
333251,-55.5555555555556,4,2,1,5,0,1
333354,-83.3333333333333,4,2,1,85,0,1
333561,-55.5555555555556,4,2,1,85,0,1
333768,-55.5555555555556,4,2,1,5,0,1
333872,-55.5555555555556,4,2,1,85,0,1
334079,-55.5555555555556,4,2,1,5,0,1
334182,-83.3333333333333,4,2,1,85,0,1
335216,-83.3333333333333,4,2,1,55,0,0
335734,-500,4,2,1,55,0,0
335941,-55.5555555555556,4,2,1,5,0,0
336044,-55.5555555555556,4,2,1,75,0,1
336354,-55.5555555555556,4,2,1,5,0,1
336458,-100,4,2,1,75,0,0
337285,-76.9230769230769,4,2,1,75,0,0
337596,-76.9230769230769,4,2,1,5,0,0
337699,-100,4,2,1,75,0,0
338423,-66.6666666666667,4,2,1,5,0,0
338527,-100,4,2,1,75,0,0
338734,-71.4285714285714,4,2,1,75,0,0
339665,-76.9230769230769,4,2,1,5,0,0
339768,-100,4,2,1,75,0,0
341216,-100,4,2,2,75,0,0
341838,-100,4,2,1,75,0,0
342251,-333.333333333333,4,2,1,75,0,0
342561,-76.9230769230769,4,2,1,5,0,0
342665,-100,4,2,1,75,0,0
343079,-76.9230769230769,4,2,1,75,0,0
343389,-76.9230769230769,4,2,1,5,0,0
343492,-100,4,2,1,75,0,0
343906,-76.9230769230769,4,2,1,75,0,0
344216,-76.9230769230769,4,2,1,5,0,0
344320,-125,4,2,1,75,0,0
344734,-100,4,2,1,75,0,0
345148,-100,4,2,2,75,0,0
347632,-100,4,2,2,80,0,0
349287,413.793103448276,4,2,2,90,1,1
349287,-100,4,2,2,90,0,1
349494,-100,4,2,1,90,0,1
349597,-100,4,2,2,90,0,1
349907,-100,4,2,1,90,0,1
350010,-100,4,2,2,90,0,1
350321,-100,4,2,1,90,0,1
350424,-100,4,2,2,90,0,1
350735,-100,4,2,1,90,0,1
350838,-100,4,2,2,90,0,1
351149,-100,4,2,1,90,0,1
351252,-100,4,2,2,90,0,1
351563,-100,4,2,1,90,0,1
351666,-100,4,2,2,90,0,1
351976,-100,4,2,1,90,0,1
352079,-100,4,2,2,90,0,1
352390,-100,4,2,1,90,0,1
352493,-100,4,2,2,90,0,1
352597,-71.4285714285714,4,2,2,90,0,0
352907,-76.9230769230769,4,2,1,5,0,0
353011,-100,4,2,2,75,0,0
353838,-100,4,2,1,75,0,0
356321,-125,4,2,1,75,0,0
356735,-100,4,2,1,75,0,0
357149,-76.9230769230769,4,2,1,75,0,0
357459,-76.9230769230769,4,2,1,5,0,0
357562,-125,4,2,1,75,0,0
357976,-100,4,2,1,75,0,0
358390,-100,4,2,2,75,0,0
359218,-55.5555555555556,4,2,2,75,0,0
359424,-76.9230769230769,4,2,1,5,0,0
359528,-55.5555555555556,4,2,2,75,0,0
359735,-76.9230769230769,4,2,1,5,0,0
359838,-100,4,2,2,75,0,0
360355,-50,4,2,2,75,0,0
360562,-76.9230769230769,4,2,1,5,0,0
360666,-100,4,2,2,75,0,0
362735,-100,4,2,2,55,0,0
364183,-40,4,2,1,100,0,0
364287,-40,4,2,1,5,0,0

[Colours]
Combo1 : 230,0,230
Combo2 : 128,128,255
Combo3 : 192,192,192

[HitObjects]
51,374,6666,6,0,L|41:311,1,52.5,6|0,3:2|0:0,0:0:0:0:
132,361,6873,2,0,L|122:298,2,52.5,2|0|0,0:0|0:0|3:2,0:0:0:0:
213,348,7183,2,0,L|203:285,2,52.5,2|0|0,0:0|0:0|0:0,0:0:0:0:
294,335,7494,2,0,L|284:272,2,52.5,2|0|0,3:2|0:0|0:0,0:0:0:0:
375,322,7804,2,0,L|365:259,2,52.5,2|0|0,0:0|3:2|0:0,0:0:0:0:
456,309,8114,2,0,L|446:246,1,52.5,2|0,0:0|0:0,0:0:0:0:
413,151,8321,6,0,L|422:88,1,52.5,2|0,3:2|0:0,0:0:0:0:
332,138,8528,2,0,L|341:75,2,52.5,2|0|0,0:0|0:0|3:2,0:0:0:0:
251,125,8839,2,0,L|260:62,2,52.5,2|0|0,0:0|0:0|0:0,0:0:0:0:
170,112,9149,2,0,L|179:49,2,52.5,2|0|0,3:2|0:0|0:0,0:0:0:0:
89,99,9459,2,0,L|98:36,2,52.5,2|0|0,0:0|3:2|0:0,0:0:0:0:
8,86,9770,2,0,L|17:23,1,52.5,2|0,0:0|0:0,0:0:0:0:
42,322,9977,6,0,L|51:374,1,52.5,0|0,3:2|0:0,0:0:0:0:
123,309,10183,2,0,L|132:361,2,52.5,2|0|0,0:0|0:0|3:2,0:0:0:0:
204,296,10494,2,0,L|213:348,2,52.5,2|0|0,0:0|0:0|0:0,0:0:0:0:
285,283,10804,2,0,L|294:335,2,52.5,2|0|0,3:2|0:0|0:0,0:0:0:0:
366,270,11114,2,0,L|375:322,2,52.5,2|0|0,0:0|3:2|0:0,0:0:0:0:
447,257,11425,2,0,L|456:309,1,52.5,2|0,0:0|0:0,0:0:0:0:
413,151,11632,6,0,L|422:88,1,52.5,0|0,3:2|0:0,0:0:0:0:
332,138,11839,2,0,L|341:75,2,52.5,2|0|0,0:0|0:0|3:2,0:0:0:0:
251,125,12149,2,0,L|260:62,2,52.5,2|0|0,0:0|0:0|0:0,0:0:0:0:
183,192,12459,6,0,B|189:191|224:225|182:283|129:279|72:237|92:171|115:130|167:120|167:120|163:117|163:117|123:66|55:85|55:85|51:84|51:84|76:97|79:115,1,440.999986541748,2|0,3:2|0:0,0:0:0:0:
16,155,13287,6,0,P|179:123|341:101,1,325.5,6|2,3:2|0:0,0:1:0:0:
378,35,16597,6,0,P|399:51|415:81,1,52.5,0|0,3:2|0:0,0:0:0:0:
445,162,16804,2,0,P|458:139|479:123,1,52.5,2|0,3:2|0:0,0:0:0:0:
260,223,17011,6,0,P|263:196|281:167,1,52.5,0|2,3:2|0:0,0:0:0:0:
336,101,17218,2,0,P|309:100|285:90,1,52.5,0|0,3:2|0:0,0:0:0:0:
482,232,17425,6,0,P|457:242|423:241,1,52.5,2|0,3:2|0:0,0:0:0:0:
338,226,17632,2,0,P|350:248|353:274,1,52.5,0|2,3:2|0:0,0:0:0:0:
171,315,17839,2,0,P|184:292|205:276,1,52.5,0|0,3:2|0:0,0:0:0:0:
274,346,18046,2,0,P|260:368|239:384,1,52.5,2|0,3:2|0:0,0:0:0:0:
26,365,18252,5,2,3:2:0:0:
6,317,18356,1,0,3:2:0:0:
23,269,18459,1,0,3:2:0:0:
69,244,18563,1,0,3:2:0:0:
118,256,18666,6,0,P|112:225|105:199,1,52.5,0|2,3:2|0:3,0:0:0:0:
183,151,18873,2,0,P|188:181|195:207,1,52.5,2|2,3:3|0:3,0:0:0:0:
78,125,19080,6,0,P|83:94|90:68,1,52.5,2|2,3:3|0:3,0:0:0:0:
13,20,19287,2,0,P|7:50|0:76,1,52.5,2|2,3:3|0:3,0:0:0:0:
183,151,19494,1,2,3:3:0:0:
204,147,19597,1,2,0:3:0:0:
236,121,19701,1,2,3:3:0:0:
243,49,19804,1,2,0:3:0:0:
172,13,19908,6,0,L|236:-1,1,52.5,4|0,3:1|0:0,0:0:0:0:
486,255,20321,5,2,0:0:0:0:
464,255,20425,1,2,0:0:0:0:
440,244,20528,1,2,0:0:0:0:
419,218,20632,1,2,0:0:0:0:
382,130,20735,5,2,0:0:0:0:
341,134,20839,1,2,0:0:0:0:
298,167,20942,1,2,0:0:0:0:
274,218,21046,1,2,0:0:0:0:
209,288,21149,5,2,0:0:0:0:
150,282,21252,1,2,0:0:0:0:
77,252,21356,1,2,0:0:0:0:
34,188,21459,1,2,0:0:0:0:
40,107,21563,6,0,B|27:128|1:146|1:146|177:109,1,236.250009012223,6|0,3:2|0:0,0:0:0:0:
279,43,21977,2,0,L|217:29,1,62.9999980773926,10|0,3:2|0:0,0:0:0:0:
382,130,22183,1,2,0:2:0:0:
436,126,22287,1,2,0:3:0:0:
472,88,22390,1,2,3:3:0:0:
465,38,22494,1,2,0:3:0:0:
429,6,22597,2,0,L|367:19,1,62.9999980773926,2|0,0:2|0:0,0:0:0:0:
249,116,22804,2,0,L|311:130,1,62.9999980773926,8|0,3:2|0:0,0:0:0:0:
462,323,23011,5,2,0:0:0:0:
408,319,23114,1,2,0:3:0:0:
372,281,23218,1,2,3:3:0:0:
379,231,23321,1,2,0:3:0:0:
415,199,23425,2,0,L|477:212,1,62.9999980773926,2|0,0:0|0:0,0:0:0:0:
242,258,23632,1,8,3:2:0:0:
242,258,23735,1,0,0:0:0:0:
242,258,23839,2,0,L|304:245,1,62.9999980773926,2|0,0:0|0:0,0:0:0:0:
69,199,24046,1,0,3:2:0:0:
69,199,24149,1,0,0:0:0:0:
69,199,24252,2,0,L|131:212,1,62.9999980773926,2|0,0:0|0:0,0:0:0:0:
87,346,24459,1,8,3:2:0:0:
74,351,24563,1,0,0:0:0:0:
62,351,24666,2,0,P|34:323|33:285,1,62.9999980773926,2|0,0:0|0:0,0:0:0:0:
192,159,24873,6,0,P|220:131|221:93,1,62.9999980773926,0|0,3:2|0:0,0:0:0:0:
64,14,25080,1,2,0:0:0:0:
51,9,25183,1,0,0:0:0:0:
39,9,25287,2,0,P|11:37|10:75,1,62.9999980773926,8|0,3:2|0:0,0:0:0:0:
130,211,25494,1,2,0:0:0:0:
130,211,25597,1,0,0:0:0:0:
130,211,25701,2,0,L|68:198,1,62.9999980773926,0|0,3:2|0:0,0:0:0:0:
136,43,25908,1,2,0:0:0:0:
170,21,26011,1,0,0:0:0:0:
214,15,26114,1,10,3:2:0:0:
272,26,26218,1,2,0:0:0:0:
309,75,26321,2,0,P|334:98|390:99,1,62.9999980773926,2|2,0:0|0:0,0:0:0:0:
500,31,26528,5,2,3:3:0:0:
493,60,26632,1,2,0:3:0:0:
486,91,26735,1,2,0:3:0:0:
480,122,26839,1,2,0:3:0:0:
506,198,26942,5,10,3:2:0:0:
473,154,27046,1,2,0:0:0:0:
417,161,27149,2,0,P|383:173|355:210,1,62.9999980773926,2|0,0:0|0:0,0:0:0:0:
484,347,27356,2,0,P|490:311|472:268,1,62.9999980773926,2|0,3:2|0:0,0:0:0:0:
285,296,27563,1,2,0:3:0:0:
289,312,27666,2,0,P|316:335|362:341,1,62.9999980773926,2|8,0:0|3:2,0:0:0:0:
200,219,27873,1,0,0:0:0:0:
196,203,27977,2,0,P|169:180|123:174,1,62.9999980773926,2|0,0:0|0:0,0:0:0:0:
14,362,28183,5,6,3:2:0:0:
69,384,28287,1,2,0:3:0:0:
117,347,28390,1,2,0:3:0:0:
110,287,28494,1,2,0:3:0:0:
56,264,28597,2,0,L|130:248,1,62.9999980773926,10|0,3:2|0:0,0:0:0:0:
221,105,28804,1,2,0:0:0:0:
166,75,28908,1,2,0:3:0:0:
104,82,29011,1,2,3:3:0:0:
58,123,29114,1,2,0:3:0:0:
43,183,29218,2,0,P|37:146|52:108,1,62.9999980773926,2|0,0:0|0:0,0:0:0:0:
184,204,29425,1,8,3:2:0:0:
193,211,29528,1,0,0:0:0:0:
200,219,29632,2,0,P|206:256|191:294,1,62.9999980773926,2|0,0:0|0:0,0:0:0:0:
56,264,29839,6,0,L|130:248,1,62.9999980773926,0|0,3:2|0:0,0:0:0:0:
260,162,30046,1,2,0:0:0:0:
306,171,30149,1,2,0:3:0:0:
352,181,30252,1,10,3:2:0:0:
398,191,30356,1,2,0:3:0:0:
444,201,30459,2,0,P|424:171|423:135,1,62.9999980773926,2|0,0:0|0:0,0:0:0:0:
497,17,30666,1,2,3:2:0:0:
481,44,30770,1,2,0:0:0:0:
447,65,30873,1,2,0:0:0:0:
401,73,30977,1,2,0:0:0:0:
352,49,31080,1,10,3:2:0:0:
308,10,31183,1,2,0:0:0:0:
244,0,31287,1,2,0:0:0:0:
189,34,31390,1,2,0:0:0:0:
182,98,31494,6,0,B|220:114|235:142|235:142|220:113|228:77,1,136.499993751526,6|0,3:2|0:0,0:0:0:0:
190,98,31804,2,0,B|228:114|243:142|243:142|228:113|236:77,1,136.499993751526,0|0,3:2|0:0,0:0:0:0:
344,84,32114,2,0,P|321:91|301:115,1,36.749998878479,0|0,3:2|0:0,0:0:0:0:
163,183,32321,6,0,B|125:199|110:227|110:227|125:198|116:162,1,136.499993751526,0|0,3:2|0:0,0:0:0:0:
155,183,32632,2,0,B|117:199|102:227|102:227|117:198|108:162,1,136.499993751526,0|0,3:2|0:0,0:0:0:0:
1,169,32942,2,0,P|24:176|44:200,1,36.749998878479,0|0,3:2|0:0,0:0:0:0:
182,268,33149,6,0,B|220:284|235:312|235:312|220:283|228:247,1,136.499993751526,0|0,3:2|0:0,0:0:0:0:
190,268,33459,2,0,B|228:284|243:312|243:312|228:283|236:247,1,136.499993751526,0|0,3:2|0:0,0:0:0:0:
344,254,33770,2,0,P|321:261|301:285,1,36.749998878479,0|0,3:2|0:0,0:0:0:0:
59,376,33977,6,0,P|31:356|20:324,1,68.2499968757631,2|2,3:2|0:0,0:0:0:0:
90,274,34183,2,0,P|117:293|128:325,1,68.2499968757631,2|2,3:2|0:0,0:0:0:0:
385,323,34390,1,2,3:2:0:0:
422,257,34494,1,2,0:0:0:0:
385,192,34597,1,2,3:2:0:0:
309,192,34701,1,2,0:0:0:0:
272,257,34804,1,2,0:0:0:0:
348,258,35011,5,2,0:0:0:0:
348,258,35114,1,2,0:0:0:0:
309,323,35425,1,2,0:0:0:0:
309,323,35528,1,2,0:0:0:0:
422,257,35839,1,2,0:0:0:0:
309,192,36252,1,2,0:0:0:0:
348,258,36459,6,0,B|306:195|361:132|361:132|431:128|444:69,1,236.250009012223,6|0,3:2|0:0,0:0:0:0:
367,6,36873,1,0,0:0:0:0:
363,18,36977,1,2,0:3:0:0:
363,30,37080,1,2,0:3:0:0:
364,42,37183,1,2,0:3:0:0:
368,54,37287,1,2,0:3:0:0:
504,47,37494,2,0,P|487:21|444:12,1,62.9999980773926,0|0,3:2|0:0,0:0:0:0:
510,67,37701,1,0,0:0:0:0:
408,209,37908,6,0,P|469:189|509:124,1,125.999996154785,0|0,3:2|0:0,0:0:0:0:
390,207,38218,1,2,0:3:0:0:
374,201,38321,1,2,0:3:0:0:
362,192,38425,1,2,0:3:0:0:
352,181,38528,1,0,0:3:0:0:
364,336,38735,2,0,P|348:306|316:285,2,62.9999980773926,2|2|2,0:3|0:3|0:3,0:0:0:0:
369,353,39046,1,2,0:3:0:0:
369,369,39149,1,2,0:3:0:0:
501,239,39356,1,0,3:2:0:0:
454,238,39459,1,0,3:2:0:0:
410,256,39563,1,0,3:2:0:0:
378,290,39666,1,0,3:2:0:0:
364,336,39770,6,0,P|348:306|316:285,1,62.9999980773926,0|0,3:2|0:0,0:0:0:0:
203,375,39977,2,0,L|298:354,1,84
334,212,40390,1,2,0:3:0:0:
315,209,40494,1,2,0:3:0:0:
299,212,40597,2,0,P|269:228|248:260,1,62.9999980773926,2|0,0:3|0:0,0:0:0:0:
109,368,40804,2,0,P|76:336|22:321,1,94.499997116089,0|0,3:2|0:0,0:0:0:0:
112,379,41218,6,0,P|129:336|172:300,1,94.499997116089,0|0,3:2|0:0,0:0:0:0:
163,281,41632,2,0,P|142:290|129:307,1,31.4999990386963,2|2,0:3|0:3,0:0:0:0:
7,231,41839,1,0,0:3:0:0:
23,228,41942,1,2,0:3:0:0:
40,229,42046,1,2,0:3:0:0:
52,236,42149,1,2,0:3:0:0:
63,245,42252,6,0,P|61:215|47:193,1,47.2499985580445,2|0,0:2|0:0,0:0:0:0:
0,135,42666,5,2,3:2:0:0:
51,123,42770,1,0,3:2:0:0:
102,112,42873,1,0,3:2:0:0:
153,101,42977,1,0,3:2:0:0:
205,90,43080,6,0,B|161:114|110:87|110:87|80:31|20:45,1,188.999994232178,4|0,3:2|0:0,0:0:0:0:
220,169,43494,2,0,P|249:159|271:137,1,62.9999980773926,2|0,3:2|0:0,0:0:0:0:
296,28,43701,1,2,0:3:0:0:
287,44,43804,1,2,0:3:0:0:
279,58,43908,2,0,B|273:39|247:19|247:19|394:50,1,188.999994232178,2|0,3:2|0:0,0:0:0:0:
460,45,44321,2,0,P|456:23|434:-8,1,42,2|0,3:2|0:0,0:0:0:0:
424,117,44528,2,0,P|445:124|482:120,1,42,2|0,0:0|0:0,0:0:0:0:
382,48,44735,2,0,P|364:62|349:97,1,42,0|0,3:2|0:0,0:0:0:0:
220,169,44942,6,0,P|281:197|318:260,1,125.999996154785,2|0,0:0|3:2,0:0:0:0:
430,339,45356,2,0,P|445:316|487:306,1,62.9999980773926,2|2,0:0|0:3,0:0:0:0:
426,358,45563,1,0,3:2:0:0:
460,230,45770,2,0,P|401:252|360:312,1,125.999996154785,2|0,0:0|3:2,0:0:0:0:
187,333,46183,2,0,P|210:354|222:384,1,62.9999980773926,2|0,0:0|0:0,0:0:0:0:
51,349,46390,6,0,B|34:284|82:255|89:257|95:260|155:225|138:169,1,204.749990627289,2|0,3:2|0:0,0:0:0:0:
37,148,46804,2,0,P|48:171|79:187,1,42,0|0,3:2|0:0,0:0:0:0:
144,34,47011,1,2,0:0:0:0:
121,50,47114,1,2,0:3:0:0:
110,77,47218,2,0,B|117:48|144:33|144:33|0:64,1,188.999994232178,2|0,3:2|0:0,0:0:0:0:
185,104,47632,2,0,P|208:108|238:115,1,42,2|0,3:2|0:0,0:0:0:0:
272,39,47839,2,0,P|246:34|218:27,1,42,2|0,0:0|0:0,0:0:0:0:
314,117,48046,5,2,3:3:0:0:
330,127,48149,1,2,0:3:0:0:
356,130,48252,1,2,0:3:0:0:
388,124,48356,1,2,0:3:0:0:
415,106,48459,1,2,3:3:0:0:
430,72,48563,1,2,0:3:0:0:
427,29,48666,1,2,0:0:0:0:
385,42,48770,1,2,0:0:0:0:
372,79,48873,1,2,3:2:0:0:
388,124,48977,1,2,0:0:0:0:
433,148,49080,1,2,3:2:0:0:
481,181,49183,1,2,0:0:0:0:
506,243,49287,1,2,3:2:0:0:
493,313,49390,1,2,0:0:0:0:
430,355,49494,1,2,3:2:0:0:
355,343,49597,1,2,0:0:0:0:
327,272,49701,5,6,3:2:0:0:
347,277,49804,1,2,0:3:0:0:
367,282,49908,1,2,0:3:0:0:
388,287,50011,1,2,0:3:0:0:
408,292,50114,1,0,3:2:0:0:
428,297,50218,1,2,0:3:0:0:
449,302,50321,1,2,0:3:0:0:
469,307,50425,1,2,0:3:0:0:
493,313,50528,5,0,3:2:0:0:
478,281,50632,1,2,0:3:0:0:
463,249,50735,2,0,L|407:260,1,42,2|2,0:3|0:3,0:0:0:0:
276,330,50942,2,0,P|258:308|246:269,1,42,0|2,3:2|0:3,0:0:0:0:
155,270,51149,2,0,P|165:243|192:213,1,42,2|2,0:3|0:3,0:0:0:0:
260,76,51356,5,0,3:2:0:0:
239,68,51459,1,2,0:3:0:0:
214,68,51563,1,2,0:3:0:0:
187,76,51666,1,2,0:3:0:0:
167,93,51770,5,0,3:2:0:0:
195,92,51873,1,2,0:3:0:0:
233,109,51977,1,2,0:3:0:0:
255,136,52080,1,2,0:3:0:0:
265,179,52183,5,0,3:2:0:0:
234,165,52287,1,2,0:3:0:0:
194,167,52390,1,2,0:3:0:0:
158,191,52494,1,2,0:3:0:0:
137,235,52597,1,0,3:2:0:0:
143,290,52701,1,2,0:3:0:0:
190,329,52804,1,2,0:3:0:0:
255,334,52908,1,2,0:3:0:0:
304,290,53011,5,0,3:2:0:0:
278,278,53114,1,2,0:3:0:0:
251,271,53218,1,2,0:3:0:0:
223,268,53321,1,2,0:3:0:0:
195,271,53425,1,0,3:2:0:0:
168,279,53528,1,2,0:3:0:0:
143,290,53632,2,0,P|120:309|103:336,1,42,2|2,0:3|0:3,0:0:0:0:
33,384,53839,5,0,3:2:0:0:
12,347,53942,1,2,0:3:0:0:
8,306,54046,1,2,0:3:0:0:
21,266,54149,1,2,0:3:0:0:
49,235,54252,2,0,P|40:216|22:198,1,42,0|2,3:2|0:3,0:0:0:0:
97,148,54459,2,0,P|111:163|120:182,1,42,2|2,0:3|0:3,0:0:0:0:
223,268,54666,5,0,3:2:0:0:
254,265,54770,1,2,0:3:0:0:
283,254,54873,1,2,0:3:0:0:
309,236,54977,1,2,0:3:0:0:
330,212,55080,2,0,P|339:187|341:162,1,42,0|2,3:2|0:3,0:0:0:0:
430,121,55287,2,0,P|412:100|392:86,1,42,2|2,0:3|0:3,0:0:0:0:
245,67,55494,5,2,3:2:0:0:
256,75,55597,1,2,0:3:0:0:
268,81,55701,2,0,L|254:18,1,42,2|2,0:3|0:3,0:0:0:0:
143,168,55908,1,2,3:2:0:0:
132,176,56011,1,2,0:3:0:0:
120,182,56114,2,0,L|134:119,1,42,2|2,0:3|0:3,0:0:0:0:
223,268,56321,5,6,3:2:0:0:
253,262,56425,1,2,0:3:0:0:
284,265,56528,1,2,0:3:0:0:
313,275,56632,1,2,0:3:0:0:
340,294,56735,2,0,P|355:315|363:339,1,42,0|2,3:2|0:3,0:0:0:0:
479,357,56942,5,2,0:3:0:0:
512,335,57046,1,2,0:3:0:0:
510,295,57149,1,0,3:2:0:0:
473,279,57252,1,2,0:3:0:0:
440,302,57356,2,0,P|431:282|419:266,1,42,2|2,0:3|0:3,0:0:0:0:
320,193,57563,2,0,P|341:195|361:192,1,42,0|2,3:2|0:3,0:0:0:0:
486,101,57770,5,2,0:3:0:0:
492,115,57873,1,2,0:3:0:0:
498,127,57977,2,0,L|447:116,1,42,0|2,3:2|0:3,0:0:0:0:
378,29,58183,1,2,0:3:0:0:
372,15,58287,1,2,0:3:0:0:
366,3,58390,2,0,L|416:13,1,42,0|2,3:2|0:3,0:0:0:0:
341,115,58597,5,2,0:3:0:0:
299,115,58701,1,2,0:3:0:0:
264,92,58804,1,0,3:2:0:0:
248,55,58908,1,2,0:3:0:0:
254,14,59011,2,0,L|210:23,1,42,2|2,0:3|0:3,0:0:0:0:
108,18,59218,2,0,P|123:32|131:63,1,42,2|2,3:2|0:3,0:0:0:0:
33,113,59425,2,0,P|18:99|9:67,1,42,2|2,0:2|0:3,0:0:0:0:
136,160,59632,5,6,3:2:0:0:
146,193,59735,1,2,0:3:0:0:
145,227,59839,1,2,0:3:0:0:
130,259,59942,1,2,0:3:0:0:
106,284,60046,1,0,3:2:0:0:
74,297,60149,1,2,0:3:0:0:
39,299,60252,2,0,P|63:313|85:340,1,42,2|2,0:3|0:3,0:0:0:0:
195,384,60459,1,0,3:2:0:0:
206,384,60563,1,2,0:3:0:0:
215,382,60666,2,0,P|239:368|261:341,1,42,2|2,0:3|0:3,0:0:0:0:
347,266,60873,2,0,P|371:280|393:307,1,42,0|0,3:2|0:0,0:0:0:0:
455,367,61080,6,0,B|493:327|478:267|478:267|421:238|427:186,1,204.749990627289,0|0,3:2|0:0,0:0:0:0:
512,107,61494,2,0,P|502:126|474:139,1,42,0|0,3:2|0:0,0:0:0:0:
445,0,61701,2,0,P|466:0|491:16,1,42,0|0,3:2|0:0,0:0:0:0:
385,111,61908,2,0,P|373:92|376:62,1,42,2|0,3:3|0:0,0:0:0:0:
447,71,62114,1,0,3:2:0:0:
454,71,62321,5,2,3:3:0:0:
447,71,62425,1,0,3:2:0:0:
385,111,62528,1,0,3:2:0:0:
301,50,62632,1,0,3:2:0:0:
209,125,62735,2,0,L|166:135,1,42,2|0,3:3|3:2,0:0:0:0:
454,71,62942,6,0,L|489:63,1,31.5,4|0,3:2|0:0,0:0:0:0:
426,191,63356,6,0,P|382:216|352:277,1,94.499997116089
295,302,63770,2,0,P|330:324|349:353,2,62.9999980773926,0|0|0,3:2|3:2|3:2,0:0:0:0:
295,302,65425,6,0,P|275:318|244:327,1,42,0|0,3:2|0:0,0:0:0:0:
195,383,65632,2,0,P|171:373|147:351,1,42,0|0,3:2|0:0,0:0:0:0:
74,336,65839,2,0,P|70:310|77:279,1,42,0|0,3:2|0:0,0:0:0:0:
54,207,66046,2,0,P|74:191|105:182,1,42,0|0,3:2|0:0,0:0:0:0:
295,302,66252,5,0,3:2:0:0:
295,302,67080,5,0,3:2:0:0:
295,302,67908,5,2,3:3:0:0:
286,297,68011,1,2,0:3:0:0:
276,283,68114,1,2,0:3:0:0:
268,262,68218,1,2,0:3:0:0:
273,232,68321,1,2,0:0:0:0:
294,210,68425,1,2,0:0:0:0:
329,196,68528,1,2,3:2:0:0:
372,195,68632,1,2,0:0:0:0:
419,176,68735,1,2,0:0:0:0:
449,127,68839,1,2,0:0:0:0:
444,66,68942,1,2,0:0:0:0:
399,22,69046,1,2,0:0:0:0:
336,19,69149,5,2,3:2:0:0:
324,57,69252,1,2,0:0:0:0:
372,117,69356,1,2,0:0:0:0:
307,198,69459,1,2,0:0:0:0:
372,301,69563,6,0,B|349:342|303:332|303:332|326:316|331:291,1,125.999996154785,6|0,3:2|0:0,0:0:0:0:
443,244,69873,2,0,B|490:243|504:288|504:288|478:276|454:284,1,125.999996154785,0|0,3:2|0:0,0:0:0:0:
261,263,70183,2,0,P|235:249|185:244,1,62.9999980773926,0|0,3:2|0:0,0:0:0:0:
41,374,70390,5,6,3:2:0:0:
104,368,70494,1,2,0:3:0:0:
141,327,70597,1,2,0:3:0:0:
136,276,70701,1,2,3:3:0:0:
100,248,70804,1,2,0:3:0:0:
60,250,70908,1,2,0:3:0:0:
41,268,71011,1,2,3:3:0:0:
36,289,71114,1,2,0:3:0:0:
42,300,71218,6,0,B|65:262|111:227|111:227|76:251|37:252,1,157.500006008148,4|0,3:2|0:0,0:0:0:0:
25,76,71528,2,0,B|46:114|53:172|53:172|50:129|69:95,1,157.500006008148,0|0,3:2|0:0,0:0:0:0:
210,165,71839,2,0,P|160:164|122:141,1,78.7500030040742,0|0,3:2|0:0,0:0:0:0:
240,11,72046,1,4,3:2:0:0:
256,8,72149,1,2,0:3:0:0:
269,12,72252,2,0,P|293:26|314:55,1,52.5,2|0,0:0|3:2,0:0:0:0:
428,158,72459,2,0,P|403:171|368:175,1,52.5,2|0,0:0|0:0,0:0:0:0:
391,39,72666,2,0,P|390:66|376:99,1,52.5,2|0,3:2|0:0,0:0:0:0:
210,165,72873,6,0,B|224:125|271:116|306:133|306:133|294:155|296:174,1,136.499993751526,4|2,3:2|0:3,0:0:0:0:
198,246,73183,1,0,3:2:0:0:
198,246,73287,2,0,P|175:241|153:224,1,42
59,115,73494,1,2,0:3:0:0:
309,318,73701,6,0,B|295:358|248:367|213:350|213:350|225:328|223:309,1,136.499993751526,0|2,3:2|0:3,0:0:0:0:
321,237,74011,1,0,3:2:0:0:
321,237,74114,2,0,P|344:242|366:259,1,42
460,368,74321,1,2,0:3:0:0:
210,165,74528,6,0,B|224:125|271:116|306:133|306:133|294:155|296:174,1,136.499993751526,4|2,3:2|0:3,0:0:0:0:
198,246,74839,1,0,3:2:0:0:
198,246,74942,2,0,P|175:241|153:224,1,42
82,259,75149,2,0,P|74:236|78:209,1,42,2|0,0:3|0:0,0:0:0:0:
12,165,75356,2,0,P|27:147|53:137,1,42,2|0,3:2|0:0,0:0:0:0:
58,58,75563,2,0,P|81:63|102:80,1,42,2|0,0:0|3:2,0:0:0:0:
297,153,75770,6,0,B|294:155|306:133|306:133|271:116|224:125|210:165,1,136.499993751526,2|0,0:0|3:2,0:0:0:0:
234,328,76183,6,0,B|255:343|262:371|262:371|318:337|335:290|304:214|304:214|306:206|306:206|219:179|195:67|270:20|270:20|239:37|244:61,1,519.749984138489,4|0,3:2|0:0,0:0:0:0:
245,48,77425,2,0,P|256:30|276:19,1,37.8000009228516,2|0,0:3|0:0,0:0:0:0:
158,53,77632,2,0,P|163:32|178:15,1,37.8000009228516,2|0,0:3|0:0,0:0:0:0:
110,123,77839,5,2,0:3:0:0:
113,100,77942,1,2,0:3:0:0:
127,76,78046,1,2,0:0:0:0:
158,53,78149,1,2,0:0:0:0:
201,42,78252,1,2,0:0:0:0:
245,48,78356,1,2,0:0:0:0:
288,73,78459,1,2,0:0:0:0:
313,121,78563,1,2,0:0:0:0:
312,182,78666,1,2,0:0:0:0:
256,240,78770,1,2,0:0:0:0:
177,253,78873,1,2,0:0:0:0:
119,298,78977,1,2,0:0:0:0:
112,337,79080,1,2,0:0:0:0:
122,364,79183,1,2,0:0:0:0:
147,381,79287,1,2,0:0:0:0:
172,384,79390,1,2,0:0:0:0:
190,384,79494,6,0,L|226:17,1,362.250006909371,4|0,0:1|0:0,0:0:0:0:
208,32,79908,5,2,0:0:0:0:
188,58,80011,1,2,0:0:0:0:
189,96,80114,1,2,0:0:0:0:
218,129,80218,1,2,0:0:0:0:
323,138,80321,5,2,0:0:0:0:
354,183,80425,1,2,0:0:0:0:
367,251,80528,1,2,0:0:0:0:
314,306,80632,1,2,0:0:0:0:
203,351,80735,5,2,0:0:0:0:
209,273,80839,1,2,0:0:0:0:
277,229,80942,1,2,0:0:0:0:
367,251,81046,1,2,0:0:0:0:
409,331,81149,6,0,B|345:379|281:326|281:326|259:269|193:273,1,236.250009012223,6|0,3:2|0:0,0:0:0:0:
140,371,81563,2,0,P|174:369|207:345,1,68.2499968757631,10|0,3:2|0:0,0:0:0:0:
119,123,81770,1,2,0:2:0:0:
72,81,81873,1,2,0:3:0:0:
13,99,81977,1,2,3:3:0:0:
0,160,82080,1,2,0:3:0:0:
46,201,82183,2,0,P|80:216|106:257,1,68.2499968757631,2|0,0:2|0:0,0:0:0:0:
202,350,82390,2,0,P|236:335|262:294,1,68.2499968757631,8|0,3:2|0:0,0:0:0:0:
386,131,82597,5,2,0:0:0:0:
449,134,82701,1,2,0:3:0:0:
489,182,82804,1,2,3:3:0:0:
490,245,82908,1,2,0:3:0:0:
455,294,83011,2,0,P|425:271|377:261,1,68.2499968757631,2|0,0:0|0:0,0:0:0:0:
176,144,83218,1,8,3:2:0:0:
188,172,83321,1,0,0:0:0:0:
216,181,83425,2,0,P|251:171|287:165,1,68.2499968757631,2|0,0:0|0:0,0:0:0:0:
433,23,83632,5,2,3:3:0:0:
421,48,83735,1,2,0:3:0:0:
393,57,83839,1,2,0:0:0:0:
359,55,83942,1,2,0:0:0:0:
323,29,84046,1,10,3:2:0:0:
275,0,84149,1,2,0:0:0:0:
214,8,84252,2,0,P|180:26|151:57,1,68.2499968757631,2|0,0:0|0:0,0:0:0:0:
29,215,84459,5,0,3:2:0:0:
56,196,84563,1,0,0:0:0:0:
64,170,84666,2,0,P|51:136|21:102,1,68.2499968757631,2|0,0:0|0:0,0:0:0:0:
145,359,84873,1,8,3:2:0:0:
118,340,84977,1,0,0:0:0:0:
110,314,85080,2,0,P|123:280|153:246,1,68.2499968757631,2|0,0:0|0:0,0:0:0:0:
361,356,85287,1,2,3:2:0:0:
321,342,85390,1,2,0:0:0:0:
302,295,85494,1,2,0:0:0:0:
319,245,85597,1,2,0:0:0:0:
371,226,85701,2,0,L|449:242,1,68.2499968757631,0|2,3:2|0:0,0:0:0:0:
211,217,85908,6,0,B|288:198|288:198|316:159|316:159|390:139,1,204.749990627289,2|0,3:2|0:0,0:0:0:0:
142,255,86321,2,0,B|76:218|85:152|85:152|85:198|134:226,1,204.749990627289,0|0,3:2|0:0,0:0:0:0:
228,134,86735,2,0,L|161:147,1,68.2499968757631,2|0,3:2|0:0,0:0:0:0:
20,20,86942,2,0,P|55:28|102:64,1,68.2499968757631,2|0,3:2|0:0,0:0:0:0:
28,242,87149,1,0,0:0:0:0:
18,230,87252,2,0,P|7:195|15:136,1,68.2499968757631,2|0,0:0|3:2,0:0:0:0:
293,80,87459,1,0,0:0:0:0:
300,92,87563,2,0,P|310:126|302:185,1,68.2499968757631,2|0,0:0|0:0,0:0:0:0:
244,372,87770,5,6,3:2:0:0:
280,323,87873,1,2,0:3:0:0:
333,291,87977,1,2,0:3:0:0:
392,277,88080,1,2,0:3:0:0:
452,285,88183,2,0,P|434:255|399:223,1,68.2499968757631,10|0,3:2|0:0,0:0:0:0:
178,212,88390,1,2,0:0:0:0:
185,223,88494,1,0,0:0:0:0:
194,230,88597,2,0,P|228:229|274:215,1,68.2499968757631,0|0,3:2|0:0,0:0:0:0:
395,38,88804,5,2,0:0:0:0:
361,0,88908,1,2,0:3:0:0:
312,4,89011,1,10,3:2:0:0:
284,45,89114,1,2,0:3:0:0:
300,92,89218,2,0,P|265:92|219:106,1,68.2499968757631,2|0,0:0|0:0,0:0:0:0:
47,222,89425,5,0,3:2:0:0:
65,219,89528,1,0,0:0:0:0:
79,212,89632,2,0,P|96:181|107:134,1,68.2499968757631,2|0,0:0|0:0,0:0:0:0:
44,8,89839,1,8,3:2:0:0:
40,23,89942,1,2,0:3:0:0:
36,39,90046,1,2,0:0:0:0:
72,32,90149,1,2,0:0:0:0:
122,38,90252,1,2,3:2:0:0:
158,73,90356,1,2,0:0:0:0:
189,127,90459,1,2,0:0:0:0:
256,157,90563,1,2,0:0:0:0:
329,148,90666,1,10,3:2:0:0:
378,87,90770,1,2,0:0:0:0:
369,13,90873,2,0,P|332:15|303:41,1,68.2499968757631,2|2,0:0|0:0,0:0:0:0:
191,205,91080,6,0,L|209:293,1,68.2499968757631,6|0,3:2|0:0,0:0:0:0:
296,328,91287,6,0,L|278:240,1,68.2499968757631,0|0,3:2|0:0,0:0:0:0:
99,335,91701,2,0,B|85:312|53:307|53:307|111:278|150:315|138:318|175:360|224:342,1,236.250009012223,0|0,3:2|0:0,0:0:0:0:
39,384,92114,2,0,L|89:149,1,236.250009012223,0|0,3:2|0:0,0:0:0:0:
0,12,92528,2,0,L|14:85,1,62.9999980773926,0|0,3:2|0:0,0:0:0:0:
167,133,92735,6,0,P|151:98|119:80,1,62.9999980773926,2|0,0:0|0:0,0:0:0:0:
204,212,92942,1,2,0:0:0:0:
228,199,93046,2,0,P|250:167|249:130,1,62.9999980773926,2|0,0:0|3:2,0:0:0:0:
157,283,93252,1,0,0:0:0:0:
180,297,93356,2,0,P|218:300|250:280,1,62.9999980773926,2|0,0:0|0:0,0:0:0:0:
383,117,93563,1,2,3:2:0:0:
416,128,93666,1,2,0:0:0:0:
450,163,93770,1,2,3:2:0:0:
469,229,93873,1,2,0:0:0:0:
443,296,93977,5,2,3:2:0:0:
417,226,94080,1,2,0:0:0:0:
450,163,94183,1,2,3:2:0:0:
489,101,94287,1,2,0:0:0:0:
465,32,94390,6,0,B|444:103|368:115|311:80|311:80|337:54|338:12,1,236.250009012223,6|0,3:2|0:0,0:0:0:0:
191,7,94804,2,0,P|225:9|263:20,1,68.2499968757631,10|0,3:2|0:0,0:0:0:0:
88,161,95011,1,2,0:2:0:0:
133,183,95114,1,2,0:3:0:0:
183,178,95218,1,2,3:3:0:0:
223,147,95321,1,2,0:3:0:0:
241,101,95425,2,0,P|208:92|174:90,1,68.2499968757631,2|0,0:2|0:0,0:0:0:0:
42,18,95632,2,0,P|17:42|-1:70,1,68.2499968757631,8|0,3:2|0:0,0:0:0:0:
4,304,95839,5,2,0:0:0:0:
53,293,95942,1,2,0:3:0:0:
89,258,96046,1,2,3:3:0:0:
102,209,96149,1,2,0:3:0:0:
87,160,96252,2,0,P|105:188|129:212,1,68.2499968757631,2|0,0:0|0:0,0:0:0:0:
340,328,96459,1,8,3:2:0:0:
334,289,96563,1,0,0:0:0:0:
306,260,96666,2,0,P|271:262|239:271,1,68.2499968757631,2|0,0:0|0:0,0:0:0:0:
4,304,96873,5,2,3:3:0:0:
22,330,96977,1,2,0:3:0:0:
65,338,97080,1,2,0:3:0:0:
107,324,97183,1,2,0:3:0:0:
139,291,97287,1,10,3:2:0:0:
182,265,97390,1,2,0:3:0:0:
239,270,97494,2,0,P|213:238|174:222,1,68.2499968757631,2|0,0:0|0:0,0:0:0:0:
354,302,97701,5,0,3:2:0:0:
354,323,97804,1,0,0:0:0:0:
349,340,97908,2,0,P|323:372|284:388,1,68.2499968757631,2|0,0:0|0:0,0:0:0:0:
507,284,98114,1,8,3:2:0:0:
500,267,98218,1,0,0:0:0:0:
491,253,98321,2,0,P|465:221|426:205,1,68.2499968757631,2|0,0:0|0:0,0:0:0:0:
263,129,98528,1,2,3:2:0:0:
287,147,98632,1,2,0:0:0:0:
329,154,98735,1,2,0:0:0:0:
378,132,98839,1,2,0:0:0:0:
398,71,98942,2,0,P|372:39|333:23,1,68.2499968757631,0|0,3:2|0:0,0:0:0:0:
497,149,99149,2,0,P|511:110|506:68,1,68.2499968757631,0|0,3:2|0:0,0:0:0:0:
261,48,99356,6,0,P|225:58|186:90,1,68.2499968757631,0|0,3:2|0:0,0:0:0:0:
45,191,99563,2,0,B|8:21|8:21|23:60|62:72,1,236.250009012223,0|0,3:2|0:0,0:0:0:0:
153,165,99977,2,0,L|134:247,1,68.2499968757631,2|0,3:2|0:0,0:0:0:0:
45,384,100183,5,2,0:0:0:0:
0,341,100287,1,2,0:0:0:0:
11,281,100390,1,2,3:2:0:0:
70,262,100494,1,2,0:0:0:0:
116,304,100597,1,2,0:0:0:0:
154,316,100701,1,2,0:0:0:0:
187,286,100804,1,2,3:2:0:0:
177,245,100908,1,2,0:0:0:0:
138,232,101011,6,0,P|73:280|8:292,1,136.499993751526,6|0,3:2|0:0,0:0:0:0:
308,208,101321,2,0,P|243:160|178:148,1,136.499993751526,2|0,3:2|0:0,0:0:0:0:
376,274,101632,2,0,P|349:295|304:303,1,68.2499968757631,2|0,3:2|0:0,0:0:0:0:
463,172,101839,5,2,3:2:0:0:
434,133,101942,1,2,0:0:0:0:
389,148,102046,1,2,0:0:0:0:
389,195,102149,1,2,0:0:0:0:
434,210,102252,1,2,3:2:0:0:
484,153,102356,1,2,0:0:0:0:
446,88,102459,1,2,0:0:0:0:
372,104,102563,1,2,0:0:0:0:
364,178,102666,6,0,P|424:139|498:130,1,136.499993751526,2|0,3:2|0:0,0:0:0:0:
193,254,102977,2,0,P|253:293|327:302,1,136.499993751526,2|0,3:2|0:0,0:0:0:0:
114,199,103287,2,0,P|140:174|175:161,1,68.2499968757631,2|0,3:2|0:0,0:0:0:0:
24,84,103494,5,2,3:2:0:0:
53,45,103597,1,2,0:0:0:0:
98,60,103701,1,2,0:0:0:0:
98,107,103804,1,2,0:0:0:0:
53,122,103908,1,2,3:2:0:0:
3,65,104011,1,2,0:0:0:0:
41,0,104114,1,2,0:0:0:0:
115,16,104218,1,2,0:0:0:0:
123,90,104321,5,6,3:2:0:0:
96,84,104425,1,0,0:0:0:0:
69,79,104528,2,0,L|-8:62,1,68.2499968757631,2|0,0:3|0:0,0:0:0:0:
312,15,104735,1,10,3:2:0:0:
285,21,104839,1,0,0:0:0:0:
258,26,104942,2,0,L|181:43,1,68.2499968757631,2|0,0:3|0:0,0:0:0:0:
501,90,105149,1,2,3:2:0:0:
474,84,105252,1,0,0:0:0:0:
447,79,105356,2,0,L|370:62,1,68.2499968757631,2|0,0:3|0:0,0:0:0:0:
282,277,105563,2,0,P|314:269|346:225,1,68.2499968757631,10|0,3:2|0:0,0:0:0:0:
283,143,105770,2,0,P|251:151|219:195,1,68.2499968757631,2|0,3:2|0:0,0:0:0:0:
21,287,105977,6,0,P|30:319|39:374,1,68.2499968757631,2|0,3:2|0:0,0:0:0:0:
149,167,106183,1,2,0:0:0:0:
142,181,106287,2,0,P|132:213|123:268,1,68.2499968757631,2|0,3:2|0:0,0:0:0:0:
2,69,106494,2,0,P|11:101|17:135,1,68.2499968757631,2|2,0:0|3:2,0:0:0:0:
137,17,106701,1,0,0:0:0:0:
132,28,106804,5,2,3:2:0:0:
155,19,106908,1,2,0:0:0:0:
187,18,107011,1,2,3:2:0:0:
225,37,107114,1,2,0:0:0:0:
288,120,107218,5,2,3:2:0:0:
330,155,107321,1,2,0:0:0:0:
406,159,107425,1,2,3:2:0:0:
475,114,107528,1,2,0:0:0:0:
490,34,107632,6,0,P|380:36|240:81,1,236.250009012223,6|0,3:2|0:0,0:0:0:0:
242,66,108046,2,0,P|268:54|307:41,1,52.5,8|0,3:2|0:0,0:0:0:0:
453,196,108252,2,0,P|425:182|405:158,1,62.9999980773926,2|0,0:2|0:0,0:0:0:0:
286,194,108459,2,0,P|288:225|278:254,1,62.9999980773926,2|0,3:2|0:0,0:0:0:0:
368,338,108666,2,0,P|395:321|425:315,1,62.9999980773926,2|0,0:0|0:0,0:0:0:0:
421,304,108873,2,0,P|390:309|364:327,1,62.9999980773926,10|0,3:2|0:0,0:0:0:0:
213,372,109080,5,2,0:0:0:0:
202,380,109183,1,0,0:0:0:0:
191,384,109287,2,0,P|160:378|134:360,1,62.9999980773926,0|0,3:2|0:0,0:0:0:0:
117,184,109494,1,2,0:0:0:0:
130,189,109597,1,0,0:0:0:0:
139,196,109701,2,0,P|149:225|146:257,1,62.9999980773926,8|0,3:2|0:0,0:0:0:0:
2,335,109908,2,0,P|22:311|51:297,1,62.9999980773926,2|0,0:0|0:0,0:0:0:0:
177,124,110114,2,0,P|289:145|376:221,1,220.499993270874,2|0,3:2|0:0,0:0:0:0:
381,210,110528,2,0,P|361:181|329:156,1,62.9999980773926,10|0,3:2|0:0,0:0:0:0:
129,23,110735,5,2,0:2:0:0:
113,18,110839,1,0,0:0:0:0:
96,17,110942,2,0,P|60:19|23:35,1,62.9999980773926,0|0,3:2|0:0,0:0:0:0:
268,90,111149,1,2,0:0:0:0:
254,103,111252,1,0,0:0:0:0:
238,112,111356,2,0,P|208:121|176:123,1,62.9999980773926,8|0,3:2|0:0,0:0:0:0:
297,7,111563,2,0,P|329:22|356:57,1,62.9999980773926,2|0,0:0|0:0,0:0:0:0:
457,162,111770,2,0,P|479:139|507:127,1,62.9999980773926,2|0,3:2|0:0,0:0:0:0:
498,113,111977,2,0,P|469:125|447:147,1,62.9999980773926,2|0,0:3|0:0,0:0:0:0:
387,364,112183,5,10,3:2:0:0:
412,372,112287,1,2,0:0:0:0:
460,355,112390,1,2,0:0:0:0:
479,294,112494,1,2,0:0:0:0:
432,234,112597,5,2,3:2:0:0:
378,246,112701,1,2,0:3:0:0:
324,258,112804,1,2,0:3:0:0:
270,270,112908,1,2,0:3:0:0:
214,331,113011,5,2,3:2:0:0:
202,328,113114,1,2,0:3:0:0:
190,325,113218,1,2,0:3:0:0:
178,322,113321,1,2,0:3:0:0:
110,258,113425,5,2,3:2:0:0:
40,313,113528,2,0,P|53:351|58:398,1,73.4999977569581,0|0,3:2|0:0,0:0:0:0:
116,268,113735,1,2,3:2:0:0:
103,179,113839,2,0,P|63:171|20:152,1,73.4999977569581,0|0,3:2|0:0,0:0:0:0:
187,301,114046,2,0,P|213:270|251:242,1,73.4999977569581,2|0,3:2|0:0,0:0:0:0:
509,193,114252,6,0,B|514:195|538:167|532:119|532:119|450:88|391:168|419:225|443:249,1,283.499991348267,6|0,3:2|0:0,0:0:0:0:
508,340,114666,2,0,P|489:320|441:304,1,62.9999980773926,10|0,3:2|0:0,0:0:0:0:
324,320,114873,2,0,P|350:313|388:279,1,62.9999980773926,2|0,0:2|0:0,0:0:0:0:
388,85,115080,2,0,P|368:104|353:152,1,62.9999980773926,2|0,3:2|0:0,0:0:0:0:
256,170,115287,2,0,P|263:196|297:234,1,62.9999980773926,2|0,0:3|0:0,0:0:0:0:
509,193,115494,2,0,P|490:173|442:157,1,62.9999980773926,8|0,3:2|0:0,0:0:0:0:
246,88,115701,2,0,P|219:94|181:128,1,62.9999980773926,2|0,0:0|0:0,0:0:0:0:
32,279,115908,5,2,3:3:0:0:
62,292,116011,1,2,0:3:0:0:
102,286,116114,1,2,0:3:0:0:
136,258,116218,1,2,0:3:0:0:
140,205,116321,1,10,3:2:0:0:
99,158,116425,1,2,0:3:0:0:
28,160,116528,2,0,P|35:129|53:104,1,62.9999980773926,2|0,0:2|0:0,0:0:0:0:
155,17,116735,5,2,3:3:0:0:
196,23,116839,1,2,0:3:0:0:
228,48,116942,1,2,0:3:0:0:
245,87,117046,1,2,0:3:0:0:
320,122,117149,5,10,3:2:0:0:
313,162,117252,1,2,0:3:0:0:
288,194,117356,1,2,0:3:0:0:
249,211,117459,1,2,0:3:0:0:
189,271,117563,6,0,B|142:232|105:226|105:226|142:232|179:223,1,157.500006008148,6|0,3:2|0:0,0:0:0:0:
322,288,117873,2,0,B|265:309|241:337|241:337|265:309|276:272,1,157.500006008148,2|0,3:2|0:0,0:0:0:0:
365,221,118183,2,0,P|390:240|404:271,1,52.5,2|0,3:2|0:0,0:0:0:0:
439,384,118390,6,0,B|416:332|467:307|469:315|515:278|491:228,1,157.500006008148,2|0,3:2|0:0,0:0:0:0:
312,140,118701,2,0,B|367:146|364:202|355:200|365:258|420:262,1,157.500006008148,2|0,3:2|0:0,0:0:0:0:
486,153,119011,2,0,P|451:163|434:179,1,52.5,2|0,3:2|0:0,0:0:0:0:
272,284,119218,6,0,B|233:307|187:287|180:242|180:242|201:234|221:208,1,157.500006008148,2|0,3:2|0:0,0:0:0:0:
336,54,119528,2,0,B|375:76|381:126|345:154|345:154|328:140|295:136,1,157.500006008148,2|0,3:2|0:0,0:0:0:0:
196,104,119839,2,0,P|200:77|211:50,1,52.5,2|0,3:2|0:0,0:0:0:0:
2,0,120046,6,0,P|13:26|21:62,1,62.9999980773926,0|0,3:2|0:0,0:0:0:0:
113,75,120252,2,0,P|109:43|100:13,1,62.9999980773926,0|0,3:2|0:0,0:0:0:0:
81,233,120459,6,0,P|58:255|39:280,1,62.9999980773926,0|0,3:2|0:0,0:0:0:0:
1,187,120666,2,0,P|23:164|49:146,1,62.9999980773926,0|0,3:2|0:0,0:0:0:0:
264,217,120873,5,0,3:2:0:0:
234,207,120977,1,0,3:2:0:0:
234,176,121080,1,0,3:2:0:0:
264,166,121183,1,0,3:2:0:0:
282,192,121287,1,2,3:2:0:0:
264,217,121390,6,0,P|258:229|259:244,1,21,2|0,0:0|0:0,0:0:0:0:
274,262,121701,6,0,B|256:191|332:171|336:177|341:182|414:170|410:101,1,220.499993270874,6|0,3:2|0:0,0:0:0:0:
327,57,122114,2,0,P|332:81|339:115,1,42,2|0,3:2|0:0,0:0:0:0:
397,4,122321,2,0,P|402:28|409:62,1,42,2|0,0:0|0:0,0:0:0:0:
247,35,122528,6,0,P|254:16|279:-8,1,42,2|0,3:2|0:0,0:0:0:0:
182,97,122735,2,0,P|169:81|162:62,1,42,2|0,0:0|0:0,0:0:0:0:
173,196,122942,2,0,B|136:215|91:200|54:166|54:166|90:162|114:137,1,188.999994232178,2|0,3:2|0:0,0:0:0:0:
253,188,123356,6,0,B|266:229|223:268|223:268|222:273|222:273|157:278|147:340,1,188.999994232178,2|0,3:2|0:0,0:0:0:0:
228,384,123769,2,0,L|220:347,1,36.749998878479,0|0,3:2|0:0,0:0:0:0:
81,355,123976,2,0,P|99:381|118:388,1,36.749998878479,2|0,0:2|0:0,0:0:0:0:
91,278,124183,1,0,3:2:0:0:
273,290,124390,2,0,L|252:187,1,105,2|0,0:0|3:2,0:0:0:0:
493,22,124804,2,0,L|480:82,1,52.5,2|0,0:0|0:0,0:0:0:0:
455,186,125011,5,2,3:2:0:0:
316,128,125218,2,0,P|342:113|380:109,1,62.9999980773926,2|0,0:2|0:0,0:0:0:0:
375,26,125425,1,0,3:2:0:0:
375,26,125528,2,0,P|312:33|260:66,1,125.999996154785,2|0,0:0|0:0,0:0:0:0:
195,122,125838,2,0,P|156:118|121:99,1,62.9999980773926,2|0,3:2|0:0,0:0:0:0:
25,6,126045,1,2,0:3:0:0:
25,6,126149,2,0,P|41:41|42:81,1,62.9999980773926,2|0,0:0|3:2,0:0:0:0:
51,166,126356,1,0,0:0:0:0:
51,166,126459,2,0,P|27:185|10:212,1,62.9999980773926,2|0,0:0|0:0,0:0:0:0:
30,370,126666,5,2,3:2:0:0:
123,297,126873,2,0,P|92:291|55:282,1,62.9999980773926,2|0,0:0|0:0,0:0:0:0:
189,373,127080,1,0,3:2:0:0:
189,373,127183,2,0,P|250:357|326:354,1,125.999996154785,2|0,0:0|0:0,0:0:0:0:
430,384,127494,5,2,3:2:0:0:
446,359,127597,1,2,0:0:0:0:
442,329,127701,1,2,0:3:0:0:
418,308,127804,1,2,0:0:0:0:
380,305,127907,1,2,3:2:0:0:
394,263,128011,1,2,0:0:0:0:
429,242,128114,1,2,0:0:0:0:
470,237,128218,1,2,0:0:0:0:
512,253,128321,6,0,P|502:217|496:178,1,42,6|0,3:2|0:0,0:0:0:0:
398,161,128528,2,0,P|424:134|454:109,1,42,2|0,0:0|0:0,0:0:0:0:
512,33,128735,1,2,3:2:0:0:
500,44,128838,1,2,0:3:0:0:
479,47,128942,1,2,0:3:0:0:
461,41,129045,1,2,0:3:0:0:
451,22,129149,2,0,P|424:24|395:33,1,42,2|0,3:2|0:0,0:0:0:0:
335,94,129356,1,2,0:0:0:0:
335,94,129459,2,0,P|319:72|296:51,1,42,0|2,0:0|3:2,0:0:0:0:
230,93,129666,1,0,0:0:0:0:
230,93,129769,2,0,P|244:108|256:125,1,42,2|0,0:0|0:0,0:0:0:0:
293,214,129976,6,0,P|309:192|332:171,1,42,2|0,3:2|0:0,0:0:0:0:
398,213,130183,2,0,P|384:228|372:245,1,42,2|0,0:0|0:0,0:0:0:0:
267,321,130390,1,2,3:2:0:0:
267,321,130494,2,0,P|233:289|193:276,1,84
344,363,130804,2,0,P|351:343|353:313,1,42,2|0,3:2|0:0,0:0:0:0:
423,376,131011,1,2,0:0:0:0:
423,376,131114,2,0,P|430:356|432:326,1,42,0|2,0:0|3:2,0:0:0:0:
503,384,131321,1,2,0:0:0:0:
503,384,131425,2,0,P|510:364|512:334,1,42,2|2,0:0|0:0,0:0:0:0:
398,213,131632,6,2,B|363:174|300:171|260:218|260:218|256:219|256:219|254:290|183:324|126:305|126:305|119:306|119:306|119:300|119:300|87:245|123:169|179:170,1,514.499984298707,2|0,3:2|0:0,0:1:0:0:
180,94,132459,2,0,P|204:100|227:119,1,42,2|0,3:2|0:0,0:0:0:0:
115,46,132666,1,2,0:3:0:0:
115,46,132769,2,0,P|132:28|160:17,1,42,2|0,0:0|3:2,0:0:0:0:
40,78,132976,1,0,0:0:0:0:
40,78,133080,2,0,P|33:54|38:24,1,42,2|0,0:0|0:0,0:0:0:0:
308,117,133287,6,0,P|308:97|302:77,1,42,2|0,3:2|0:0,0:0:0:0:
345,200,133494,2,0,P|363:190|377:174,1,42,2|0,0:0|0:0,0:0:0:0:
218,109,133701,2,0,P|200:98|180:94,1,42,2|0,3:2|0:0,0:0:0:0:
292,273,133907,2,0,P|309:284|330:288,1,42,2|0,0:0|0:0,0:0:0:0:
466,382,134114,5,2,3:2:0:0:
448,374,134218,1,2,0:0:0:0:
435,358,134321,1,2,3:2:0:0:
425,329,134425,1,2,0:0:0:0:
427,297,134528,1,2,3:2:0:0:
405,336,134632,1,2,0:0:0:0:
362,361,134735,1,2,3:2:0:0:
311,369,134838,1,2,0:0:0:0:
259,344,134942,6,0,B|344:291|319:189|221:209|228:268,1,220.499993270874,6|0,3:2|0:0,0:0:0:0:
171,329,135356,2,0,P|155:315|145:296,1,42,2|0,3:2|0:0,0:0:0:0:
62,283,135563,2,0,P|65:262|77:245,1,42,2|0,0:0|0:0,0:0:0:0:
133,150,135769,2,0,P|111:144|86:140,1,42,2|0,3:2|0:0,0:0:0:0:
97,62,135976,2,0,P|117:65|137:71,1,42,2|0,0:0|0:0,0:0:0:0:
250,151,136183,2,0,P|323:125|404:123,1,157.5,2|0,3:2|0:0,0:0:0:0:
479,91,136597,6,0,B|478:53|505:16|505:16|477:54|423:54,1,157.5,2|0,3:2|0:0,0:0:0:0:
425,199,137011,2,0,P|450:190|472:152,1,52.5,0|0,3:2|0:0,0:0:0:0:
367,55,137218,2,0,P|343:67|327:108,1,52.5,2|0,0:0|0:0,0:0:0:0:
334,236,137425,1,0,3:2:0:0:
334,236,137528,1,2,0:3:0:0:
334,236,137632,2,0,L|324:185,1,52.5,2|0,0:0|0:0,0:0:0:0:
391,340,137838,1,0,3:2:0:0:
391,340,137942,1,0,0:0:0:0:
391,340,138045,2,0,L|401:289,1,52.5,2|0,0:0|0:0,0:0:0:0:
238,190,138252,6,0,B|256:275|256:275|264:286|264:286|283:374,1,188.999994232178,4|0,3:2|0:0,0:0:0:0:
148,356,138666,2,0,P|169:338|203:330,1,52.5,2|0,3:2|0:0,0:0:0:0:
50,384,138873,2,0,P|44:356|54:323,1,52.5,2|0,0:0|0:0,0:0:0:0:
119,258,139080,1,2,3:2:0:0:
126,239,139183,1,2,0:0:0:0:
120,214,139287,1,2,0:0:0:0:
100,197,139390,1,2,0:0:0:0:
69,189,139494,1,2,3:2:0:0:
34,170,139597,1,2,0:0:0:0:
21,128,139701,1,2,0:0:0:0:
40,87,139804,1,2,0:0:0:0:
87,71,139907,6,0,B|47:51|23:15|23:15|47:52|50:87,1,157.5,2|0,3:2|0:0,0:0:0:0:
119,146,140321,2,0,P|141:134|160:106,1,52.5,0|0,3:2|0:0,0:0:0:0:
241,0,140528,2,0,P|264:9|285:35,1,52.5,2|0,0:0|0:0,0:0:0:0:
350,175,140735,5,2,3:3:0:0:
357,188,140838,1,2,0:3:0:0:
374,201,140942,1,2,0:3:0:0:
406,207,141045,1,2,0:3:0:0:
441,202,141149,1,2,3:3:0:0:
472,179,141252,1,2,0:3:0:0:
490,145,141356,2,0,P|473:124|451:111,1,52.5,2|0,0:0|0:0,0:0:0:0:
285,111,141563,6,0,P|316:109|349:79,1,68.2499968757631,6|0,3:2|0:0,0:0:0:0:
312,2,141769,2,0,P|275:2|248:29,1,68.2499968757631,2|0,0:0|0:0,0:0:0:0:
50,112,141976,2,0,L|39:61,1,36.749998878479,2|0,3:2|0:0,0:0:0:0:
123,46,142183,2,0,L|130:81,1,36.749998878479,2|0,0:0|0:0,0:0:0:0:
89,232,142390,6,0,P|59:213|17:210,1,68.2499968757631,2|0,3:2|0:0,0:0:0:0:
227,327,142597,2,0,P|197:346|155:349,1,68.2499968757631,2|0,0:0|0:0,0:0:0:0:
414,264,142804,2,0,L|421:299,1,36.749998878479,2|0,3:2|0:0,0:0:0:0:
341,330,143011,2,0,L|333:294,1,36.749998878479,2|0,0:0|0:0,0:0:0:0:
442,179,143218,6,0,P|464:186|478:197,1,31.4999990386963,2|0,3:2|0:0,0:0:0:0:
267,146,143425,2,0,P|262:123|265:98,1,47.2499985580445,2|0,0:0|0:0,0:0:0:0:
370,118,143632,2,0,P|387:102|404:95,1,31.4999990386963,2|0,3:2|0:0,0:0:0:0:
222,244,143838,2,0,P|199:236|183:220,1,47.2499985580445,2|0,0:0|0:0,0:0:0:0:
47,68,144045,5,2,3:3:0:0:
41,85,144148,1,2,0:3:0:0:
42,105,144252,1,2,0:3:0:0:
53,130,144356,1,2,0:3:0:0:
84,152,144459,1,2,3:0:0:0:
129,152,144563,1,2,0:0:0:0:
164,138,144666,1,2,0:0:0:0:
188,104,144769,1,2,0:0:0:0:
187,61,144873,6,0,B|183:22|145:-2|98:9|98:9|119:34|122:66,1,157.500006008148,6|0,3:2|0:0,0:0:0:0:
47,68,145183,2,0,L|226:29,1,178.500003404617,2|0,3:2|0:0,0:0:0:0:
325,141,145494,2,0,P|299:137|279:111,1,52.5,2|0,3:2|0:0,0:0:0:0:
339,14,145701,5,2,3:2:0:0:
339,14,145804,2,0,P|365:18|385:44,1,52.5,2|0,0:0|0:0,0:0:0:0:
452,140,146011,2,0,P|398:208|377:284,1,157.500006008148,2|0,3:2|0:0,0:0:0:0:
298,326,146321,2,0,P|311:350|333:370,1,52.5,2|0,3:2|0:0,0:0:0:0:
485,367,146528,6,0,P|472:343|450:323,1,52.5,2|0,3:2|0:0,0:0:0:0:
296,231,146735,2,0,P|268:230|240:239,1,52.5,2|0,0:0|3:2,0:0:0:0:
122,245,146942,2,0,P|107:268|101:297,1,52.5,2|0,0:0|0:0,0:0:0:0:
12,343,147149,2,0,P|25:367|47:387,1,52.5,2|0,3:2|0:0,0:0:0:0:
179,147,147356,1,2,3:2:0:0:
166,122,147459,1,2,0:0:0:0:
140,103,147563,1,2,3:2:0:0:
105,97,147666,1,2,0:0:0:0:
63,110,147769,5,2,3:2:0:0:
113,129,147873,1,2,0:0:0:0:
181,88,147976,1,2,3:2:0:0:
258,137,148080,1,2,0:0:0:0:
344,87,148183,1,2,0:0:0:0:
297,264,148390,5,2,0:0:0:0:
297,264,148494,1,2,0:0:0:0:
475,216,148804,1,2,0:0:0:0:
475,216,148907,1,2,0:0:0:0:
344,87,149218,5,2,0:0:0:0:
368,184,149632,5,2,0:0:0:0:
368,184,149838,6,0,B|378:173|378:173|404:168|404:168|251:157,1,188.999994232178,4|0,0:1|0:0,0:0:0:0:
191,200,150149,1,0,0:0:0:0:
116,247,150252,2,0,L|21:238,1,62.9999980773926,0|0,3:2|0:0,0:0:0:0:
56,146,150459,2,0,L|151:155,1,62.9999980773926,2|0,0:0|0:0,0:0:0:0:
221,279,150666,2,0,L|356:291,1,125.999996154785,2|0,3:2|0:0,0:0:0:0:
406,348,150976,1,0,0:0:0:0:
476,298,151080,2,0,L|483:221,1,62.9999980773926,2|0,3:2|0:0,0:0:0:0:
402,167,151287,2,0,L|409:90,1,62.9999980773926,2|0,0:0|0:0,0:0:0:0:
470,31,151494,6,0,P|473:76|391:93,1,125.999996154785,0|2,3:2|0:0,0:0:0:0:
347,56,151804,1,0,0:0:0:0:
283,96,151907,2,0,P|266:151|297:180,1,62.9999980773926,0|0,3:2|0:0,0:0:0:0:
317,339,152114,1,2,0:0:0:0:
350,340,152218,1,0,0:0:0:0:
372,318,152321,2,0,P|388:262|357:233,1,62.9999980773926,0|0,3:2|0:0,0:0:0:0:
267,152,152528,2,0,L|256:233,1,62.9999980773926,2|0,0:3|0:0,0:0:0:0:
26,367,152735,2,0,P|9:311|40:282,1,62.9999980773926,0|0,3:2|0:0,0:0:0:0:
131,201,152942,2,0,L|142:282,1,62.9999980773926,2|0,0:3|0:0,0:0:0:0:
204,355,153149,5,2,3:2:0:0:
31,170,153356,2,0,P|50:124|81:118,1,62.9999980773926,2|0,0:0|0:0,0:0:0:0:
185,116,153563,1,0,3:2:0:0:
224,117,153666,1,0,0:0:0:0:
256,91,153769,2,0,P|276:47|262:13,1,62.9999980773926,2|0,0:0|0:0,0:0:0:0:
473,216,153976,1,0,3:2:0:0:
434,217,154080,1,0,0:0:0:0:
402,191,154183,2,0,P|382:147|396:113,1,62.9999980773926,2|0,0:0|0:0,0:0:0:0:
456,34,154390,2,0,P|463:81|449:106,1,62.9999980773926,0|0,3:2|0:0,0:0:0:0:
289,229,154597,2,0,L|213:212,1,62.9999980773926,2|0,0:0|0:0,0:0:0:0:
74,354,154804,6,0,B|121:350|121:350|160:310|160:310|222:300,1,125.999996154785,0|2,3:2|0:0,0:0:0:0:
397,276,155114,1,0,0:0:0:0:
397,276,155218,2,0,B|350:272|350:272|311:232|311:232|249:222,1,125.999996154785,0|0,3:2|0:0,0:0:0:0:
121,87,155632,6,0,L|122:150,1,62.9999980773926,2|0,3:2|0:0,0:0:0:0:
195,188,155838,2,0,L|194:125,1,62.9999980773926,0|0,3:2|0:0,0:0:0:0:
108,171,156045,6,0,L|171:170,1,62.9999980773926,2|0,3:2|0:0,0:0:0:0:
209,97,156252,2,0,L|146:98,1,62.9999980773926,0|0,3:2|0:0,0:0:0:0:
257,287,156459,6,0,B|328:288|328:288|368:247|368:247|450:247,1,188.999994232178,4|0,3:2|0:0,0:0:0:0:
450,246,156873,2,0,B|471:294|471:294|421:351,1,125.999996154785,2|2,3:2|0:0,0:0:0:0:
291,206,157183,1,0,0:0:0:0:
291,206,157287,2,0,B|263:147,1,62.9999980773926,2|0,3:2|0:0,0:0:0:0:
196,27,157494,1,0,0:0:0:0:
196,27,157597,1,0,0:0:0:0:
120,78,157701,2,0,L|106:146,1,62.9999980773926,2|0,3:2|0:0,0:0:0:0:
35,249,157907,2,0,L|12:178,1,62.9999980773926,2|0,0:0|0:0,0:0:0:0:
0,32,158114,6,0,P|42:19|81:33,1,62.9999980773926,2|0,3:2|0:0,0:0:0:0:
217,151,158321,1,2,0:0:0:0:
253,125,158425,1,0,0:0:0:0:
269,84,158528,1,0,3:2:0:0:
266,39,158632,1,0,0:0:0:0:
232,10,158735,6,0,P|198:35|201:72,1,62.9999980773926,2|0,0:0|0:0,0:0:0:0:
331,186,158942,1,0,3:2:0:0:
383,239,159045,1,0,0:0:0:0:
436,184,159149,2,0,L|508:177,1,62.9999980773926,2|0,0:0|0:0,0:0:0:0:
280,303,159356,5,0,3:2:0:0:
228,356,159459,1,0,0:0:0:0:
175,301,159563,2,0,L|103:294,1,62.9999980773926,2|0,0:0|0:0,0:0:0:0:
69,363,159769,6,0,B|5:317|47:246|47:246|96:172|40:137,1,251.999992309571,2|0,3:2|3:2,0:0:0:0:
85,60,160390,1,2,0:0:0:0:
85,60,160494,1,0,0:0:0:0:
45,141,160597,2,0,B|109:188|189:145|159:35|273:43,1,251.999992309571,2|2,3:2|3:2,0:0:0:0:
350,120,161218,1,2,0:0:0:0:
228,333,161425,5,2,3:3:0:0:
216,323,161528,1,2,0:3:0:0:
212,291,161632,1,2,0:3:0:0:
241,258,161735,1,2,0:3:0:0:
297,264,161838,1,2,3:3:0:0:
343,306,161942,1,2,0:3:0:0:
408,327,162045,1,2,0:0:0:0:
474,290,162149,1,2,0:0:0:0:
462,215,162252,5,2,3:2:0:0:
446,218,162356,1,2,0:0:0:0:
431,221,162459,1,2,3:2:0:0:
415,224,162563,1,2,0:0:0:0:
343,177,162666,5,2,3:2:0:0:
327,173,162769,1,2,0:0:0:0:
312,170,162873,1,2,3:2:0:0:
296,167,162976,1,2,0:0:0:0:
207,186,163080,6,0,B|170:154|170:154|182:56,1,125.999996154785,6|2,3:2|0:3,0:0:0:0:
444,3,163390,1,2,0:3:0:0:
444,3,163494,2,0,B|469:21|469:21|467:77,1,62.9999980773926,0|2,3:2|0:3,0:0:0:0:
388,103,163701,2,0,L|313:92,1,62.9999980773926,2|2,0:3|0:3,0:0:0:0:
207,186,163907,2,0,B|182:204|182:204|184:260,1,62.9999980773926,0|2,3:2|0:3,0:0:0:0:
263,286,164114,2,0,L|338:275,1,62.9999980773926,2|2,0:3|0:3,0:0:0:0:
495,362,164321,1,0,3:2:0:0:
508,317,164425,1,2,0:3:0:0:
485,277,164528,1,2,0:3:0:0:
441,265,164632,1,2,0:3:0:0:
402,289,164735,6,0,L|385:375,1,62.9999980773926,0|2,3:2|0:3,0:0:0:0:
149,209,164942,1,2,0:3:0:0:
178,198,165045,1,2,0:3:0:0:
207,186,165149,2,0,L|224:272,1,62.9999980773926,0|2,3:2|0:3,0:0:0:0:
476,144,165356,1,2,0:3:0:0:
418,121,165459,1,2,0:3:0:0:
360,97,165563,2,0,L|343:183,1,62.9999980773926,0|2,3:2|0:3,0:0:0:0:
108,64,165769,1,2,0:3:0:0:
187,41,165873,1,2,0:3:0:0:
265,20,165976,2,0,L|279:113,1,62.9999980773926,0|2,3:2|0:3,0:0:0:0:
158,271,166183,2,0,L|144:178,1,62.9999980773926,2|2,0:3|0:3,0:0:0:0:
360,97,166390,5,0,3:2:0:0:
339,138,166494,1,2,0:3:0:0:
299,163,166597,1,2,0:3:0:0:
253,163,166701,1,2,0:3:0:0:
213,139,166804,2,0,P|166:120|131:128,1,62.9999980773926,0|2,3:2|0:3,0:0:0:0:
14,232,167011,2,0,P|61:212|96:220,1,62.9999980773926,2|2,0:3|0:3,0:0:0:0:
158,271,167218,5,0,3:2:0:0:
179,312,167321,1,2,0:3:0:0:
218,337,167425,1,2,0:3:0:0:
265,337,167528,1,2,0:3:0:0:
305,313,167632,2,0,P|352:293|387:301,1,62.9999980773926,0|2,3:2|0:3,0:0:0:0:
490,197,167838,2,0,L|392:181,1,62.9999980773926,2|2,0:3|0:3,0:0:0:0:
108,91,168045,5,0,3:2:0:0:
124,116,168149,1,2,0:3:0:0:
155,120,168252,2,0,P|191:92|189:44,1,62.9999980773926,2|2,0:3|0:3,0:0:0:0:
146,8,168459,1,0,3:2:0:0:
146,8,168563,2,0,P|95:0|70:10,2,62.9999980773926,2|2|2,0:3|0:3|0:3,0:0:0:0:
250,56,168873,5,2,3:2:0:0:
282,85,168976,1,2,0:3:0:0:
322,67,169080,2,0,P|366:50|396:66,1,62.9999980773926,2|2,0:3|0:3,0:0:0:0:
452,98,169287,1,2,3:2:0:0:
452,98,169390,2,0,P|497:89|515:62,2,62.9999980773926,2|2|2,0:3|0:3|0:3,0:0:0:0:
342,291,169701,6,0,L|360:166,1,125.999996154785,6|2,3:2|0:3,0:0:0:0:
238,146,170011,1,2,0:3:0:0:
238,146,170114,2,0,B|237:179|237:179|267:205,1,62.9999980773926,0|2,3:2|0:3,0:0:0:0:
438,257,170321,2,0,B|460:276|460:276|459:310,1,62.9999980773926,2|2,0:3|0:3,0:0:0:0:
328,365,170528,5,0,3:2:0:0:
284,359,170632,1,2,0:3:0:0:
240,355,170735,2,0,L|160:346,1,62.9999980773926,2|2,0:3|0:3,0:0:0:0:
18,272,170942,1,0,3:2:0:0:
62,266,171045,1,2,0:3:0:0:
106,262,171149,2,0,L|186:253,1,62.9999980773926,2|2,0:3|0:3,0:0:0:0:
296,143,171356,6,0,L|265:287,1,125.999996154785,0|2,3:2|0:3,0:0:0:0:
364,240,171666,1,2,0:3:0:0:
364,240,171769,2,0,B|399:222|399:222|370:197,1,62.9999980773926,0|2,3:2|0:3,0:0:0:0:
196,146,171976,2,0,B|161:128|161:128|190:103,1,62.9999980773926,2|2,0:3|0:3,0:0:0:0:
290,44,172183,1,0,3:2:0:0:
291,62,172287,1,2,0:3:0:0:
292,80,172390,2,0,B|296:148,1,62.9999980773926,2|2,0:3|0:3,0:0:0:0:
367,302,172597,2,0,B|363:234,1,62.9999980773926,2|2,3:2|0:3,0:0:0:0:
196,146,172804,2,0,B|200:214,1,62.9999980773926,2|2,0:2|0:3,0:0:0:0:
477,243,173011,5,6,3:2:0:0:
475,211,173114,1,2,0:3:0:0:
473,180,173218,1,2,0:3:0:0:
472,148,173321,1,2,0:3:0:0:
470,117,173425,2,0,L|465:32,1,62.9999980773926,0|2,3:2|0:3,0:0:0:0:
491,0,173632,6,0,B|496:72|496:72|435:103|435:103|438:172,1,188.999994232178,2|2,0:3|0:3,0:0:0:0:
376,216,174045,2,0,B|285:200,1,62.9999980773926,2|2,0:3|0:3,0:0:0:0:
406,360,174252,2,0,B|434:324|434:324|422:288,1,62.9999980773926,0|0,3:2|0:0,0:0:0:0:
293,199,174459,6,0,L|75:159,1,188.999994232178,0|0,3:2|0:0,0:0:0:0:
86,161,174873,2,0,B|71:130|71:130|104:90,1,62.9999980773926,0|0,3:2|0:0,0:0:0:0:
179,32,175080,1,0,3:2:0:0:
179,32,175183,1,0,0:0:0:0:
246,93,175287,1,2,3:3:0:0:
246,93,175390,1,0,3:0:0:0:
179,32,175701,5,2,3:3:0:0:
179,32,175804,1,0,3:2:0:0:
246,93,175907,1,0,3:2:0:0:
246,93,176011,1,0,3:2:0:0:
327,49,176114,1,2,3:3:0:0:
327,49,176218,1,0,3:2:0:0:
406,98,176321,6,0,B|410:98|410:98|419:79|419:79|382:255,1,183.75,4|0,3:2|0:0,0:0:0:0:
380,256,177149,5,0,3:2:0:0:
224,278,177563,1,0,3:2:0:0:
68,298,177976,1,0,3:2:0:0:
380,256,178804,5,0,3:2:0:0:
292,222,179011,1,0,3:2:0:0:
224,278,179218,1,0,3:2:0:0:
154,342,179425,1,0,3:2:0:0:
68,298,179632,1,0,3:2:0:0:
380,256,180459,5,0,3:2:0:0:
68,298,181287,5,2,3:3:0:0:
100,308,181390,1,2,0:3:0:0:
132,296,181494,1,2,0:3:0:0:
138,262,181597,1,2,0:3:0:0:
119,233,181701,5,2,0:0:0:0:
83,211,181804,1,2,0:0:0:0:
89,169,181907,1,2,3:2:0:0:
127,151,182011,1,2,0:0:0:0:
173,156,182114,5,2,0:0:0:0:
217,140,182218,1,2,0:0:0:0:
231,92,182321,1,2,0:0:0:0:
200,48,182425,1,2,0:0:0:0:
132,11,182528,5,2,3:2:0:0:
79,74,182632,1,2,0:0:0:0:
127,151,182735,1,2,0:0:0:0:
65,229,182838,1,2,0:0:0:0:
133,285,182942,6,0,P|86:319|-7:274,2,157.5,6|0|0,3:2|3:2|3:2,0:0:0:0:
227,328,183769,2,0,P|287:287|367:338,1,157.5,4|0,3:2|3:2,0:0:0:0:
374,340,184183,2,0,P|428:321|432:274,1,105,0|0,0:0|3:2,0:0:0:0:
269,39,184597,6,0,L|257:211,2,157.5,4|0|0,3:2|3:2|3:2,0:0:0:0:
344,137,185425,2,0,L|173:94,1,157.5,4|0,3:2|3:2,0:0:0:0:
173,93,185838,2,0,B|140:121|140:121|156:164,1,52.5
80,179,186045,2,0,B|108:212|108:212|151:196,1,52.5,0|0,3:2|0:0,0:0:0:0:
190,364,186252,6,0,L|208:219,1,105,4|2,3:2|0:3,0:0:0:0:
279,226,186563,2,0,B|333:240|333:240|252:262,1,105,0|0,3:2|0:0,0:0:0:0:
107,323,186873,2,0,B|70:311|70:311|113:306,1,52.5,2|0,0:3|0:0,0:0:0:0:
368,316,187080,6,0,P|415:276|397:211,1,105,0|2,3:2|0:3,0:0:0:0:
376,163,187390,2,0,P|349:111|371:69,1,105,0|0,3:2|0:0,0:0:0:0:
451,49,187701,2,0,P|455:32|448:40,1,52.5,2|0,0:3|0:0,0:0:0:0:
250,227,187907,6,0,L|103:200,1,105,4|2,3:2|0:3,0:0:0:0:
138,187,188218,2,0,L|285:214,1,105,0|0,3:2|0:0,0:0:0:0:
331,232,188528,1,2,0:3:0:0:
82,361,188735,6,0,B|68:333|68:333|78:299,1,52.5,2|0,3:2|0:0,0:0:0:0:
10,282,188942,2,0,B|19:252|19:252|51:235,1,52.5,2|0,0:0|3:2,0:0:0:0:
138,187,189149,2,0,B|171:127|171:127|147:66,1,105,2|0,0:0|3:2,0:0:0:0:
39,155,189563,5,4,3:2:0:0:
36,165,189666,1,2,0:3:0:0:
197,312,189873,1,2,0:3:0:0:
195,301,189976,1,0,0:0:0:0:
327,130,190183,1,2,0:3:0:0:
325,140,190287,1,2,0:3:0:0:
323,150,190390,1,2,0:3:0:0:
321,160,190494,1,2,0:3:0:0:
319,170,190597,1,2,0:3:0:0:
414,328,190804,2,0,L|399:271,1,52.5,2|0,0:3|0:0,0:0:0:0:
425,334,191011,2,0,L|410:277,1,52.5,2|0,0:3|0:0,0:0:0:0:
153,68,191218,5,2,0:3:0:0:
138,89,191321,1,2,0:3:0:0:
136,115,191425,1,2,0:0:0:0:
147,138,191528,1,2,0:0:0:0:
222,187,191632,5,2,0:0:0:0:
252,229,191735,1,2,0:0:0:0:
263,280,191838,1,2,0:0:0:0:
241,328,191942,1,2,0:0:0:0:
139,376,192045,5,2,0:0:0:0:
95,330,192149,1,2,0:0:0:0:
98,267,192252,1,2,0:0:0:0:
137,217,192356,1,2,0:0:0:0:
238,111,192459,5,2,0:0:0:0:
252,77,192563,1,2,0:0:0:0:
244,41,192666,1,2,0:0:0:0:
217,15,192769,1,2,0:0:0:0:
42,78,192873,6,0,B|36:94|36:94|10:104|10:104|184:74,1,210,4|0,0:1|0:0,0:0:0:0:
436,225,193287,5,2,0:0:0:0:
441,213,193390,1,2,0:0:0:0:
447,201,193494,1,2,0:0:0:0:
453,189,193597,1,2,0:0:0:0:
366,141,193701,5,2,0:0:0:0:
353,164,193804,1,2,0:0:0:0:
340,187,193907,1,2,0:0:0:0:
327,210,194011,1,2,0:0:0:0:
213,196,194114,5,2,0:0:0:0:
234,162,194218,1,2,0:0:0:0:
255,129,194321,1,2,0:0:0:0:
277,96,194425,1,2,0:0:0:0:
197,36,194528,6,0,L|81:208,1,157.500006008148,6|2,3:2|0:3,0:0:0:0:
6,85,194838,1,0,0:0:0:0:
37,12,194942,2,0,B|84:4|84:4|134:56,1,78.7500030040742,10|0,3:2|0:0,0:0:0:0:
115,253,195149,2,0,B|68:261|68:261|18:209,1,78.7500030040742,2|0,0:2|0:0,0:0:0:0:
203,127,195356,6,0,L|301:201,1,78.7500030040742,2|0,3:2|0:0,0:0:0:0:
205,144,195563,2,0,L|303:218,1,78.7500030040742,2|0,0:2|0:0,0:0:0:0:
311,288,195769,6,0,L|409:214,1,78.7500030040742,8|0,3:2|0:0,0:0:0:0:
375,110,195976,2,0,L|454:186,1,78.7500030040742,2|0,0:0|0:0,0:0:0:0:
495,37,196183,6,0,B|435:83|435:83|432:189,1,157.500006008148,0|2,3:2|0:0,0:0:0:0:
365,349,196494,1,0,0:0:0:0:
422,295,196597,2,0,B|402:249|402:249|356:236,1,78.7500030040742,8|0,3:2|0:0,0:0:0:0:
147,212,196804,1,2,0:0:0:0:
188,247,196907,1,2,0:3:0:0:
243,242,197011,1,2,3:3:0:0:
278,200,197114,1,2,0:3:0:0:
276,144,197218,1,2,0:2:0:0:
303,96,197321,1,2,0:3:0:0:
355,78,197425,2,0,P|386:103|384:149,1,78.7500030040742,8|0,3:2|0:0,0:0:0:0:
258,350,197632,1,2,0:0:0:0:
258,350,197735,1,0,0:0:0:0:
258,350,197838,6,0,L|150:328,1,78.7500030040742,0|0,3:2|0:0,0:0:0:0:
0,245,198045,1,2,0:0:0:0:
0,245,198149,1,0,0:0:0:0:
0,245,198252,2,0,L|108:223,1,78.7500030040742,8|0,3:2|0:0,0:0:0:0:
249,111,198459,1,2,0:0:0:0:
249,111,198563,1,0,0:0:0:0:
249,111,198666,2,0,L|141:89,1,78.7500030040742,2|2,3:2|0:0,0:0:0:0:
325,233,198873,2,0,L|433:211,1,78.7500030040742,2|2,0:0|0:0,0:0:0:0:
465,66,199080,5,0,3:2:0:0:
423,102,199183,1,2,0:0:0:0:
383,140,199287,2,0,L|403:224,1,78.7500030040742,2|0,3:2|0:0,0:0:0:0:
326,346,199597,5,0,3:2:0:0:
278,286,199701,2,0,L|298:202,1,78.7500030040742,0|0,3:2|0:0,0:0:0:0:
10,215,200011,5,0,3:2:0:0:
58,275,200114,2,0,L|39:351,1,78.7500030040742,2|0,3:2|0:0,0:0:0:0:
268,276,200321,6,0,L|288:192,1,78.7500030040742,2|0,3:2|0:0,0:0:0:0:
68,285,200528,2,0,L|48:369,1,78.7500030040742,0|2,0:0|0:0,0:0:0:0:
181,350,200735,5,2,3:2:0:0:
166,297,200838,1,2,0:0:0:0:
177,242,200942,1,2,0:0:0:0:
169,187,201045,1,2,0:0:0:0:
102,56,201149,6,0,P|111:153|220:94,1,236.250009012223,6|0,3:2|0:0,0:0:0:0:
268,65,201563,2,0,P|300:48|353:61,1,78.7500030040742,10|0,3:2|0:0,0:0:0:0:
491,217,201769,2,0,L|383:190,1,78.7500030040742,2|0,0:0|0:0,0:0:0:0:
310,349,201976,2,0,P|359:315|354:247,1,78.7500030040742,0|0,3:2|0:0,0:0:0:0:
500,207,202183,2,0,L|392:180,1,78.7500030040742,2|0,0:0|0:0,0:0:0:0:
321,161,202390,1,8,3:2:0:0:
485,103,202597,1,2,0:0:0:0:
326,264,202804,6,0,P|248:260|215:157,1,157.500006008148,0|2,3:2|0:0,0:0:0:0:
182,107,203114,1,0,0:0:0:0:
145,76,203218,2,0,P|82:80|56:114,1,78.7500030040742,8|0,3:2|0:0,0:0:0:0:
6,219,203425,2,0,L|100:201,1,78.7500030040742,2|0,0:0|0:0,0:0:0:0:
248,342,203632,2,0,L|89:307,1,157.500006008148,2|2,3:2|0:0,0:0:0:0:
37,164,203942,1,2,0:0:0:0:
6,219,204045,2,0,L|100:201,1,78.7500030040742,10|2,3:2|0:0,0:0:0:0:
194,225,204252,2,0,L|288:207,1,78.7500030040742,2|2,0:0|0:0,0:0:0:0:
431,76,204459,6,0,P|393:115|406:177,1,94.499997116089,6|0,3:2|0:0,0:0:0:0:
327,316,204666,6,0,B|380:312|392:293|392:293|419:327|419:327|429:299|495:294,1,188.999994232178,0|0,3:2|0:0,0:0:0:0:
484,295,205080,6,0,L|301:320,1,157.500006008148,0|0,3:2|0:0,0:0:0:0:
327,316,205494,6,0,B|380:312|392:293|392:293|419:327|419:327|429:299|495:294,1,188.999994232178,0|0,3:2|0:0,0:0:0:0:
400,158,205907,6,0,P|404:112|439:82,1,94.499997116089,0|0,3:2|0:0,0:0:0:0:
455,211,206114,6,0,P|390:158|294:206,1,157.500006008148,2|2,0:0|0:0,0:0:0:0:
135,203,206425,2,0,P|228:200|268:270,1,157.500006008148,2|0,0:0|0:0,0:0:0:0:
326,313,206735,2,0,P|282:329|261:379,1,78.7500030040742,2|0,0:0|0:0,0:0:0:0:
119,373,206942,5,2,3:2:0:0:
112,350,207045,1,2,0:0:0:0:
41,310,207149,5,2,3:2:0:0:
55,282,207252,1,2,0:0:0:0:
13,209,207356,5,2,3:2:0:0:
50,196,207459,1,2,0:0:0:0:
68,104,207563,5,2,3:2:0:0:
109,125,207666,1,2,0:0:0:0:
135,203,207769,6,0,L|350:162,1,157.500006008148,6|2,3:2|0:3,0:0:0:0:
497,63,208080,1,0,0:0:0:0:
444,4,208183,2,0,B|396:10|396:10|365:75,1,78.7500030040742,10|0,3:2|0:0,0:0:0:0:
369,332,208390,2,0,B|416:325|416:325|447:260,1,78.7500030040742,2|0,0:2|0:0,0:0:0:0:
289,173,208597,6,0,L|196:147,1,78.7500030040742,2|0,3:2|0:0,0:0:0:0:
280,159,208804,2,0,L|187:133,1,78.7500030040742,2|0,0:2|0:0,0:0:0:0:
99,267,209011,2,0,L|213:231,1,78.7500030040742,8|0,3:2|0:0,0:0:0:0:
281,62,209218,2,0,L|395:26,1,78.7500030040742,2|0,0:0|0:0,0:0:0:0:
148,60,209425,6,0,B|80:20|80:20|-3:32,1,157.500006008148,0|2,3:2|0:0,0:0:0:0:
174,243,209735,1,0,0:0:0:0:
236,294,209838,2,0,B|282:274|282:274|295:228,1,78.7500030040742,8|0,3:2|0:0,0:0:0:0:
492,41,210045,1,2,0:2:0:0:
440,22,210149,1,2,0:3:0:0:
397,56,210252,1,2,3:3:0:0:
403,111,210356,1,2,0:3:0:0:
427,159,210459,1,2,0:2:0:0:
408,210,210563,1,2,0:3:0:0:
358,234,210666,2,0,P|315:226|290:184,1,78.7500030040742,8|0,3:2|0:0,0:0:0:0:
245,47,210873,1,2,0:0:0:0:
245,47,210976,1,0,0:0:0:0:
245,47,211080,6,0,L|137:69,1,78.7500030040742,0|0,3:2|0:0,0:0:0:0:
26,155,211287,1,2,0:0:0:0:
26,155,211390,1,0,0:0:0:0:
26,155,211494,2,0,L|134:177,1,78.7500030040742,8|0,3:2|0:0,0:0:0:0:
249,273,211701,1,2,0:0:0:0:
249,273,211804,1,0,0:0:0:0:
249,273,211907,2,0,L|141:295,1,78.7500030040742,2|2,3:2|0:0,0:0:0:0:
325,151,212114,2,0,L|433:173,1,78.7500030040742,2|2,0:0|0:0,0:0:0:0:
481,380,212321,5,2,3:2:0:0:
439,344,212425,1,2,0:0:0:0:
399,306,212528,2,0,L|419:222,1,78.7500030040742,0|0,3:2|0:0,0:0:0:0:
326,38,212735,5,0,3:2:0:0:
301,68,212838,1,0,0:0:0:0:
276,98,212942,2,0,L|296:182,1,78.7500030040742,0|0,3:2|0:0,0:0:0:0:
10,169,213252,5,0,3:2:0:0:
60,108,213356,2,0,L|41:32,1,78.7500030040742,2|0,3:2|0:0,0:0:0:0:
316,48,213666,5,0,3:2:0:0:
266,109,213769,2,0,L|285:185,1,78.7500030040742,0|2,3:2|0:0,0:0:0:0:
20,159,214080,5,0,3:2:0:0:
70,98,214183,2,0,L|51:22,1,78.7500030040742,2|0,3:2|0:0,0:0:0:0:
180,192,214390,6,0,P|221:277|178:337,1,157.500006008148,6|0,3:2|0:0,0:0:0:0:
23,344,214701,1,2,3:2:0:0:
59,274,214804,2,0,L|150:266,1,78.7500030040742
370,188,215011,2,0,L|291:181,1,78.7500030040742,2|0,3:2|0:0,0:0:0:0:
223,42,215218,5,2,3:2:0:0:
224,51,215321,1,2,0:0:0:0:
226,61,215425,1,2,0:0:0:0:
228,70,215528,1,2,0:0:0:0:
302,123,215632,5,2,3:2:0:0:
291,181,215735,1,2,0:0:0:0:
280,239,215838,1,2,0:0:0:0:
270,297,215942,1,2,0:0:0:0:
156,313,216045,6,0,P|234:302|267:420,1,157.500006008148,2|0,3:2|0:0,0:0:0:0:
371,292,216356,1,2,3:2:0:0:
408,323,216459,2,0,P|471:319|497:285,1,78.7500030040742
506,165,216666,2,0,L|412:183,1,78.7500030040742,2|0,3:2|0:0,0:0:0:0:
385,74,216873,5,2,3:2:0:0:
386,85,216976,1,2,0:0:0:0:
388,97,217080,1,2,0:0:0:0:
389,109,217183,1,2,0:0:0:0:
506,165,217287,2,0,L|412:183,1,78.7500030040742,2|2,3:2|0:0,0:0:0:0:
318,159,217494,2,0,L|224:177,1,78.7500030040742,2|2,0:0|0:0,0:0:0:0:
155,234,217701,5,6,3:2:0:0:
118,220,217804,1,0,0:0:0:0:
98,186,217907,2,0,P|90:142|119:104,1,78.7500030040742,2|0,0:3|0:0,0:0:0:0:
231,34,218114,5,10,3:2:0:0:
247,70,218218,1,0,0:0:0:0:
237,108,218321,2,0,P|211:144|164:151,1,78.7500030040742,2|0,0:3|0:0,0:0:0:0:
10,86,218528,5,2,3:2:0:0:
24,49,218632,1,0,0:0:0:0:
58,29,218735,2,0,P|102:21|140:50,1,78.7500030040742,2|0,0:3|0:0,0:0:0:0:
218,240,218942,5,10,3:2:0:0:
182,256,219045,1,0,0:0:0:0:
144,246,219149,2,0,P|107:220|100:173,1,78.7500030040742,2|0,3:2|0:0,0:0:0:0:
150,108,219356,6,0,L|318:158,1,157.500006008148,0|2,3:2|0:0,0:0:0:0:
253,165,219666,2,0,L|409:113,1,157.500006008148,2|0,3:2|0:0,0:0:0:0:
369,94,219976,2,0,L|475:129,1,78.7500030040742,2|0,3:2|0:0,0:0:0:0:
478,329,220183,5,2,3:2:0:0:
482,289,220287,1,2,0:0:0:0:
402,232,220390,5,2,3:2:0:0:
406,279,220494,1,2,0:0:0:0:
331,354,220597,5,2,3:2:0:0:
319,299,220701,1,2,0:0:0:0:
237,209,220804,5,2,3:2:0:0:
233,271,220907,1,2,0:0:0:0:
138,359,221011,6,0,B|81:300|81:300|115:208,1,157.500006008148,6|2,3:2|0:3,0:0:0:0:
237,28,221321,1,0,0:0:0:0:
272,101,221425,2,0,B|243:133|243:133|157:126,1,78.7500030040742,8|0,3:2|0:0,0:0:0:0:
40,75,221632,2,0,B|69:43|69:43|155:50,1,78.7500030040742,2|0,0:2|0:0,0:0:0:0:
339,222,221838,6,0,L|307:340,1,78.7500030040742,2|0,3:2|0:0,0:0:0:0:
323,314,222045,2,0,L|343:237,1,78.7500030040742,2|0,0:0|0:0,0:0:0:0:
395,131,222252,2,0,B|446:124|446:124|408:146,1,78.7500030040742,10|0,3:2|0:0,0:0:0:0:
233,271,222459,2,0,L|146:241,1,78.7500030040742,2|0,0:0|0:0,0:0:0:0:
40,75,222666,5,0,3:2:0:0:
75,117,222769,1,0,0:0:0:0:
128,130,222873,2,0,L|236:97,1,78.7500030040742,2|0,0:0|0:0,0:0:0:0:
307,186,223080,5,8,3:2:0:0:
342,144,223183,1,0,0:0:0:0:
395,131,223287,2,0,L|503:164,1,78.7500030040742,2|0,0:0|0:0,0:0:0:0:
399,374,223494,6,0,L|385:199,1,157.500006008148,2|2,3:2|0:3,0:0:0:0:
335,1,223804,1,0,0:0:0:0:
269,48,223907,2,0,B|248:92|248:92|272:129,1,78.7500030040742,10|0,3:2|0:0,0:0:0:0:
465,223,224114,2,0,B|486:179|486:179|462:142,1,78.7500030040742,2|0,0:2|0:0,0:0:0:0:
255,160,224321,5,2,3:3:0:0:
237,168,224425,1,2,0:3:0:0:
222,181,224528,1,2,0:2:0:0:
212,198,224632,1,2,0:3:0:0:
254,343,224735,5,10,3:2:0:0:
279,313,224838,1,2,0:3:0:0:
290,276,224942,1,2,0:2:0:0:
283,237,225045,1,2,0:3:0:0:
129,285,225149,6,0,L|220:272,1,78.7500030040742,2|0,3:2|0:0,0:0:0:0:
125,296,225356,2,0,L|216:283,1,78.7500030040742,2|0,0:3|0:0,0:0:0:0:
412,180,225563,2,0,L|321:167,1,78.7500030040742,10|2,3:2|0:0,0:0:0:0:
124,68,225769,2,0,L|215:55,1,78.7500030040742,2|2,0:0|0:0,0:0:0:0:
426,38,225976,6,0,B|385:112|385:112|419:198,1,157.500006008148,2|2,3:2|0:3,0:0:0:0:
86,346,226390,2,0,B|127:272|127:272|93:186,1,157.500006008148,2|2,3:2|0:3,0:0:0:0:
331,15,226804,5,2,3:2:0:0:
260,104,226907,2,0,B|214:117|214:117|143:96,1,78.7500030040742,0|0,3:2|0:0,0:0:0:0:
237,190,227114,5,2,3:2:0:0:
166,101,227218,2,0,B|120:88|120:88|49:109,1,78.7500030040742,0|0,3:2|0:0,0:0:0:0:
298,274,227425,6,0,B|344:287|344:287|415:266,1,78.7500030040742,2|0,3:2|0:0,0:0:0:0:
448,356,227632,6,0,L|484:194,1,157.500006008148,6|2,3:2|0:3,0:0:0:0:
413,70,227942,1,0,0:0:0:0:
356,134,228045,2,0,B|374:174|374:174|423:186,1,78.7500030040742,10|0,3:2|0:0,0:0:0:0:
431,59,228252,2,0,B|413:19|413:19|364:7,1,78.7500030040742,2|0,0:2|0:0,0:0:0:0:
166,101,228459,6,0,L|191:206,1,78.7500030040742,2|0,3:2|0:0,0:0:0:0:
162,111,228666,2,0,L|187:216,1,78.7500030040742,2|0,0:3|0:0,0:0:0:0:
71,328,228873,2,0,L|110:220,1,78.7500030040742,8|0,3:2|0:0,0:0:0:0:
254,87,229080,2,0,L|293:-21,1,78.7500030040742,2|0,0:0|0:0,0:0:0:0:
47,34,229287,5,0,3:2:0:0:
33,70,229390,1,0,0:0:0:0:
18,106,229494,2,0,B|32:146|32:146|110:169,1,78.7500030040742,2|0,0:3|0:0,0:0:0:0:
262,382,229701,5,8,3:2:0:0:
276,346,229804,1,0,0:0:0:0:
291,310,229907,2,0,B|277:270|277:270|199:247,1,78.7500030040742,2|0,0:2|0:0,0:0:0:0:
24,252,230114,5,2,3:3:0:0:
98,225,230218,1,2,0:3:0:0:
172,199,230321,1,2,0:3:0:0:
246,173,230425,1,2,0:3:0:0:
321,147,230528,2,0,B|344:135|344:135|118:92,1,236.250009012223,10|0,3:2|0:0,0:0:0:0:
106,88,230942,6,0,B|77:81|77:81|288:31,2,236.250009012223,6|2|2,3:2|3:2|3:2,0:0:0:0:
406,296,231769,6,0,B|435:303|435:303|224:353,2,236.250009012223,2|2|2,3:2|3:2|3:2,0:0:0:0:
257,151,232597,6,0,P|258:233|258:151,2,236.250009012223,2|2|2,3:2|3:2|3:2,0:0:0:0:
320,282,233425,6,0,P|358:247|363:207,1,78.7500030040742,0|0,3:2|0:0,0:0:0:0:
192,101,233632,2,0,P|160:125|147:161,1,78.7500030040742,0|0,3:2|0:0,0:0:0:0:
346,128,233838,2,0,P|311:90|271:85,1,78.7500030040742,0|0,3:2|0:0,0:0:0:0:
165,255,234045,2,0,P|189:287|225:300,1,78.7500030040742,0|0,3:2|0:0,0:0:0:0:
264,164,234252,5,0,3:2:0:0:
232,174,234356,1,0,3:2:0:0:
232,209,234459,1,0,3:2:0:0:
264,219,234563,1,0,3:2:0:0:
285,192,234666,1,2,3:2:0:0:
257,195,234769,2,0,L|257:250,1,42,2|0,0:0|0:0,0:0:0:0:
204,336,235080,6,0,L|126:336,1,52.5,6|0,3:2|0:0,0:0:0:0:
72,336,235286,2,0,L|72:258,1,52.5,2|0,0:0|0:0,0:0:0:0:
76,208,235493,1,0,3:2:0:0:
76,208,235597,2,0,L|157:208,1,52.5,2|0,0:0|0:0,0:0:0:0:
212,208,235804,1,0,0:0:0:0:
212,208,235907,2,0,L|212:127,1,52.5,2|0,3:2|0:0,0:0:0:0:
312,48,236114,1,0,0:0:0:0:
312,48,236217,2,0,L|312:129,1,52.5,2|0,0:0|3:2,0:0:0:0:
440,224,236424,1,0,0:0:0:0:
440,224,236528,2,0,L|440:143,1,52.5,2|0,0:0|0:0,0:0:0:0:
444,48,236735,6,0,L|375:48,1,52.5,2|0,3:2|0:0,0:0:0:0:
312,48,236942,2,0,L|312:129,1,52.5,2|0,0:0|0:0,0:0:0:0:
316,184,237148,1,0,3:2:0:0:
316,184,237252,2,0,L|397:184,1,52.5,2|0,0:0|0:0,0:0:0:0:
452,188,237459,1,0,0:0:0:0:
452,188,237562,2,0,L|452:269,1,52.5,2|0,3:2|0:0,0:0:0:0:
324,360,237769,1,0,0:0:0:0:
324,360,237873,2,0,L|324:279,1,52.5,2|0,0:0|3:2,0:0:0:0:
195,180,238080,1,0,0:0:0:0:
195,180,238183,2,0,L|195:261,1,52.5,2|0,0:0|0:0,0:0:0:0:
50,363,238390,6,0,L|51:299,1,52.5,0|0,3:2|0:0,0:0:0:0:
55,231,238597,2,0,L|133:231,1,52.5,2|0,0:0|0:0,0:0:0:0:
195,232,238804,1,0,3:2:0:0:
195,232,238907,2,0,L|195:151,1,52.5,2|0,0:0|0:0,0:0:0:0:
202,104,239114,1,0,0:0:0:0:
202,104,239217,2,0,L|283:104,1,52.5,2|0,3:2|0:0,0:0:0:0:
387,238,239424,1,0,0:0:0:0:
387,238,239528,2,0,L|306:238,1,52.5,2|0,0:0|3:2,0:0:0:0:
151,344,239735,1,0,0:0:0:0:
151,344,239838,2,0,L|232:344,1,52.5,2|0,0:0|0:0,0:0:0:0:
282,344,240045,6,0,L|282:275,1,52.5,0|0,3:2|0:0,0:0:0:0:
283,212,240252,2,0,L|202:212,1,52.5,2|0,0:0|0:0,0:0:0:0:
155,213,240459,1,0,3:2:0:0:
155,213,240562,2,0,L|155:132,1,52.5,2|0,0:0|0:0,0:0:0:0:
159,84,240769,1,0,0:0:0:0:
159,84,240873,2,0,L|240:84,1,52.5,2|0,3:2|0:0,0:0:0:0:
379,198,241080,1,0,0:0:0:0:
379,198,241183,2,0,L|298:198,1,52.5,2|0,0:0|3:2,0:0:0:0:
144,298,241390,1,0,0:0:0:0:
144,298,241493,2,0,L|225:298,1,52.5,2|0,0:0|0:0,0:0:0:0:
408,376,241700,6,0,L|340:377,1,52.5,2|0,3:2|0:0,0:0:0:0:
276,372,241907,2,0,L|276:314,1,52.5,2|0,0:0|0:0,0:0:0:0:
280,244,242114,1,0,3:2:0:0:
280,244,242217,2,0,L|416:244,1,105,2|0,0:0|0:0,0:0:0:0:
464,244,242528,2,0,L|464:164,2,52.5,2|0|0,3:2|0:0|0:0,0:0:0:0:
464,328,242838,2,0,L|464:408,2,52.5,2|0|0,0:0|3:2|0:0,0:0:0:0:
464,244,243148,2,0,L|464:164,1,52.5,2|0,0:0|0:0,0:0:0:0:
464,112,243355,6,0,L|388:112,1,52.5,2|0,3:2|0:0,0:0:0:0:
332,112,243562,2,0,L|332:180,1,52.5,2|0,0:0|0:0,0:0:0:0:
332,244,243769,1,0,3:2:0:0:
332,244,243873,2,0,L|224:244,1,105,2|0,0:0|0:0,0:0:0:0:
148,244,244183,2,0,L|148:164,2,52.5,2|0|0,3:2|0:0|0:0,0:0:0:0:
148,328,244493,2,0,L|148:408,2,52.5,2|0|0,0:0|3:2|0:0,0:0:0:0:
148,244,244804,2,0,L|148:164,1,52.5,2|0,0:0|0:0,0:0:0:0:
20,32,245011,6,0,L|80:32,1,52.5,0|0,3:2|0:0,0:0:0:0:
152,32,245217,2,0,L|152:104,1,52.5,2|0,0:0|0:0,0:0:0:0:
152,164,245424,1,0,3:2:0:0:
152,164,245528,2,0,L|264:164,1,105,2|0,0:0|0:0,0:0:0:0:
336,164,245838,2,0,L|404:164,2,52.5,2|0|0,3:2|0:0|0:0,0:0:0:0:
257,164,246148,2,0,L|189:164,2,52.5,2|0|0,0:0|3:2|0:0,0:0:0:0:
336,164,246459,2,0,L|404:164,1,52.5,2|0,0:0|0:0,0:0:0:0:
468,164,246666,6,0,L|468:96,1,52.5,2|0,3:2|0:0,0:0:0:0:
468,32,246873,2,0,L|400:32,1,52.5,2|0,0:0|0:0,0:0:0:0:
336,32,247080,1,0,3:2:0:0:
336,32,247183,2,0,L|336:168,1,105,2|0,0:0|0:0,0:0:0:0:
336,216,247493,1,2,3:2:0:0:
336,229,247597,1,2,0:0:0:0:
336,242,247700,1,2,3:2:0:0:
336,255,247804,1,2,0:0:0:0:
288,324,247907,2,0,L|208:324,1,52.5,0|0,3:2|0:0,0:0:0:0:
368,368,248114,2,0,L|448:368,1,52.5,2|0,3:2|0:0,0:0:0:0:
292,328,248735,5,2,0:0:0:0:
292,328,248838,2,0,P|301:312|314:303,1,31.4999990386963
395,289,249148,6,0,L|65:217,1,315,4|0,0:1|0:0,0:0:0:0:
27,141,249561,1,2,0:0:0:0:
44,116,249665,1,2,0:0:0:0:
74,102,249768,1,2,0:0:0:0:
111,102,249872,1,2,0:0:0:0:
141,122,249975,1,2,0:0:0:0:
165,164,250079,1,2,0:0:0:0:
202,202,250182,1,2,0:0:0:0:
254,208,250285,1,2,0:0:0:0:
306,188,250389,1,2,0:0:0:0:
337,136,250492,1,2,0:0:0:0:
327,70,250596,1,2,0:0:0:0:
262,33,250699,1,2,0:0:0:0:
184,48,250803,6,0,B|163:124|251:137|253:134|255:131|341:118|331:226,1,252,4|0,3:2|0:0,0:0:0:0:
232,254,251216,2,0,P|241:225|265:197,1,52.5,2|0,3:2|0:0,0:0:0:0:
164,317,251423,2,0,P|149:290|147:253,1,52.5,2|0,0:0|0:0,0:0:0:0:
405,240,251630,6,0,P|388:265|358:286,1,52.5,2|0,3:2|0:0,0:0:0:0:
481,131,251837,2,0,P|487:160|480:196,1,52.5,2|0,0:0|0:0,0:0:0:0:
356,55,252044,2,0,B|396:13|449:54|449:54|420:67|418:97,1,146.999995513916,2|2,3:2|0:3,0:0:0:0:
360,141,252354,5,0,0:0:0:0:
360,141,252458,2,0,B|253:118|253:118|249:113|249:113|143:90,1,220.499993270874,2|0,3:2|0:0,0:0:0:0:
22,38,252872,1,0,3:2:0:0:
30,26,252975,1,0,0:0:0:0:
44,20,253079,2,0,P|69:31|83:66,1,52.5,2|0,0:0|0:0,0:0:0:0:
94,188,253285,1,0,3:2:0:0:
79,187,253389,1,0,0:0:0:0:
67,177,253492,2,0,P|64:149|87:120,1,52.5,2|0,0:0|0:0,0:0:0:0:
189,47,253699,1,0,3:2:0:0:
195,60,253803,1,0,0:0:0:0:
192,75,253906,2,0,P|169:91|132:85,1,52.5,2|0,0:0|0:0,0:0:0:0:
40,263,254113,6,0,B|81:296|137:263|137:263|175:196|249:215,1,220.499993270874,6|0,3:2|0:0,0:0:0:0:
274,328,254527,2,0,P|244:316|230:282,1,52.5,2|0,3:2|0:0,0:0:0:0:
319,205,254734,2,0,P|349:217|363:251,1,52.5,2|0,0:0|0:0,0:0:0:0:
443,376,254941,1,2,3:2:0:0:
423,358,255044,1,2,0:0:0:0:
406,324,255148,1,2,0:0:0:0:
411,269,255251,1,2,0:0:0:0:
445,221,255354,1,2,3:2:0:0:
511,176,255458,1,2,0:0:0:0:
498,93,255561,6,0,B|501:7|382:21|382:21|409:47|417:88,1,220.499993270874,2|0,3:2|0:0,0:0:0:0:
319,205,255975,2,0,B|391:250|439:140|439:140|404:154|367:132,1,220.499993270874,0|0,3:2|0:0,0:0:0:0:
287,50,256389,2,0,L|303:129,1,73.4999977569581,0|0,3:2|0:0,0:0:0:0:
274,328,256596,1,2,3:2:0:0:
254,307,256699,1,2,0:0:0:0:
246,263,256803,1,2,0:0:0:0:
268,221,256906,1,2,0:0:0:0:
319,205,257010,6,0,L|372:216,1,47.2499985580445,2|0,3:2|0:0,0:0:0:0:
372,203,257423,6,0,L|305:217,1,62.9999980773926,6|0,3:2|0:0,0:0:0:0:
173,318,257630,2,0,L|127:267,1,62.9999980773926,2|0,0:0|0:0,0:0:0:0:
25,147,257837,1,2,3:2:0:0:
71,171,257941,1,2,0:0:0:0:
121,156,258044,1,2,0:0:0:0:
150,110,258148,1,2,0:0:0:0:
132,60,258251,6,0,L|74:72,1,52.5,2|0,3:2|0:0,0:0:0:0:
280,39,258458,2,0,L|240:-4,1,52.5,2|0,0:0|0:0,0:0:0:0:
372,156,258665,1,2,3:2:0:0:
383,122,258768,1,2,0:3:0:0:
416,109,258872,1,2,0:3:0:0:
453,114,258975,1,2,0:3:0:0:
478,142,259079,6,0,P|462:163|454:188,1,42,2|0,3:2|0:0,0:0:0:0:
412,270,259285,2,0,P|396:249|388:224,1,42,2|0,0:0|0:0,0:0:0:0:
320,273,259492,2,0,P|328:292|342:309,1,42,2|0,3:2|0:0,0:0:0:0:
386,384,259699,2,0,P|402:363|410:338,1,42,2|0,0:0|0:0,0:0:0:0:
323,190,259906,5,2,3:2:0:0:
296,179,260010,1,2,0:0:0:0:
261,181,260113,1,2,0:0:0:0:
230,202,260216,1,2,0:0:0:0:
215,234,260320,1,2,3:2:0:0:
185,273,260423,1,2,0:0:0:0:
136,291,260527,1,2,0:0:0:0:
73,281,260630,1,2,0:0:0:0:
45,221,260734,6,0,L|104:208,1,52.5,6|0,3:2|0:0,0:0:0:0:
222,96,260941,2,0,B|216:62|181:31|94:54|116:136|116:136|136:139|149:154,1,220.499993270874,0|0,3:2|0:0,0:0:0:0:
264,259,261354,2,0,B|295:271|339:255|363:169|281:147|281:147|269:163|249:166,1,220.499993270874,0|0,3:2|0:0,0:0:0:0:
96,209,261768,2,0,B|69:230|60:276|123:340|183:280|183:280|176:261|182:242,1,220.499993270874,0|0,3:2|0:0,0:0:0:0:
222,96,262182,2,0,L|208:34,1,52.5,0|0,3:2|0:0,0:0:0:0:
27,26,262389,6,0,P|52:31|73:50,1,52.5,2|0,0:0|0:0,0:0:0:0:
253,166,262596,2,0,P|277:156|295:134,1,52.5,2|0,0:0|0:0,0:0:0:0:
452,14,262803,6,0,P|477:19|498:38,1,52.5,2|0,3:2|0:0,0:0:0:0:
450,145,263010,2,0,P|424:139|403:120,1,52.5,2|0,0:0|0:0,0:0:0:0:
210,44,263216,5,2,3:2:0:0:
170,76,263320,1,2,0:0:0:0:
166,127,263423,1,2,3:2:0:0:
201,165,263527,1,2,0:0:0:0:
253,166,263630,6,0,P|277:156|295:134,1,52.5,2|2,3:2|0:0,0:0:0:0:
90,121,263837,2,0,P|86:146|96:173,1,52.5,2|2,3:2|0:0,0:0:0:0:
163,319,264044,5,6,3:2:0:0:
102,258,264148,1,2,0:0:0:0:
25,295,264251,1,2,0:0:0:0:
27,311,264354,1,2,0:2:0:0:
83,369,264458,5,2,3:2:0:0:
163,319,264561,2,0,B|194:294|194:294|246:308,1,78.7500030040742,2|0,0:0|0:0,0:0:0:0:
391,309,264768,1,2,0:0:0:0:
362,384,264872,2,0,B|324:369|324:369|310:317,1,78.7500030040742,2|0,3:2|0:0,0:0:0:0:
243,192,265079,1,2,0:0:0:0:
319,180,265182,2,0,B|325:219|325:219|287:257,1,78.7500030040742,2|0,0:0|3:2,0:0:0:0:
25,295,265389,5,2,0:0:0:0:
102,258,265492,1,2,0:0:0:0:
95,172,265596,1,2,0:0:0:0:
15,139,265699,5,2,3:2:0:0:
24,221,265803,1,2,0:0:0:0:
102,258,265906,1,2,0:0:0:0:
169,205,266010,1,2,0:2:0:0:
156,120,266113,1,2,3:2:0:0:
79,85,266216,2,0,B|100:49|100:49|154:37,1,78.7500030040742,2|0,0:0|0:0,0:0:0:0:
305,73,266423,1,2,0:0:0:0:
262,1,266527,2,0,B|227:23|227:23|218:78,1,78.7500030040742,2|0,3:2|0:0,0:0:0:0:
297,280,266734,1,2,0:0:0:0:
292,268,266837,1,2,0:0:0:0:
288,256,266941,5,2,3:2:0:0:
341,198,267044,1,2,0:0:0:0:
419,214,267148,1,2,0:0:0:0:
443,289,267251,1,2,0:0:0:0:
390,348,267354,6,0,B|351:309|386:267|386:267|386:264|386:264|434:256|445:210,1,157.500006008148,6|0,3:2|0:0,0:0:0:0:
364,136,267665,1,2,0:0:0:0:
364,136,267768,2,0,L|376:194,1,52.5,0|0,3:2|0:0,0:0:0:0:
295,331,267975,2,0,P|291:305|297:280,1,52.5,2|0,0:0|0:0,0:0:0:0:
447,118,268182,5,2,3:2:0:0:
436,88,268285,1,2,0:0:0:0:
408,56,268389,1,2,3:2:0:0:
360,40,268492,1,2,0:0:0:0:
304,55,268596,1,2,3:2:0:0:
257,112,268699,1,2,0:0:0:0:
182,130,268803,1,2,3:2:0:0:
119,90,268906,1,2,0:0:0:0:
115,17,269010,6,0,P|152:24|181:53,1,52.5,2|0,3:2|0:0,0:0:0:0:
364,136,269216,2,0,B|366:201|308:227|308:227|227:198|198:262,1,236.250009012223,0|0,3:2|0:0,0:0:0:0:
278,345,269630,2,0,L|264:281,1,52.5,0|0,3:2|0:0,0:0:0:0:
119,90,269837,1,2,0:0:0:0:
87,105,269941,1,2,0:3:0:0:
62,142,270044,1,2,3:3:0:0:
64,189,270148,1,2,0:3:0:0:
96,223,270251,1,2,0:3:0:0:
136,281,270354,1,2,0:3:0:0:
117,354,270458,1,2,3:3:0:0:
40,379,270561,1,2,0:3:0:0:
0,307,270665,6,0,B|39:268|81:303|81:303|84:303|84:303|92:351|138:362,1,157.500006008148,6|0,3:2|0:0,0:0:0:0:
230,326,270975,2,0,B|262:289|234:241|234:241|169:235|159:303,1,188.999994232178,0|0,3:2|0:0,0:0:0:0:
288,381,271285,2,0,P|308:353|321:314,1,62.9999980773926,0|0,3:2|0:0,0:0:0:0:
357,180,271492,5,2,3:2:0:0:
360,236,271596,1,2,0:0:0:0:
414,251,271699,1,2,0:0:0:0:
445,204,271803,1,2,0:0:0:0:
410,159,271906,1,2,3:2:0:0:
343,110,272010,1,2,0:0:0:0:
369,32,272113,1,2,0:0:0:0:
451,32,272216,1,2,0:0:0:0:
476,110,272320,6,0,B|407:95|407:95|398:81|398:81|307:61,1,157.500006008148,6|0,3:2|0:0,0:0:0:0:
237,106,272630,2,0,B|218:111|218:111|185:183|185:183|270:175|270:175|280:159,1,199.499994672775,0|0,3:2|0:0,0:0:0:0:
246,17,272941,2,0,L|180:30,1,62.9999980773926,0|0,3:2|0:0,0:0:0:0:
40,126,273148,5,2,3:2:0:0:
43,70,273251,1,2,0:0:0:0:
97,55,273354,1,2,0:0:0:0:
128,102,273458,1,2,0:0:0:0:
93,147,273561,1,2,3:2:0:0:
26,196,273665,1,2,0:0:0:0:
52,274,273768,1,2,0:0:0:0:
134,274,273872,1,2,0:0:0:0:
135,194,273975,6,0,B|74:163|6:217|33:273|33:273|49:271|71:277,1,188.999994232178,6|0,3:2|0:0,0:0:0:0:
138,352,274285,1,2,0:0:0:0:
161,349,274389,2,0,P|190:332|211:293,1,62.9999980773926,0|0,3:2|0:0,0:0:0:0:
318,288,274596,2,0,P|317:254|294:216,1,62.9999980773926,2|0,0:0|0:0,0:0:0:0:
387,20,274803,6,0,B|448:-11|516:43|489:99|489:99|473:97|451:103,1,188.999994232178,2|0,3:2|0:0,0:0:0:0:
384,178,275113,1,2,0:0:0:0:
361,175,275216,2,0,P|332:158|311:119,1,62.9999980773926,0|0,3:2|0:0,0:0:0:0:
204,114,275423,2,0,P|205:80|228:42,1,62.9999980773926,2|0,3:2|0:0,0:0:0:0:
90,2,275630,5,4,3:2:0:0:
68,32,275734,1,2,0:3:0:0:
56,78,275837,1,2,0:3:0:0:
70,126,275941,1,2,3:3:0:0:
106,171,276044,1,2,0:3:0:0:
143,224,276148,1,2,0:3:0:0:
155,289,276251,1,2,3:3:0:0:
124,351,276354,1,2,0:3:0:0:
52,372,276458,5,2,3:2:0:0:
64,330,276561,1,2,0:0:0:0:
100,296,276665,1,2,3:2:0:0:
155,289,276768,1,2,0:0:0:0:
218,318,276872,1,2,3:2:0:0:
285,359,276975,1,2,0:0:0:0:
366,353,277079,1,2,3:2:0:0:
422,288,277182,1,2,0:0:0:0:
401,205,277285,1,6,3:2:0:0:
401,205,278113,6,0,P|371:220|334:219,2,62.9999980773926,0|0|0,3:2|3:2|3:2,0:0:0:0:
450,148,279768,2,0,P|443:125|418:102,1,42,0|0,3:2|0:0,0:0:0:0:
490,58,279975,2,0,P|504:73|512:92,1,42,0|0,3:2|0:0,0:0:0:0:
354,90,280182,2,0,P|360:67|385:44,1,42,0|0,3:2|0:0,0:0:0:0:
314,0,280389,2,0,P|299:15|291:34,1,42,0|0,3:2|0:0,0:0:0:0:
401,204,280596,5,0,3:2:0:0:
401,204,281423,5,0,3:2:0:0:
401,204,282251,5,2,3:3:0:0:
397,217,282354,1,2,0:3:0:0:
383,228,282458,1,2,0:3:0:0:
364,237,282561,1,2,0:3:0:0:
336,241,282665,1,2,0:0:0:0:
309,234,282768,1,2,0:0:0:0:
291,215,282872,1,2,3:2:0:0:
257,195,282975,1,2,0:0:0:0:
213,189,283079,1,2,0:0:0:0:
165,212,283182,1,2,0:0:0:0:
141,262,283285,1,2,0:0:0:0:
154,319,283389,1,2,0:0:0:0:
210,348,283492,5,2,3:2:0:0:
232,316,283596,1,2,0:0:0:0:
180,256,283699,1,2,3:2:0:0:
257,195,283803,1,2,0:0:0:0:
177,116,283906,6,0,B|125:99|139:35|139:35|200:13|223:64,1,188.999994232178,6|0,3:2|0:0,0:0:0:0:
331,199,284216,2,0,B|342:252|279:272|279:272|230:230|262:185,1,188.999994232178,0|0,3:2|0:0,0:0:0:0:
372,108,284527,2,0,P|402:125|422:159,1,62.9999980773926,0|0,3:2|0:0,0:0:0:0:
450,379,284734,5,6,3:2:0:0:
403,360,284837,1,2,0:3:0:0:
380,318,284941,1,2,0:3:0:0:
386,278,285044,1,2,3:3:0:0:
410,249,285148,1,2,0:3:0:0:
448,239,285251,1,2,0:3:0:0:
478,246,285354,1,2,3:3:0:0:
497,264,285458,1,2,0:3:0:0:
504,280,285561,6,0,B|478:300|478:300|352:319|352:319|321:356,1,188.999994232178,4|0,3:2|0:0,0:0:0:0:
254,372,285872,2,0,B|221:367|221:367|118:292|118:292|70:296,1,188.999994232178,0|0,3:2|0:0,0:0:0:0:
9,384,286182,2,0,L|76:369,1,62.9999980773926,0|0,3:2|0:0,0:0:0:0:
269,292,286389,5,4,3:2:0:0:
287,268,286492,1,0,0:0:0:0:
286,238,286596,2,0,P|263:215|229:207,1,42,0|0,0:0|3:2,0:0:0:0:
114,201,286803,2,0,P|176:167|196:98,1,146.999995513916,0|0,0:0|3:2,0:0:0:0:
19,59,287113,5,0,0:0:0:0:
19,59,287216,2,0,B|38:116|106:100|106:100|86:85|84:63,1,146.999995513916,4|2,3:2|0:3,0:0:0:0:
187,18,287527,1,0,3:2:0:0:
187,18,287630,2,0,P|161:23|131:52,1,42
19,225,287837,1,2,0:3:0:0:
368,142,288044,6,0,B|349:199|281:183|281:183|301:168|303:146,1,146.999995513916,0|2,3:2|0:3,0:0:0:0:
200,101,288354,1,0,3:2:0:0:
200,101,288458,2,0,P|226:106|256:135,1,42
368,308,288665,1,2,0:3:0:0:
19,225,288872,6,0,B|38:282|106:266|106:266|86:251|84:229,1,146.999995513916,4|2,3:2|0:3,0:0:0:0:
187,184,289182,1,0,3:2:0:0:
187,184,289285,2,0,P|161:189|131:218,1,42
269,141,289492,2,0,P|251:120|211:109,1,42,2|0,0:3|0:0,0:0:0:0:
446,265,289699,2,0,P|472:270|502:299,1,42,2|0,3:2|0:0,0:0:0:0:
364,222,289906,2,0,P|381:201|421:190,1,42,2|0,0:0|3:2,0:0:0:0:
227,305,290113,2,0,B|188:308|162:332|162:332|185:306|194:261,1,146.999995513916,2|0,0:0|3:2,0:0:0:0:
302,65,290527,6,0,B|281:50|274:22|274:22|218:56|201:103|232:179|232:179|230:187|230:187|317:214|341:326|266:373|266:373|297:356|292:332,1,519.749984138489,4|0,3:2|0:0,0:0:0:0:
291,345,291768,2,0,P|280:363|260:374,1,37.8000009228516,2|0,0:3|0:0,0:0:0:0:
378,340,291975,2,0,P|373:361|358:378,1,37.8000009228516,2|0,0:3|0:0,0:0:0:0:
426,270,292182,5,2,0:3:0:0:
449,267,292285,1,2,0:3:0:0:
473,253,292389,1,2,0:0:0:0:
496,222,292492,1,2,0:0:0:0:
507,179,292596,1,2,0:0:0:0:
501,135,292699,1,2,0:0:0:0:
476,92,292803,1,2,0:0:0:0:
428,67,292906,1,2,0:0:0:0:
367,68,293010,1,2,0:0:0:0:
309,124,293113,1,2,0:0:0:0:
296,203,293216,1,2,0:0:0:0:
251,261,293320,1,2,0:0:0:0:
212,268,293423,1,2,0:0:0:0:
185,258,293527,1,2,0:0:0:0:
168,233,293630,1,2,0:0:0:0:
165,208,293734,1,2,0:0:0:0:
173,190,293837,6,0,P|192:184|201:170,3,26.25,4|0|0|0,0:1|0:0|0:0|0:0,0:0:0:0:
75,102,294251,1,2,0:0:0:0:
75,102,294354,1,2,0:0:0:0:
75,102,294458,2,0,P|70:121|78:136,1,26.25,2|2,0:0|0:0,0:0:0:0:
200,61,294665,1,2,0:0:0:0:
200,61,294768,1,2,0:0:0:0:
200,61,294872,2,0,P|186:47|169:46,1,26.25,2|2,0:0|0:0,0:0:0:0:
71,126,295079,1,2,0:0:0:0:
116,190,295182,1,2,0:0:0:0:
195,179,295285,1,2,0:0:0:0:
228,105,295389,1,2,0:0:0:0:
150,113,295492,5,6,3:2:0:0:
362,271,305423,6,0,P|380:243|371:210,1,62.9999980773926,0|0,3:2|0:0,0:0:0:0:
232,74,305630,2,0,L|187:207,1,125.999996154785,0|2,3:2|0:0,0:0:0:0:
240,253,305941,5,0,0:0:0:0:
191,193,306044,2,0,L|236:60,1,125.999996154785,2|2,3:2|0:0,0:0:0:0:
186,13,306354,5,0,0:0:0:0:
231,73,306458,2,0,L|191:193,1,125.999996154785,0|2,3:2|0:0,0:0:0:0:
240,253,306768,1,0,0:0:0:0:
320,198,306872,2,0,P|302:162|259:147,1,62.9999980773926,2|0,3:2|0:0,0:0:0:0:
134,108,307079,6,0,B|121:121|121:121|95:126|95:126|180:134,1,115.50000352478,4|0,0:1|0:0,0:0:0:0:
476,263,307285,1,2,0:0:0:0:
473,282,307389,1,2,0:0:0:0:
470,302,307492,1,2,3:2:0:0:
468,322,307596,2,0,B|437:346|437:346|310:269,1,157.500006008148,2|0,0:0|0:0,0:0:0:0:
222,289,307906,5,2,3:2:0:0:
240,253,308010,1,2,0:0:0:0:
324,244,308113,5,2,3:2:0:0:
308,199,308216,1,2,0:0:0:0:
371,134,308320,5,2,3:2:0:0:
321,109,308423,1,2,0:0:0:0:
313,33,308527,5,2,3:2:0:0:
252,51,308630,1,2,0:0:0:0:
229,150,308734,6,0,L|36:103,1,180.600002755737,6|2,3:2|0:3,0:0:0:0:
163,240,309044,1,0,0:0:0:0:
140,83,309148,2,0,L|38:111,1,90.3000013778687,10|0,3:2|0:0,0:0:0:0:
179,247,309354,2,0,L|281:219,1,90.3000013778687,2|0,0:2|0:0,0:0:0:0:
465,141,309561,6,0,L|368:118,1,90.3000013778687,2|0,3:2|0:0,0:0:0:0:
451,151,309768,2,0,L|354:128,1,90.3000013778687,2|0,0:2|0:0,0:0:0:0:
283,9,309975,2,0,B|325:15|325:15|370:57,1,90.3000013778687,8|0,3:2|0:0,0:0:0:0:
429,228,310182,2,0,B|463:260|463:260|505:266,1,90.3000013778687,2|0,0:0|0:0,0:0:0:0:
490,24,310389,6,0,B|384:67|384:67|363:130,1,180.600002755737,0|2,3:2|0:0,0:0:0:0:
317,342,310699,1,0,0:0:0:0:
409,305,310803,2,0,B|441:264|441:264|419:198,1,90.3000013778687,8|0,3:2|0:0,0:0:0:0:
256,131,311010,2,0,B|262:182|262:182|324:213,1,90.3000013778687,2|0,0:0|0:0,0:0:0:0:
509,144,311216,5,2,3:3:0:0:
430,99,311320,1,2,0:3:0:0:
342,122,311423,1,2,0:3:0:0:
296,199,311527,1,2,0:3:0:0:
222,252,311630,1,10,3:2:0:0:
135,227,311734,1,2,0:3:0:0:
98,144,311837,1,2,0:3:0:0:
149,69,311941,1,2,0:3:0:0:
237,54,312044,6,0,B|265:84|265:128|265:128|201:154|223:268,1,180.600002755737,0|2,3:2|0:0,0:0:0:0:
256,355,312354,1,0,0:0:0:0:
317,268,312458,2,0,P|328:227|275:200,1,90.3000013778687,8|0,3:2|0:0,0:0:0:0:
191,321,312665,2,0,P|212:357|268:339,1,90.3000013778687,2|0,0:0|0:0,0:0:0:0:
135,227,312872,6,0,L|20:199,1,90.3000013778687,2|2,3:2|0:0,0:0:0:0:
344,355,313079,1,2,0:0:0:0:
344,355,313182,1,2,0:0:0:0:
344,355,313285,2,0,L|459:327,1,90.3000013778687,2|2,3:2|0:0,0:0:0:0:
283,99,313492,2,0,L|266:227,1,90.3000013778687,2|2,3:2|0:0,0:0:0:0:
35,341,313699,5,0,3:2:0:0:
78,330,313803,1,0,0:0:0:0:
121,319,313906,2,0,B|143:272|143:272|112:209,1,90.3000013778687,0|0,3:2|0:0,0:0:0:0:
286,18,314216,5,0,3:2:0:0:
200,40,314320,2,0,B|178:87|178:87|209:150,1,90.3000013778687,2|0,3:2|0:0,0:0:0:0:
25,351,314630,5,0,3:2:0:0:
111,329,314734,2,0,B|133:282|133:282|102:219,1,90.3000013778687,0|2,3:2|0:0,0:0:0:0:
296,8,315044,5,0,3:2:0:0:
210,30,315148,2,0,B|188:77|188:77|219:140,1,90.3000013778687,2|0,3:2|0:0,0:0:0:0:
307,367,315354,6,0,P|334:296|274:215,1,180.600002755737,6|0,3:2|0:0,0:0:0:0:
21,130,315665,1,2,3:2:0:0:
57,200,315768,2,0,L|152:211,1,90.3000013778687
376,76,315975,2,0,L|281:87,1,90.3000013778687,2|0,3:2|0:0,0:0:0:0:
149,93,316182,5,2,3:2:0:0:
150,102,316285,1,2,0:0:0:0:
152,112,316389,1,2,0:0:0:0:
154,121,316492,1,2,0:0:0:0:
235,172,316596,5,2,3:2:0:0:
224,230,316699,1,2,0:0:0:0:
213,288,316803,1,2,0:0:0:0:
203,346,316906,1,2,0:0:0:0:
75,279,317010,6,0,P|153:268|202:347,1,180.600002755737,2|0,3:2|0:0,0:0:0:0:
417,311,317320,1,2,3:2:0:0:
324,288,317423,2,0,P|282:335|287:379,1,90.3000013778687
439,309,317630,2,0,P|480:261|476:218,1,90.3000013778687,2|0,3:2|0:0,0:0:0:0:
353,29,317837,2,0,L|384:242,1,180.600002755737,2|2,3:2|0:0,0:0:0:0:
510,183,318148,1,2,0:0:0:0:
464,105,318251,2,0,P|416:88|375:119,1,90.3000013778687,2|2,3:2|0:0,0:0:0:0:
290,192,318458,2,0,P|242:209|201:178,1,90.3000013778687,2|2,0:0|0:0,0:0:0:0:
37,31,318665,5,6,3:2:0:0:
92,2,318768,1,2,0:3:0:0:
151,22,318872,1,2,0:3:0:0:
167,83,318975,1,2,0:3:0:0:
255,132,319079,5,10,3:2:0:0:
204,111,319182,1,2,0:3:0:0:
150,122,319285,1,2,0:3:0:0:
128,171,319389,1,2,0:3:0:0:
57,223,319492,5,2,3:2:0:0:
100,213,319596,1,2,0:3:0:0:
143,226,319699,1,2,0:3:0:0:
164,265,319803,1,2,0:3:0:0:
231,283,319906,6,0,P|188:308|185:351,1,90.3000013778687,10|0,3:2|0:0,0:0:0:0:
0,319,320113,2,0,L|111:295,1,90.3000013778687,2|0,3:2|0:0,0:0:0:0:
418,301,320320,6,0,P|328:250|330:171,1,180.600002755737,0|2,3:2|0:0,0:0:0:0:
337,174,320630,6,0,P|350:259|429:293,1,180.600002755737,2|0,3:2|0:0,0:0:0:0:
313,336,320941,2,0,P|315:292|348:262,1,90.3000013778687,2|0,3:2|0:0,0:0:0:0:
425,166,321148,5,2,3:2:0:0:
415,209,321251,1,2,0:0:0:0:
365,94,321354,5,2,3:2:0:0:
377,41,321458,1,2,0:0:0:0:
274,125,321561,5,2,3:2:0:0:
260,186,321665,1,2,0:0:0:0:
191,71,321768,5,2,3:2:0:0:
205,0,321872,1,2,0:0:0:0:
108,117,321975,6,0,B|85:177|-8:177|-8:177|-27:73|55:53,1,283.499991348267,6|0,3:2|0:0,0:0:0:0:
183,157,322389,2,0,P|159:195|130:217,1,78.7500030040742,8|0,3:2|0:0,0:0:0:0:
5,308,322596,2,0,P|49:309|83:323,1,78.7500030040742,2|0,0:2|0:0,0:0:0:0:
229,384,322803,2,0,P|208:344|203:308,1,78.7500030040742,2|0,3:2|0:0,0:0:0:0:
285,276,323010,2,0,P|291:314|310:348,1,78.7500030040742,2|0,0:0|0:0,0:0:0:0:
508,256,323216,2,0,P|467:263|418:274,1,78.7500030040742,10|0,3:2|0:0,0:0:0:0:
281,166,323423,5,2,0:0:0:0:
288,150,323527,1,0,0:0:0:0:
302,141,323630,2,0,P|333:156|364:199,1,78.7500030040742,0|0,3:2|0:0,0:0:0:0:
504,62,323837,1,2,0:0:0:0:
497,46,323941,1,0,0:0:0:0:
483,37,324044,2,0,P|452:52|421:95,1,78.7500030040742,8|0,3:2|0:0,0:0:0:0:
285,276,324251,2,0,P|259:250|208:235,1,78.7500030040742,2|0,0:0|0:0,0:0:0:0:
11,231,324458,5,2,3:2:0:0:
90,220,324561,1,2,0:3:0:0:
125,148,324665,1,2,0:3:0:0:
93,78,324768,1,2,0:3:0:0:
18,63,324872,2,0,L|99:45,1,78.7500030040742,10|0,3:2|0:0,0:0:0:0:
286,49,325079,5,2,0:2:0:0:
274,61,325182,1,0,0:0:0:0:
257,65,325285,2,0,P|234:39|220:-11,1,78.7500030040742,0|0,3:2|0:0,0:0:0:0:
360,190,325492,1,2,0:0:0:0:
372,202,325596,1,0,0:0:0:0:
388,205,325699,2,0,P|411:179|425:128,1,78.7500030040742,8|0,3:2|0:0,0:0:0:0:
257,344,325906,2,0,P|233:318|219:267,1,78.7500030040742,2|0,0:0|0:0,0:0:0:0:
441,263,326113,2,0,P|482:272|511:320,1,78.7500030040742,2|0,3:2|0:0,0:0:0:0:
469,380,326320,2,0,P|428:371|399:323,1,78.7500030040742,2|0,0:3|0:0,0:0:0:0:
279,193,326527,5,10,3:2:0:0:
257,156,326630,1,2,0:0:0:0:
206,133,326734,1,2,0:0:0:0:
135,146,326837,1,2,0:0:0:0:
87,207,326941,5,2,3:2:0:0:
41,169,327044,1,2,0:3:0:0:
26,112,327148,1,2,0:3:0:0:
40,52,327251,1,2,0:3:0:0:
120,13,327354,5,2,3:2:0:0:
128,27,327458,1,2,0:3:0:0:
132,42,327561,1,2,0:3:0:0:
128,60,327665,1,2,0:3:0:0:
40,52,327768,5,2,3:2:0:0:
210,84,327872,2,0,P|187:119|141:153,1,78.7500030040742,0|0,3:2|0:0,0:0:0:0:
58,309,328079,1,2,3:2:0:0:
0,145,328182,2,0,P|42:146|94:169,1,78.7500030040742,0|0,3:2|0:0,0:0:0:0:
259,306,328389,2,0,P|301:305|353:282,1,78.7500030040742,2|0,3:2|0:0,0:0:0:0:
494,86,328596,6,0,B|531:43|492:-10|492:-10|381:8|402:117,1,283.499991348267,6|0,3:2|0:0,0:0:0:0:
333,170,329010,2,0,P|320:132|319:80,1,78.7500030040742,10|0,3:2|0:0,0:0:0:0:
488,201,329216,2,0,P|485:240|472:277,1,78.7500030040742,2|0,0:2|0:0,0:0:0:0:
258,304,329423,2,0,P|295:292|335:292,1,78.7500030040742,2|0,3:2|0:0,0:0:0:0:
126,355,329630,2,0,P|139:318|164:287,1,78.7500030040742,2|0,0:3|0:0,0:0:0:0:
0,145,329837,2,0,P|27:173|44:208,1,78.7500030040742,8|0,3:2|0:0,0:0:0:0:
213,368,330044,2,0,P|230:332|257:304,1,78.7500030040742,2|0,0:0|0:0,0:0:0:0:
410,187,330251,5,2,3:3:0:0:
418,153,330354,1,2,0:3:0:0:
401,115,330458,1,2,0:3:0:0:
355,92,330561,1,2,0:3:0:0:
298,104,330665,1,10,3:2:0:0:
267,154,330768,1,2,0:3:0:0:
279,216,330872,2,0,P|315:196|345:155,1,78.7500030040742,2|0,0:2|0:0,0:0:0:0:
455,52,331079,5,2,3:2:0:0:
415,15,331182,1,2,0:0:0:0:
354,5,331285,1,2,0:3:0:0:
290,19,331389,1,2,0:0:0:0:
209,87,331492,5,10,3:2:0:0:
146,125,331596,1,2,0:0:0:0:
72,117,331699,1,2,0:3:0:0:
27,59,331803,1,2,0:0:0:0:
104,34,331906,6,0,B|129:87|74:128|74:128|22:121|-8:165,1,188.999994232178,6|0,3:2|0:0,0:0:0:0:
64,233,332216,2,0,L|22:38,1,178.500003404617,2|0,3:2|0:0,0:0:0:0:
166,224,332527,2,0,L|151:293,1,52.5,2|0,3:2|0:0,0:0:0:0:
12,384,332734,6,0,B|3:315|83:307|83:307|104:350|148:351,1,188.999994232178,2|0,3:2|0:0,0:0:0:0:
299,359,333044,2,0,B|308:337|326:322|326:322|304:288|234:266|208:336,1,188.999994232178,2|0,3:2|0:0,0:0:0:0:
376,380,333354,2,0,P|394:362|399:306,1,62.9999980773926,2|0,3:2|0:0,0:0:0:0:
280,145,333561,6,0,B|275:162|254:185|254:185|335:151|335:151|347:114|391:98,1,188.999994232178,2|0,3:2|0:0,0:0:0:0:
487,228,333872,2,0,B|504:223|534:230|534:230|464:177|464:177|426:185|390:155,1,188.999994232178,2|0,3:2|0:0,0:0:0:0:
411,44,334182,2,0,P|433:65|442:95,1,62.9999980773926,2|0,3:2|0:0,0:0:0:0:
415,252,334389,6,0,P|376:241|356:220,1,62.9999980773926,0|0,3:2|0:0,0:0:0:0:
322,314,334596,2,0,P|346:333|376:339,1,62.9999980773926,0|0,3:2|0:0,0:0:0:0:
121,229,334803,6,0,P|96:248|66:254,1,62.9999980773926,0|0,3:2|0:0,0:0:0:0:
104,342,335010,2,0,P|134:335|158:316,1,62.9999980773926,0|0,3:2|0:0,0:0:0:0:
264,167,335216,5,0,3:2:0:0:
234,177,335320,1,0,3:2:0:0:
234,208,335423,1,0,3:2:0:0:
264,218,335527,1,0,3:2:0:0:
282,192,335630,1,2,3:2:0:0:
264,167,335734,6,0,P|258:155|259:140,1,21,2|0,0:0|0:0,0:0:0:0:
290,52,336044,6,0,L|228:343,1,283.499991348267,6|0,3:2|0:0,0:0:0:0:
368,373,336458,2,0,P|359:346|345:322,1,52.5,2|0,3:2|0:0,0:0:0:0:
410,269,336665,2,0,P|425:290|435:314,1,52.5,2|0,0:0|0:0,0:0:0:0:
231,329,336872,6,0,P|240:302|254:278,1,52.5,2|0,3:2|0:0,0:0:0:0:
189,225,337079,2,0,P|173:246|163:270,1,52.5,2|0,0:0|0:0,0:0:0:0:
410,269,337285,2,0,B|449:245|430:179|430:179|355:168|344:236,1,204.749990627289,2|0,3:2|0:0,0:0:0:0:
285,168,337699,2,0,P|301:143|332:126,1,52.5,2|0,3:2|0:0,0:0:0:0:
483,84,337906,2,0,L|422:71,1,52.5,2|0,0:3|0:0,0:0:0:0:
281,26,338113,1,2,3:2:0:0:
281,26,338216,2,0,L|392:2,1,105,2|0,0:0|0:0,0:0:0:0:
190,130,338527,6,0,P|215:119|237:88,1,52.5,0|0,3:2|0:0,0:0:0:0:
34,20,338734,2,0,P|126:19|171:65,1,146.999995513916,2|0,0:3|3:2,0:0:0:0:
62,201,339148,2,0,B|43:188|45:165|45:165|52:187|67:196,1,73.4999977569581,2|0,0:0|0:0,0:0:0:0:
0,379,339354,2,0,B|-23:308|47:281|47:281|47:278|47:278|120:283|140:218,1,220.499993270874,2|0,3:2|0:0,0:0:0:0:
192,290,339768,2,0,P|174:312|144:331,1,52.5,2|0,3:2|0:0,0:0:0:0:
302,384,339975,5,2,0:3:0:0:
302,384,340079,1,0,0:0:0:0:
302,384,340182,2,0,P|282:362|250:348,1,52.5,2|0,3:2|0:0,0:0:0:0:
401,268,340389,1,2,0:3:0:0:
401,268,340492,2,0,P|379:281|362:301,1,52.5,2|0,0:0|3:2,0:0:0:0:
498,384,340699,1,0,0:0:0:0:
498,384,340803,2,0,P|478:362|446:348,1,52.5,2|0,0:0|0:0,0:0:0:0:
308,241,341010,2,0,P|324:220|347:207,1,52.5,0|0,3:2|0:0,0:0:0:0:
502,104,341216,5,2,0:3:0:0:
473,125,341320,1,2,0:3:0:0:
434,128,341423,1,2,3:3:0:0:
401,113,341527,1,2,0:3:0:0:
380,82,341630,1,2,0:3:0:0:
375,43,341734,1,2,0:3:0:0:
398,8,341837,5,2,3:2:0:0:
354,57,341941,1,2,0:0:0:0:
292,73,342044,1,2,0:0:0:0:
227,67,342148,1,2,0:0:0:0:
180,22,342251,6,0,L|191:73,1,47.2499985580445,2|0,3:2|0:0,0:0:0:0:
116,115,342665,6,0,P|85:118|59:143,1,52.5,2|0,3:2|0:0,0:0:0:0:
99,216,342872,2,0,P|129:212|155:187,1,52.5,2|0,0:0|0:0,0:0:0:0:
292,73,343079,2,0,B|321:15|393:27|405:79|398:105|398:105|373:113|366:135,1,204.749990627289,2|0,3:2|0:0,0:0:0:0:
333,208,343492,6,0,P|309:192|297:167,1,52.5,2|0,3:2|0:0,0:0:0:0:
373,289,343699,2,0,P|397:273|409:248,1,52.5,2|0,0:0|0:0,0:0:0:0:
269,379,343906,2,0,B|237:230|237:230|255:262|296:280,1,204.749990627289,0|0,3:2|0:0,0:0:0:0:
184,340,344320,6,0,L|172:284,1,42,2|0,3:2|0:0,0:0:0:0:
108,384,344527,2,0,L|96:328,1,42,2|0,0:0|0:0,0:0:0:0:
0,233,344734,6,0,L|12:176,1,52.5,2|0,3:2|0:0,0:0:0:0:
72,275,344941,2,0,L|84:218,1,52.5,2|0,0:0|0:0,0:0:0:0:
202,161,345148,5,2,3:3:0:0:
202,139,345251,1,2,0:3:0:0:
180,120,345354,1,2,0:3:0:0:
147,112,345458,1,2,0:3:0:0:
97,120,345561,1,2,3:2:0:0:
43,102,345665,1,2,0:0:0:0:
32,45,345768,1,2,0:0:0:0:
71,2,345872,1,2,0:0:0:0:
135,5,345975,5,2,3:2:0:0:
142,13,346079,1,2,0:3:0:0:
143,21,346182,1,2,0:3:0:0:
143,31,346285,1,2,0:3:0:0:
141,39,346389,1,2,3:3:0:0:
134,47,346492,1,2,0:3:0:0:
124,53,346596,1,2,0:3:0:0:
113,55,346699,1,2,0:3:0:0:
101,54,346803,1,2,3:3:0:0:
94,50,346906,1,2,0:3:0:0:
90,42,347010,1,2,0:3:0:0:
92,34,347113,1,2,0:3:0:0:
99,25,347216,1,2,3:3:0:0:
110,18,347320,1,2,0:3:0:0:
124,17,347423,1,2,0:3:0:0:
137,19,347527,1,2,0:3:0:0:
148,27,347630,5,2,3:2:0:0:
151,45,347734,1,2,0:3:0:0:
145,67,347837,1,2,0:3:0:0:
126,86,347941,1,2,0:3:0:0:
99,96,348044,1,2,3:3:0:0:
63,115,348148,1,2,0:3:0:0:
38,152,348251,1,2,0:3:0:0:
39,195,348354,1,2,0:3:0:0:
65,228,348458,1,2,3:2:0:0:
102,240,348561,1,2,0:0:0:0:
144,233,348665,1,2,3:2:0:0:
178,209,348768,1,2,0:0:0:0:
207,174,348872,1,2,3:2:0:0:
239,132,348975,1,2,0:0:0:0:
294,115,349079,1,2,3:2:0:0:
356,124,349182,1,2,0:0:0:0:
401,171,349285,5,6,3:2:0:0:
359,221,349390,1,2,0:3:0:0:
298,246,349493,1,2,0:3:0:0:
231,240,349597,1,2,0:3:0:0:
178,209,349700,1,2,3:3:0:0:
125,167,349804,1,2,0:3:0:0:
58,172,349907,1,2,0:3:0:0:
12,219,350011,1,2,0:3:0:0:
16,284,350114,1,2,3:3:0:0:
64,333,350218,1,2,0:3:0:0:
136,326,350321,1,2,0:3:0:0:
184,276,350424,1,2,0:3:0:0:
178,209,350528,1,2,3:3:0:0:
172,142,350631,1,2,0:3:0:0:
220,92,350735,1,2,0:3:0:0:
292,85,350838,1,2,0:3:0:0:
340,134,350942,5,2,3:3:0:0:
336,154,351045,1,2,0:3:0:0:
332,174,351149,1,2,0:3:0:0:
328,194,351252,1,2,0:3:0:0:
324,214,351355,1,2,3:3:0:0:
320,234,351459,1,2,0:3:0:0:
281,273,351562,5,2,0:3:0:0:
316,254,351666,1,2,0:3:0:0:
363,262,351769,1,2,3:3:0:0:
398,293,351873,1,2,0:3:0:0:
407,339,351976,5,2,0:3:0:0:
373,308,352080,1,2,0:3:0:0:
363,262,352183,1,2,3:3:0:0:
376,218,352287,1,2,0:3:0:0:
411,183,352390,2,0,L|349:196,1,52.5,2|2,0:3|0:3,0:0:0:0:
236,332,352597,6,0,B|179:367|121:336|121:336|99:277|35:283,1,220.499993270874,6|0,3:2|0:0,0:0:0:0:
0,380,353011,2,0,P|28:373|55:340,1,52.5,2|0,3:2|0:0,0:0:0:0:
252,254,353218,2,0,P|280:261|307:294,1,52.5,2|0,0:2|0:0,0:0:0:0:
434,378,353424,5,2,3:2:0:0:
400,349,353528,1,0,0:0:0:0:
382,301,353631,1,2,0:2:0:0:
383,245,353735,1,0,0:0:0:0:
422,196,353838,1,2,3:2:0:0:
483,172,353942,1,2,0:0:0:0:
512,113,354045,1,2,0:0:0:0:
492,48,354149,1,2,0:0:0:0:
426,23,354252,6,0,P|400:46|385:88,1,52.5,2|0,3:2|0:0,0:0:0:0:
294,193,354459,1,2,0:3:0:0:
302,181,354562,1,0,0:0:0:0:
304,168,354666,2,0,P|289:146|269:129,1,52.5,0|0,3:2|0:0,0:0:0:0:
192,47,354873,2,0,P|165:48|140:57,1,52.5,2|0,0:3|0:0,0:0:0:0:
42,149,355080,5,2,3:2:0:0:
42,149,355183,2,0,L|27:82,1,52.5,2|2,0:0|0:0,0:0:0:0:
144,206,355390,1,2,0:0:0:0:
144,206,355493,2,0,L|129:272,1,52.5,2|2,3:2|0:0,0:0:0:0:
41,362,355700,2,0,L|26:295,1,52.5,2|2,0:0|0:0,0:0:0:0:
207,289,355907,6,0,P|192:313|153:334,1,52.5,6|0,3:2|0:0,0:0:0:0:
335,384,356114,2,0,P|320:360|281:339,1,52.5,2|0,0:0|0:0,0:0:0:0:
428,289,356321,2,0,P|443:273|484:269,1,42,2|0,3:2|0:0,0:0:0:0:
498,344,356528,2,0,P|483:360|442:364,1,42,2|0,0:0|0:0,0:0:0:0:
339,243,356735,6,0,P|346:217|374:191,1,52.5,2|0,3:2|0:0,0:0:0:0:
243,108,356942,2,0,P|259:127|266:153,1,52.5,2|0,0:0|0:0,0:0:0:0:
504,115,357149,2,0,B|512:89|530:71|530:71|498:21|422:30|422:30|439:46|441:72,1,204.749990627289,2|0,3:2|0:0,0:0:0:0:
326,91,357562,6,0,L|375:80,1,42,2|0,3:2|0:0,0:0:0:0:
268,26,357769,2,0,L|317:15,1,42,2|0,0:0|0:0,0:0:0:0:
140,150,357976,2,0,L|190:160,1,52.5,2|0,3:2|0:0,0:0:0:0:
34,200,358183,2,0,L|84:210,1,52.5,2|0,0:0|0:0,0:0:0:0:
143,28,358390,5,2,3:3:0:0:
115,25,358493,1,2,0:3:0:0:
81,38,358597,1,2,0:3:0:0:
65,77,358700,1,2,0:3:0:0:
87,117,358804,1,2,3:2:0:0:
140,150,358907,1,2,0:0:0:0:
163,213,359011,1,2,0:0:0:0:
121,278,359114,1,2,0:0:0:0:
47,279,359218,6,0,B|38:233|64:204|116:198|148:239|148:239|138:266|149:287,1,188.999994232178,6|0,3:2|0:0,0:0:0:0:
225,263,359528,2,0,P|135:307|65:381,1,188.999994232178,2|0,3:2|0:0,0:0:0:0:
267,336,359838,2,0,P|292:317|303:290,1,52.5,2|0,3:2|0:0,0:0:0:0:
315,131,360045,5,2,3:2:0:0:
315,131,360149,2,0,P|318:161|335:185,1,52.5,2|0,0:0|0:0,0:0:0:0:
435,328,360355,2,0,B|465:284|442:237|442:237|440:238|440:238|396:215|362:249|362:249|377:268|382:291,1,210,2|0,3:2|0:0,0:0:0:0:
267,336,360666,2,0,P|292:317|303:290,1,52.5,2|0,3:2|0:0,0:0:0:0:
463,165,360873,6,0,P|434:152|405:156,1,52.5,2|0,3:2|0:0,0:0:0:0:
283,55,361080,2,0,P|253:66|236:90,1,52.5,2|0,0:0|3:2,0:0:0:0:
133,272,361287,2,0,P|132:245|143:222,1,52.5,2|0,0:0|0:0,0:0:0:0:
61,193,361493,2,0,P|49:217|50:243,1,52.5,2|0,3:2|0:0,0:0:0:0:
253,384,361700,5,2,3:2:0:0:
316,342,361804,1,2,0:0:0:0:
271,281,361907,1,2,3:2:0:0:
206,321,362011,1,2,0:0:0:0:
253,384,362114,5,2,3:2:0:0:
294,312,362218,1,2,0:0:0:0:
206,214,362321,1,2,3:2:0:0:
306,112,362424,1,2,0:0:0:0:
199,21,362528,1,2,0:0:0:0:
384,204,362735,5,2,0:0:0:0:
384,204,362838,1,2,0:0:0:0:
133,272,363149,1,2,0:0:0:0:
133,272,363252,1,2,0:0:0:0:
199,21,363562,1,2,0:0:0:0:
199,21,363976,1,2,0:0:0:0:
241,258,364183,6,0,L|274:106,1,131.25,4|0,0:1|0:0,0:0:0:0:
