osu file format v14

[General]
AudioFilename: audio.mp3
AudioLeadIn: 0
PreviewTime: 49385
Countdown: 0
SampleSet: Soft
StackLeniency: 0.4
Mode: 0
LetterboxInBreaks: 0
WidescreenStoryboard: 1

[Editor]
DistanceSpacing: 1.2
BeatDivisor: 4
GridSize: 32
TimelineZoom: 1.8

[Metadata]
Title:Kishiryu Sentai Ryusoulger
TitleUnicode:騎士竜戦隊リュウソウジャー
Artist:NEO
ArtistUnicode:NEO
Creator:Glaceon
Version:Kowari's Extra
Source:騎士竜戦隊リュウソウジャー
Tags:elcheer agatsu kowari xenon- xehn anime cover japanese power rangers
BeatmapID:2020610
BeatmapSetID:955538

[Difficulty]
HPDrainRate:6
CircleSize:3.8
OverallDifficulty:9
ApproachRate:9.2
SliderMultiplier:1.8
SliderTickRate:1

[Events]
//Background and Video events
0,0,"what the fuvk.jpg",0,0
//Break Periods
//Storyboard Layer 0 (Background)
//Storyboard Layer 1 (Fail)
//Storyboard Layer 2 (Pass)
//Storyboard Layer 3 (Foreground)
//Storyboard Sound Samples

[TimingPoints]
-338,331.491712707182,4,2,22,70,1,0
822,-117.647058823529,4,2,22,50,0,0
2396,-117.647058823529,4,2,22,5,0,0
2479,-117.647058823529,4,2,22,50,0,0
6208,-117.647058823529,4,2,22,5,0,0
6291,-117.647058823529,4,2,22,50,0,0
6623,-117.647058823529,4,2,22,10,0,0
6789,-117.647058823529,4,2,22,15,0,0
6954,-117.647058823529,4,2,22,20,0,0
7120,-117.647058823529,4,2,22,30,0,0
7286,-117.647058823529,4,2,22,40,0,0
7452,-117.647058823529,4,2,22,50,0,0
9275,-250,4,2,22,50,0,0
11927,-100,4,2,22,50,0,0
12755,-100,4,2,22,60,0,0
16899,-125,4,2,22,50,0,0
27507,-100,4,2,22,60,0,0
30739,-100,4,2,22,60,0,0
30822,-100,4,2,22,60,0,0
31402,-100,4,2,22,60,0,0
31485,-100,4,2,22,60,0,0
32728,-100,4,2,22,5,0,0
32811,-100,4,2,22,60,0,0
35794,-83.3333333333333,4,2,22,60,0,0
36043,-100,4,2,22,60,0,0
36126,-100,4,2,22,60,0,0
36457,-83.3333333333333,4,2,22,60,0,0
36706,-83.3333333333333,4,2,22,60,0,0
36789,-100,4,2,22,60,0,0
38115,-125,4,2,22,40,0,0
42092,-125,4,2,22,50,0,0
43418,-100,4,2,22,60,0,0
49385,-166.666666666667,4,2,22,60,0,0
49717,-166.666666666667,4,2,22,40,0,0
50048,-90.9090909090909,4,2,22,70,0,1
60656,-90.9090909090909,4,2,22,70,0,0
60905,-90.9090909090909,4,2,22,5,0,0
60987,-83.3333333333333,4,2,22,70,0,1
68446,-100,4,2,22,70,0,0
68612,-100,4,2,22,70,0,1
72424,377.358490566038,4,2,22,70,1,1
72424,-100,4,2,22,70,0,1
72990,314.13612565445,4,2,22,70,1,1
72990,-100,4,2,22,70,0,1
73147,416.666666666667,4,2,22,70,1,1
73147,-100,4,2,22,70,0,1
73251,331.491712707182,4,2,22,70,1,1
73251,-66.6666666666667,4,2,22,70,0,1
73416,333.333333333333,4,2,22,70,1,1
73416,-100,4,2,22,70,0,1
73749,-100,4,2,22,70,0,0

[Colours]
Combo1 : 1,231,82
Combo2 : 255,53,53
Combo3 : 53,154,255
Combo4 : 255,91,173
Combo5 : 192,192,192

[HitObjects]
121,206,822,6,0,P|126:235|128:264,1,38.2500007295609,8|8,0:0|0:0,0:0:0:0:
59,153,987,1,8,0:0:0:0:
205,213,1153,1,0,1:2:0:0:
34,285,1319,1,0,0:0:0:0:
191,345,1485,6,0,B|129:346|129:346|101:365|101:365|20:368,1,153.000002918243,0|0,1:2|0:0,0:0:0:0:
43,367,1982,1,0,1:2:0:0:
218,240,2148,2,0,B|279:247|279:247|305:269|305:269|385:280,1,153.000002918243,0|0,1:2|1:2,0:0:0:0:
476,183,2645,1,0,1:2:0:0:
441,338,2811,1,0,1:2:0:0:
366,128,2976,1,0,1:2:0:0:
327,350,3142,1,0,1:2:0:0:
449,97,3308,5,12,0:0:0:0:
341,264,3474,2,0,P|294:250|257:245,1,76.5000014591217,0|0,0:0|1:2,0:0:0:0:
125,384,3805,6,0,P|173:347|156:238,1,153.000002918243,12|0,0:0|1:2,0:0:0:0:
17,147,4302,2,0,B|76:155|76:155|105:136|105:136|183:137,1,153.000002918243,12|0,0:0|1:2,0:0:0:0:
364,41,4800,2,0,B|279:24|279:24|246:43|251:91,1,153.000002918243,12|0,0:0|1:2,0:0:0:0:
409,206,5297,2,0,P|422:154|440:120,1,76.5000014591217,12|0,0:0|0:0,0:0:0:0:
236,274,5628,2,0,P|253:307|268:343,1,76.5000014591217,12|0,0:0|1:2,0:0:0:0:
205,105,5960,2,0,L|111:98,1,76.5000014591217,12|0,0:0|0:0,0:0:0:0:
158,373,6291,6,0,P|236:328|233:267,1,153.000002918243,12|8,0:0|0:0,0:0:0:0:
98,133,6789,1,8,0:0:0:0:
315,170,6954,1,8,0:0:0:0:
131,267,7120,1,8,0:0:0:0:
260,57,7286,1,8,0:0:0:0:
346,284,7452,6,0,P|394:265|444:262,1,76.5000014591217,4|0,1:2|0:0,0:0:0:0:
228,174,7783,1,0,1:2:0:0:
327,372,7949,1,0,1:2:0:0:
420,122,8115,1,0,1:2:0:0:
240,292,8280,1,2,1:2:0:0:
240,292,8363,1,8,0:0:0:0:
240,292,8446,2,0,L|177:283,1,38.2500007295609,10|0,0:0|0:0,0:0:0:0:
133,334,8612,2,0,P|161:286|116:187,1,153.000002918243,4|0,1:2|0:0,0:0:0:0:
55,177,9109,1,0,1:2:0:0:
123,46,9275,6,0,B|232:34|232:34|275:68|249:118,1,198,0|0,1:2|0:0,0:0:0:0:
225,210,10435,2,0,P|257:205|306:205,2,72,0|0|2,1:2|1:2|1:2,0:0:0:0:
161,252,11264,1,8,0:0:0:0:
419,326,11761,5,0,1:2:0:0:
470,251,11927,2,0,B|407:245|407:245|367:265|367:265|284:264,1,180,8|0,0:0|0:0,0:0:0:0:
125,266,12424,2,0,P|148:310|155:356,1,90,2|10,1:2|0:0,0:0:0:0:
217,120,12755,6,0,B|96:108|153:175|16:160,1,180,6|0,1:2|1:2,0:0:0:0:
0,99,13253,1,8,0:0:0:0:
229,218,13418,2,0,P|242:150|291:20,1,180,4|0,1:2|1:2,0:0:0:0:
342,0,13916,1,8,0:0:0:0:
357,327,14247,5,0,1:2:0:0:
229,218,14413,1,8,0:0:0:0:
36,338,14910,1,8,0:0:0:0:
228,240,15407,2,0,L|202:39,1,180,8|0,0:0|0:0,0:0:0:0:
146,13,15905,5,8,0:0:0:0:
328,152,16070,1,8,0:0:0:0:
44,319,16899,6,0,B|98:311|98:311|136:328|136:328|196:321,1,144,6|0,3:2|3:2,0:0:0:0:
264,258,17396,1,2,3:2:0:0:
356,312,17562,2,0,P|334:354|326:385,1,72,2|0,3:2|3:2,0:0:0:0:
173,234,17894,2,0,P|162:199|144:168,1,72,0|2,3:2|3:2,0:0:0:0:
316,52,18225,6,0,P|323:101|246:164,1,144,6|0,3:2|3:2,0:0:0:0:
147,146,18722,1,2,3:2:0:0:
170,279,18888,2,0,P|201:272|254:266,1,72,2|0,3:2|3:2,0:0:0:0:
130,141,19220,2,0,P|99:134|46:128,1,72,0|2,3:2|3:2,0:0:0:0:
258,28,19551,6,0,B|353:20|313:80|417:72,1,144,6|0,3:2|3:2,0:0:0:0:
459,29,20048,1,2,3:2:0:0:
424,181,20214,2,0,L|407:260,1,72,2|0,1:2|1:2,0:0:0:0:
253,155,20545,2,0,L|270:234,1,72,2|0,3:2|3:2,0:0:0:0:
372,54,20877,6,0,P|359:108|342:211,1,144,6|0,3:2|3:2,0:0:0:0:
351,358,21374,1,0,0:0:0:0:
400,284,21540,2,0,L|322:272,1,72,2|0,1:2|3:2,0:0:0:0:
187,378,21871,2,0,L|265:366,1,72,2|0,3:2|3:2,0:0:0:0:
285,181,22203,6,0,P|255:213|237:251,1,72,6|0,3:2|3:2,0:0:0:0:
68,287,22534,2,0,P|94:312|111:344,1,72,2|0,3:2|3:2,0:0:0:0:
113,162,22866,2,0,P|76:154|39:147,1,72,2|0,1:2|3:2,0:0:0:0:
240,259,23197,2,0,P|277:251|314:244,1,72,2|0,3:2|3:2,0:0:0:0:
304,31,23529,6,0,P|254:49|244:145,1,144,6|2,3:2|3:2,0:0:0:0:
312,212,24026,1,0,3:2:0:0:
406,149,24192,2,0,P|397:106|395:68,1,72,2|0,3:2|3:2,0:0:0:0:
307,229,24523,2,0,P|298:272|296:310,1,72,2|0,3:2|3:2,0:0:0:0:
417,227,24855,5,2,3:2:0:0:
267,147,25021,1,0,3:2:0:0:
454,145,25186,5,12,0:0:0:0:
218,210,25352,1,0,1:2:0:0:
493,214,25518,5,10,0:0:0:0:
191,132,25684,1,0,1:2:0:0:
508,217,25849,5,8,0:0:0:0:
176,125,26015,1,0,1:2:0:0:
392,314,26181,5,10,0:0:0:0:
324,19,26347,1,8,0:0:0:0:
208,302,26512,1,8,0:0:0:0:
411,115,26678,6,0,B|356:108|356:108|327:122|327:122|253:112,1,144,12|0,0:0|1:2,0:0:0:0:
246,107,27092,1,0,0:0:0:0:
246,107,27175,2,0,L|250:162,3,36,10|0|2|0,0:0|0:0|0:0|0:0,0:0:0:0:
251,222,27507,6,0,P|201:208|144:202,1,90,6|0,1:2|0:0,0:0:0:0:
309,341,27838,2,0,P|359:327|416:321,1,90,10|2,0:0|0:0,0:0:0:0:
426,108,28170,2,0,P|368:121|367:242,1,180,0|8,1:2|0:0,0:0:0:0:
453,265,28667,1,2,1:2:0:0:
241,311,28833,6,0,L|252:206,1,90,2|0,0:0|1:2,0:0:0:0:
79,120,29164,2,0,L|88:209,1,90,8|0,0:0|0:0,0:0:0:0:
200,59,29496,1,0,0:0:0:0:
160,285,29661,1,2,1:2:0:0:
86,96,29827,1,8,0:0:0:0:
277,217,29993,1,2,0:0:0:0:
79,340,30159,6,0,P|73:289|65:238,1,90,2|0,1:2|1:2,0:0:0:0:
32,77,30490,2,0,B|84:78|84:78|116:97|116:97|171:101,1,135,14|0,0:0|0:0,0:0:0:0:
238,101,30822,2,0,P|228:151|220:198,1,90,2|0,1:2|1:2,0:0:0:0:
189,371,31153,2,0,B|234:367|234:367|266:348|266:348|318:347,1,135,14|0,0:0|0:0,0:0:0:0:
344,353,31485,5,2,1:2:0:0:
199,187,31650,1,0,1:2:0:0:
444,244,31816,1,8,0:0:0:0:
225,313,31982,2,0,P|232:238|268:120,1,180,4|2,1:2|1:2,0:0:0:0:
319,37,32479,2,0,P|362:53|412:69,1,90,10|0,0:0|0:0,0:0:0:0:
260,137,32811,6,0,P|217:150|175:166,1,90,2|0,1:2|1:2,0:0:0:0:
29,28,33142,2,0,P|71:41|113:57,1,90,8|0,0:0|0:0,0:0:0:0:
194,263,33474,1,0,1:2:0:0:
206,37,33639,1,2,1:2:0:0:
105,222,33805,1,8,0:0:0:0:
298,151,33971,1,2,1:2:0:0:
87,142,34137,6,0,P|34:157|-13:161,1,90,2|0,1:2|1:2,0:0:0:0:
194,263,34468,2,0,P|246:278|294:282,1,90,10|0,0:0|0:0,0:0:0:0:
438,201,34800,1,2,1:2:0:0:
390,374,34965,1,0,1:2:0:0:
347,161,35131,2,0,L|375:58,1,90,10|0,0:0|0:0,0:0:0:0:
492,276,35463,6,0,B|449:292|449:292|385:286,1,90,2|0,1:2|1:2,0:0:0:0:
242,141,35794,2,0,P|305:187|286:296,1,161.999995056153,12|0,0:0|0:0,0:0:0:0:
210,320,36126,6,0,B|198:276|198:276|220:228,1,90,0|0,1:2|1:2,0:0:0:0:
377,103,36457,2,0,P|319:155|221:119,1,161.999995056153,12|0,0:0|0:0,0:0:0:0:
212,68,36789,6,0,P|156:81|106:87,1,90,0|0,1:2|1:2,0:0:0:0:
267,0,37120,1,8,0:0:0:0:
312,200,37286,2,0,B|374:213|374:213|403:247|403:247|485:265,1,180,4|0,1:2|1:2,0:0:0:0:
425,150,37783,1,0,1:2:0:0:
306,311,37949,5,8,0:0:0:0:
306,311,38032,1,0,0:0:0:0:
306,311,38115,2,0,B|165:290|229:362|90:344,1,216,6|0,1:2|3:2,0:0:0:0:
44,286,38943,1,0,3:2:0:0:
91,177,39109,2,0,P|132:196|168:205,1,72,2|0,1:2|3:2,0:0:0:0:
277,78,39441,2,0,P|228:76|178:120,2,108,2|0|10,1:2|0:0|0:0,0:0:0:0:
341,144,40435,2,0,P|326:184|320:222,1,72,2|0,1:2|0:0,0:0:0:0:
299,320,40766,6,0,P|404:303|523:290,1,216,2|8,3:2|0:0,0:0:0:0:
462,220,41594,1,0,3:2:0:0:
506,56,41926,1,0,1:2:0:0:
450,107,42092,6,0,P|402:89|296:83,1,144,14|2,0:0|0:0,0:0:0:0:
239,112,42590,1,0,0:0:0:0:
368,235,42755,5,14,0:0:0:0:
305,39,42921,1,0,1:2:0:0:
265,258,43087,1,14,0:0:0:0:
399,52,43253,1,0,0:0:0:0:
440,334,43418,6,0,P|398:321|345:315,1,90,14|2,0:0|1:2,0:0:0:0:
251,355,43750,1,2,1:2:0:0:
174,172,43916,6,0,L|76:151,1,90,14|0,0:0|1:2,0:0:0:0:
347,106,44247,2,0,L|445:85,1,90,12|0,1:2|1:2,0:0:0:0:
283,218,44579,1,0,1:2:0:0:
167,88,44744,6,0,P|183:38|187:-4,1,90,14|2,0:0|1:2,0:0:0:0:
82,120,45076,1,2,1:2:0:0:
295,237,45242,6,0,L|403:218,1,90,14|0,0:0|1:2,0:0:0:0:
192,191,45573,1,14,0:0:0:0:
276,347,45739,1,2,1:2:0:0:
317,130,45905,1,2,1:2:0:0:
198,298,46070,6,0,P|143:282|97:277,1,90,14|0,0:0|1:2,0:0:0:0:
0,115,46402,2,0,P|55:99|101:94,1,90,2|12,1:2|0:0,0:0:0:0:
296,293,46733,2,0,P|268:242|239:206,1,90,2|8,1:2|0:0,0:0:0:0:
13,253,47065,2,0,P|40:202|69:166,1,90,2|0,1:2|1:2,0:0:0:0:
231,123,47396,5,14,0:0:0:0:
136,268,47562,1,0,1:2:0:0:
138,34,47728,1,2,1:2:0:0:
250,215,47894,2,0,P|295:204|355:200,1,90,14|0,0:0|1:2,0:0:0:0:
488,134,48225,5,12,0:0:0:0:
432,329,48391,1,0,1:2:0:0:
334,83,48557,1,8,0:0:0:0:
334,83,48888,5,8,0:0:0:0:
241,318,49054,1,8,0:0:0:0:
302,255,49385,6,0,P|347:275|417:288,1,107.999996704102,0|12,0:0|0:0,0:0:0:0:
250,79,50048,6,0,B|167:92|167:92|130:127|130:127|39:137,1,198.000006042481,6|8,1:2|0:0,0:0:0:0:
1,71,50545,1,2,0:0:0:0:
213,179,50711,2,0,P|234:243|239:304,1,99.0000030212403,0|2,1:2|1:2,0:0:0:0:
118,180,51043,1,10,0:0:0:0:
279,84,51208,6,0,B|376:75|376:75|436:113|400:187,1,198.000006042481,2|0,0:0|0:0,0:0:0:0:
238,274,51706,2,0,P|178:257|109:254,1,99.0000030212403,8|0,0:0|0:0,0:0:0:0:
338,172,52037,1,2,1:2:0:0:
263,373,52203,1,2,1:2:0:0:
226,146,52369,1,8,0:0:0:0:
348,336,52534,1,2,0:0:0:0:
404,91,52700,6,0,B|287:60|314:152|188:117,1,198.000006042481,2|8,1:2|0:0,0:0:0:0:
59,58,53197,1,2,0:0:0:0:
147,233,53363,2,0,L|123:360,1,99.0000030212403,0|2,1:2|1:2,0:0:0:0:
95,148,53695,1,10,0:0:0:0:
358,209,53860,6,0,P|340:283|207:299,1,198.000006042481,2|0,1:2|1:2,0:0:0:0:
246,136,54358,1,8,0:0:0:0:
443,255,54523,1,0,0:0:0:0:
260,212,54689,1,0,1:2:0:0:
425,172,54855,1,2,1:2:0:0:
346,274,55021,2,0,P|334:317|329:378,1,99.0000030212403,10|2,0:0|0:0,0:0:0:0:
166,159,55352,5,2,1:2:0:0:
228,322,55518,1,2,1:2:0:0:
258,153,55684,1,10,0:0:0:0:
142,302,55849,1,2,0:0:0:0:
108,107,56015,6,0,P|56:93|0:83,1,99.0000030212403,2|2,1:2|1:2,0:0:0:0:
224,244,56347,2,0,P|276:230|332:220,1,99.0000030212403,10|2,0:0|0:0,0:0:0:0:
133,324,56678,5,2,1:2:0:0:
241,122,56844,1,0,0:0:0:0:
234,347,57010,1,8,0:0:0:0:
132,132,57175,2,0,P|66:158|24:167,1,99.0000030212403,2|0,0:0|1:2,0:0:0:0:
207,33,57507,1,2,1:2:0:0:
184,222,57673,1,10,0:0:0:0:
124,8,57838,1,2,0:0:0:0:
263,161,58004,6,0,B|336:172|336:172|368:206|368:206|459:214,1,198.000006042481,2|10,1:2|0:0,0:0:0:0:
450,21,58501,2,0,L|419:130,1,99.0000030212403,4|0,1:2|0:0,0:0:0:0:
201,238,58833,2,0,L|173:142,1,99.0000030212403,2|10,1:2|0:0,0:0:0:0:
314,25,59164,6,0,P|350:89|267:174,1,198.000006042481,6|0,1:2|1:2,0:0:0:0:
76,178,59661,2,0,P|93:131|100:82,1,99.0000030212403,8|0,0:0|0:0,0:0:0:0:
258,301,59993,5,10,0:0:0:0:
6,118,60159,1,2,1:2:0:0:
322,142,60324,1,8,0:0:0:0:
22,264,60490,1,2,0:0:0:0:
282,288,60656,6,0,B|416:271|354:337|501:306,1,198.000006042481,2|12,1:2|0:0,0:0:0:0:
398,159,61153,1,2,1:2:0:0:
218,245,61319,2,0,P|250:327|245:374,1,107.999996704102,0|0,1:2|1:2,0:0:0:0:
140,227,61650,1,10,0:0:0:0:
262,63,61816,6,0,B|325:39|325:39|407:92|363:193,1,215.999993408203,2|0,0:0|1:2,0:0:0:0:
147,126,62313,2,0,P|170:55|170:5,1,107.999996704102,8|0,0:0|0:0,0:0:0:0:
65,222,62645,1,2,1:2:0:0:
274,144,62811,1,2,1:2:0:0:
42,89,62976,1,8,0:0:0:0:
251,251,63142,1,2,0:0:0:0:
31,230,63308,6,0,P|23:289|14:350,1,107.999996704102,2|0,1:2|1:2,0:0:0:0:
149,184,63639,1,8,0:0:0:0:
208,360,63805,2,0,P|275:340|328:341,1,107.999996704102,2|0,1:2|0:0,0:0:0:0:
141,206,64137,1,0,1:2:0:0:
365,227,64302,1,10,0:0:0:0:
203,35,64468,6,0,B|118:41|118:41|81:74|81:74|-20:78,1,215.999993408203,6|0,1:2|1:2,0:0:0:0:
141,206,64965,1,8,0:0:0:0:
258,110,65131,2,0,P|321:125|374:128,1,107.999996704102,0|0,1:2|1:2,0:0:0:0:
146,190,65463,1,2,0:0:0:0:
213,23,65628,1,8,0:0:0:0:
271,237,65794,1,2,0:0:0:0:
139,75,65960,6,0,P|83:85|29:91,1,107.999996704102,2|0,1:2|1:2,0:0:0:0:
252,233,66291,2,0,P|305:238|358:248,1,107.999996704102,10|0,0:0|0:0,0:0:0:0:
113,227,66623,2,0,L|97:344,1,107.999996704102,2|0,1:2|1:2,0:0:0:0:
299,126,66954,2,0,L|284:18,1,107.999996704102,10|2,0:0|0:0,0:0:0:0:
236,237,67286,5,2,1:2:0:0:
376,52,67452,1,2,1:2:0:0:
382,284,67617,1,10,0:0:0:0:
269,37,67783,2,0,B|140:31|198:126|56:117,1,215.999993408203,6|10,1:2|0:0,0:0:0:0:
15,73,68280,1,2,1:2:0:0:
218,189,68446,1,8,0:0:0:0:
218,189,68529,1,8,0:0:0:0:
218,189,68612,5,10,0:0:0:0:
1,245,68778,1,0,1:2:0:0:
160,109,68943,5,8,0:0:0:0:
67,345,69109,1,0,1:2:0:0:
119,30,69275,5,10,0:0:0:0:
171,334,69441,1,0,1:2:0:0:
271,54,69606,5,8,0:0:0:0:
171,356,69772,1,0,1:2:0:0:
200,2,69938,5,10,0:0:0:0:
282,344,70103,1,0,1:2:0:0:
339,7,70269,5,8,0:0:0:0:
271,357,70435,1,0,1:2:0:0:
447,82,70601,5,10,0:0:0:0:
144,215,70766,1,0,1:2:0:0:
410,188,70932,5,8,0:0:0:0:
163,104,71098,1,0,1:2:0:0:
364,337,71264,5,10,0:0:0:0:
233,23,71429,1,2,1:2:0:0:
240,360,71595,5,8,0:0:0:0:
366,67,71761,1,2,1:2:0:0:
372,357,71927,5,8,1:2:0:0:
188,110,72092,1,0,1:2:0:0:
482,185,72258,1,8,0:0:0:0:
255,216,72424,6,0,B|189:222|189:222|156:251|156:251|75:266,1,180,8|0,0:0|1:2,0:0:0:0:
197,87,72990,2,0,P|132:80|99:69,1,90,0|0,1:2|1:2,0:0:0:0:
47,118,73251,6,0,P|121:102|203:111,1,135.000005149842,8|8,0:0|0:0,0:0:0:0:
340,308,73749,5,4,1:2:0:0:
