osu file format v14

[General]
AudioFilename: audio.mp3
AudioLeadIn: 0
PreviewTime: 49385
Countdown: 0
SampleSet: Soft
StackLeniency: 0.4
Mode: 0
LetterboxInBreaks: 0
WidescreenStoryboard: 1

[Editor]
DistanceSpacing: 1
BeatDivisor: 4
GridSize: 32
TimelineZoom: 1.8

[Metadata]
Title:Kishiryu Sentai Ryusoulger
TitleUnicode:騎士竜戦隊リュウソウジャー
Artist:NEO
ArtistUnicode:NEO
Creator:Glaceon
Version:Knight Dragon
Source:騎士竜戦隊リュウソウジャー
Tags:elcheer agatsu kowari xenon- xehn cover japanese power rangers
BeatmapID:1995360
BeatmapSetID:955538

[Difficulty]
HPDrainRate:5.5
CircleSize:4
OverallDifficulty:9
ApproachRate:9.3
SliderMultiplier:2
SliderTickRate:1

[Events]
//Background and Video events
0,0,"what the fuvk.jpg",0,0
//Break Periods
//Storyboard Layer 0 (Background)
//Storyboard Layer 1 (Fail)
//Storyboard Layer 2 (Pass)
//Storyboard Layer 3 (Foreground)
//Storyboard Sound Samples

[TimingPoints]
-338,331.491712707182,4,2,22,70,1,0
822,-125,4,2,22,50,0,0
2396,-125,4,2,22,5,0,0
2479,-125,4,2,22,50,0,0
6208,-125,4,2,22,5,0,0
6291,-125,4,2,22,50,0,0
6623,-125,4,2,22,10,0,0
6789,-125,4,2,22,15,0,0
6954,-125,4,2,22,20,0,0
7120,-125,4,2,22,30,0,0
7286,-125,4,2,22,40,0,0
7452,-125,4,2,22,50,0,0
8612,-142.857142857143,4,2,22,50,0,0
12755,-125,4,2,22,60,0,0
16899,-111.111111111111,4,2,22,50,0,0
27507,-111.111111111111,4,2,22,60,0,0
32728,-111.111111111111,4,2,22,5,0,0
32811,-111.111111111111,4,2,22,60,0,0
38115,-142.857142857143,4,2,22,40,0,0
42092,-125,4,2,22,50,0,0
43418,-111.111111111111,4,2,22,60,0,0
49717,-111.111111111111,4,2,22,40,0,0
50048,-100,4,2,22,70,0,1
60656,-142.857142857143,4,2,22,70,0,0
60905,-117.647058823529,4,2,22,5,0,0
60987,-100,4,2,22,70,0,1
68446,-100,4,2,22,70,0,0
68612,-100,4,2,22,70,0,1
72424,377.358490566038,4,2,22,70,1,1
72424,-100,4,2,22,70,0,1
72990,314.13612565445,4,2,22,70,1,1
72990,-142.857142857143,4,2,22,70,0,1
73147,416.666666666667,4,2,22,70,1,1
73147,-100,4,2,22,70,0,1
73251,331.491712707182,4,2,22,70,1,1
73251,-100,4,2,22,70,0,1
73416,333.333333333333,4,2,22,70,1,1
73416,-100,4,2,22,70,0,1
73749,-100,4,2,22,70,0,0

[Colours]
Combo1 : 1,231,82
Combo2 : 255,53,53
Combo3 : 53,154,255
Combo4 : 255,91,173
Combo5 : 192,192,192

[HitObjects]
119,313,822,5,8,0:0:0:0:
119,313,905,1,8,0:0:0:0:
119,313,987,1,8,0:0:0:0:
201,160,1153,1,0,1:2:0:0:
17,220,1319,1,0,0:0:0:0:
247,267,1485,5,0,1:2:0:0:
247,267,1982,1,0,1:2:0:0:
117,98,2148,2,0,B|157:78|192:69|192:69|260:86,1,120,0|0,1:2|0:0,0:0:0:0:
311,104,2479,5,0,1:2:0:0:
171,196,2645,1,0,1:2:0:0:
364,224,2811,1,0,1:2:0:0:
230,78,2976,1,0,1:2:0:0:
384,246,3142,1,0,1:2:0:0:
82,184,3308,6,0,L|96:333,1,120,12|0,0:0|0:0,0:0:0:0:
101,384,3639,1,0,1:2:0:0:
327,154,3805,6,0,P|273:129|172:162,1,160,12|0,0:0|1:2,0:0:0:0:
367,265,4302,2,0,P|415:230|437:126,1,160,12|0,0:0|1:2,0:0:0:0:
250,244,4800,2,0,P|255:303|334:374,1,160,12|0,0:0|1:2,0:0:0:0:
295,137,5297,6,0,P|257:128|209:139,1,80,12|0,0:0|0:0,0:0:0:0:
99,285,5628,2,0,P|125:256|140:209,1,80,12|0,0:0|1:2,0:0:0:0:
69,42,5960,2,0,P|80:79|113:115,1,80,12|0,0:0|0:0,0:0:0:0:
295,137,6291,5,12,0:0:0:0:
295,137,6623,1,8,0:0:0:0:
212,65,6789,1,8,0:0:0:0:
240,222,6954,1,8,0:0:0:0:
371,60,7120,1,8,0:0:0:0:
291,310,7286,1,8,0:0:0:0:
138,32,7452,6,0,B|204:35|204:35|228:13|228:13|294:15,1,160,4|0,1:2|1:2,0:0:0:0:
389,235,7949,1,0,1:2:0:0:
275,115,8115,1,0,1:2:0:0:
512,162,8280,1,2,1:2:0:0:
512,162,8363,1,8,0:0:0:0:
512,162,8446,1,10,0:0:0:0:
209,297,8612,5,4,1:2:0:0:
209,297,9109,2,0,L|208:250,1,34.9999989318848,0|0,1:2|0:0,0:0:0:0:
199,87,9275,1,0,1:2:0:0:
81,320,9441,6,0,P|143:346|221:311,1,139.999995727539,6|2,0:0|0:0,0:0:0:0:
306,186,9938,1,2,0:0:0:0:
290,371,10103,6,0,L|296:289,1,69.9999978637696,2|0,0:0|0:0,0:0:0:0:
142,188,10435,2,0,L|147:257,1,69.9999978637696,0|0,1:2|0:0,0:0:0:0:
311,152,10766,1,0,1:2:0:0:
100,116,10932,1,2,0:0:0:0:
248,241,11098,1,2,1:2:0:0:
219,16,11264,5,8,0:0:0:0:
219,16,11761,2,0,L|164:20,1,34.9999989318848,0|0,1:2|1:2,0:0:0:0:
2,27,11927,1,8,0:0:0:0:
214,231,12092,6,0,B|258:240|293:259|293:259|326:251|369:219,1,139.999995727539,6|2,0:0|1:2,0:0:0:0:
179,93,12590,1,10,0:0:0:0:
451,39,12755,6,0,L|436:210,1,160,6|0,1:2|1:2,0:0:0:0:
265,18,13253,1,8,0:0:0:0:
195,260,13418,6,0,P|258:289|356:247,1,160,4|0,1:2|1:2,0:0:0:0:
145,77,13916,2,0,L|151:165,1,80,8|0,0:0|0:0,0:0:0:0:
338,67,14247,1,0,1:2:0:0:
89,15,14413,5,8,0:0:0:0:
226,283,14910,5,8,0:0:0:0:
424,5,15407,6,0,L|264:17,1,160,8|0,0:0|0:0,0:0:0:0:
217,313,15905,5,8,0:0:0:0:
293,120,16070,1,8,0:0:0:0:
293,120,16899,6,0,B|245:137|201:117|212:112|164:94|97:118,1,179.999994506836,6|0,3:2|3:2,0:0:0:0:
0,210,17396,1,2,3:2:0:0:
174,294,17562,2,0,L|164:194,1,89.9999972534181,2|0,3:2|3:2,0:0:0:0:
165,204,17811,1,0,3:2:0:0:
165,204,17894,1,0,3:2:0:0:
23,46,18059,1,2,3:2:0:0:
23,46,18142,1,0,3:2:0:0:
23,46,18225,6,0,P|-5:98|39:214,1,179.999994506836,6|0,3:2|3:2,0:0:0:0:
259,296,18722,1,2,3:2:0:0:
259,296,18805,1,0,3:2:0:0:
259,296,18888,2,0,P|269:253|255:203,1,89.9999972534181,2|0,3:2|3:2,0:0:0:0:
213,149,19137,1,0,3:2:0:0:
213,149,19220,2,0,P|256:159|306:145,1,89.9999972534181,0|2,3:2|3:2,0:0:0:0:
370,78,19468,1,0,3:2:0:0:
370,78,19551,6,0,B|358:111|336:131|336:131|367:170|360:256,1,179.999994506836,6|0,3:2|3:2,0:0:0:0:
157,321,20048,1,2,3:2:0:0:
157,321,20131,1,0,3:2:0:0:
157,321,20214,2,0,L|163:222,1,89.9999972534181,2|0,1:2|1:2,0:0:0:0:
119,138,20463,1,0,1:2:0:0:
119,138,20545,2,0,L|124:227,1,89.9999972534181,2|0,3:2|3:2,0:0:0:0:
232,355,20794,1,0,3:2:0:0:
232,355,20877,6,0,L|241:165,1,179.999994506836,6|0,3:2|3:2,0:0:0:0:
240,175,21540,1,2,1:2:0:0:
383,78,21706,1,0,3:2:0:0:
383,78,21789,1,0,3:2:0:0:
383,78,21871,2,0,L|391:175,1,89.9999972534181,2|0,3:2|3:2,0:0:0:0:
402,289,22120,1,0,3:2:0:0:
402,289,22203,6,0,P|353:301|298:278,1,89.9999972534181,6|0,3:2|3:2,0:0:0:0:
195,101,22534,2,0,P|229:137|237:196,1,89.9999972534181,2|0,3:2|3:2,0:0:0:0:
231,264,22783,1,0,3:2:0:0:
231,264,22866,2,0,L|122:255,1,89.9999972534181,2|0,1:2|3:2,0:0:0:0:
64,300,23115,1,0,3:2:0:0:
64,300,23197,2,0,L|173:291,1,89.9999972534181,2|0,3:2|3:2,0:0:0:0:
290,335,23446,1,0,3:2:0:0:
290,335,23529,6,0,B|359:337|359:337|393:315|393:315|472:318,1,179.999994506836,6|2,3:2|3:2,0:0:0:0:
275,179,24026,1,0,3:2:0:0:
498,61,24192,2,0,L|490:160,1,89.9999972534181,2|0,3:2|3:2,0:0:0:0:
464,233,24441,1,0,3:2:0:0:
464,233,24523,2,0,L|456:143,1,89.9999972534181,2|0,3:2|3:2,0:0:0:0:
196,72,24855,5,2,3:2:0:0:
366,139,25021,1,0,3:2:0:0:
172,246,25186,5,12,0:0:0:0:
265,10,25352,1,0,1:2:0:0:
356,234,25518,5,10,0:0:0:0:
72,164,25684,1,0,1:2:0:0:
361,29,25849,5,8,0:0:0:0:
265,311,26015,1,0,1:2:0:0:
177,24,26181,5,10,0:0:0:0:
264,340,26347,1,8,0:0:0:0:
369,3,26512,1,8,0:0:0:0:
102,339,26678,6,0,P|146:367|279:320,1,179.999994506836,12|0,0:0|1:2,0:0:0:0:
266,47,27175,1,10,0:0:0:0:
187,277,27341,1,2,0:0:0:0:
410,134,27507,6,0,L|307:141,1,89.9999972534181,6|0,1:2|0:0,0:0:0:0:
157,15,27838,1,10,0:0:0:0:
211,253,28004,2,0,L|314:260,1,89.9999972534181,2|0,0:0|1:2,0:0:0:0:
96,74,28336,2,0,P|79:131|92:170,1,89.9999972534181,2|8,1:2|0:0,0:0:0:0:
180,356,28667,1,2,1:2:0:0:
158,122,28833,5,2,0:0:0:0:
300,259,28999,1,0,1:2:0:0:
50,245,29164,1,8,0:0:0:0:
291,145,29330,2,0,B|335:123|388:143|373:150|423:170|487:144,1,179.999994506836,0|2,0:0|1:2,0:0:0:0:
216,50,29827,1,8,0:0:0:0:
300,259,29993,1,2,0:0:0:0:
383,37,30159,5,2,1:2:0:0:
189,196,30324,1,0,1:2:0:0:
410,14,30490,2,0,L|509:24,1,89.9999972534181,14|0,0:0|0:0,0:0:0:0:
243,73,30822,5,2,1:2:0:0:
437,232,30987,1,0,1:2:0:0:
216,50,31153,2,0,L|117:60,1,89.9999972534181,14|0,0:0|0:0,0:0:0:0:
274,255,31485,5,2,1:2:0:0:
335,25,31650,1,0,1:2:0:0:
114,201,31816,1,8,0:0:0:0:
397,142,31982,6,0,B|421:198|421:198|385:325,1,179.999994506836,4|2,1:2|1:2,0:0:0:0:
213,176,32479,2,0,P|194:118|234:30,1,134.999995880127,10|0,0:0|0:0,0:0:0:0:
290,13,32811,6,0,L|394:20,1,89.9999972534181,2|0,1:2|1:2,0:0:0:0:
231,199,33142,2,0,L|127:206,1,89.9999972534181,8|0,0:0|0:0,0:0:0:0:
352,141,33474,1,0,1:2:0:0:
267,316,33639,1,2,1:2:0:0:
198,80,33805,1,8,0:0:0:0:
392,224,33971,1,2,1:2:0:0:
143,291,34137,6,0,P|131:238|146:195,1,89.9999972534181,2|0,1:2|1:2,0:0:0:0:
349,54,34468,2,0,P|361:107|346:150,1,89.9999972534181,10|0,0:0|0:0,0:0:0:0:
143,291,34800,1,2,1:2:0:0:
280,99,34965,1,0,1:2:0:0:
309,349,35131,2,0,L|188:342,1,89.9999972534181,10|0,0:0|0:0,0:0:0:0:
133,71,35463,5,2,1:2:0:0:
228,259,35628,1,0,1:2:0:0:
119,43,35794,2,0,L|240:36,1,89.9999972534181,12|0,0:0|0:0,0:0:0:0:
404,161,36126,5,0,1:2:0:0:
309,349,36291,1,0,1:2:0:0:
418,133,36457,2,0,L|297:126,1,89.9999972534181,12|0,0:0|0:0,0:0:0:0:
114,298,36789,5,0,1:2:0:0:
208,37,36954,1,0,1:2:0:0:
300,326,37120,1,8,0:0:0:0:
32,134,37286,6,0,B|101:128|101:128|136:147|136:147|235:138,1,179.999994506836,4|0,1:2|1:2,0:0:0:0:
405,13,37783,1,0,1:2:0:0:
208,37,37949,1,8,0:0:0:0:
323,208,38115,6,0,P|347:143|322:79,1,139.999995727539,6|0,1:2|0:0,0:0:0:0:
190,168,38612,2,0,P|165:232|190:296,1,139.999995727539,0|0,3:2|3:2,0:0:0:0:
372,307,39109,1,2,1:2:0:0:
247,231,39275,1,0,3:2:0:0:
401,324,39441,5,2,1:2:0:0:
176,378,39606,1,8,0:0:0:0:
463,148,39938,2,0,B|427:145|408:116|408:116|377:161|323:155|323:155|339:133|335:96,1,209.999993591309,10|2,0:0|1:2,0:0:0:0:
336,111,40766,6,0,P|290:87|193:120,1,139.999995727539,2|0,3:2|0:0,0:0:0:0:
128,223,41264,1,8,0:0:0:0:
439,181,41595,2,0,L|430:28,1,139.999995727539,0|0,3:2|1:2,0:0:0:0:
199,316,42092,6,0,P|256:341|377:295,1,160,14|2,0:0|0:0,0:0:0:0:
100,85,42755,2,0,L|91:178,1,80,14|0,0:0|1:2,0:0:0:0:
348,320,43087,2,0,L|340:240,1,80,14|0,0:0|0:0,0:0:0:0:
78,59,43418,5,14,0:0:0:0:
251,248,43584,1,2,1:2:0:0:
57,36,43750,1,2,1:2:0:0:
384,66,43916,6,0,L|374:155,1,89.9999972534181,14|0,0:0|1:2,0:0:0:0:
156,327,44247,2,0,L|146:236,1,89.9999972534181,12|0,1:2|1:2,0:0:0:0:
445,334,44579,1,0,1:2:0:0:
404,41,44744,5,14,0:0:0:0:
231,230,44910,1,2,1:2:0:0:
425,18,45076,1,2,1:2:0:0:
144,79,45242,6,0,L|154:181,1,89.9999972534181,14|0,0:0|1:2,0:0:0:0:
408,218,45573,1,14,0:0:0:0:
240,131,45739,1,2,1:2:0:0:
434,231,45905,1,2,1:2:0:0:
200,334,46070,6,0,P|156:344|114:330,1,89.9999972534181,14|0,0:0|1:2,0:0:0:0:
372,118,46402,1,2,1:2:0:0:
287,355,46568,1,12,0:0:0:0:
210,103,46733,1,2,1:2:0:0:
455,321,46899,2,0,L|464:212,2,89.9999972534181,8|2|0,0:0|1:2|1:2,0:0:0:0:
137,134,47396,5,14,0:0:0:0:
352,278,47562,1,0,1:2:0:0:
282,0,47728,1,2,1:2:0:0:
138,288,47894,5,14,0:0:0:0:
431,140,48059,1,0,1:2:0:0:
149,34,48225,5,12,0:0:0:0:
242,336,48391,1,0,1:2:0:0:
397,29,48557,5,8,0:0:0:0:
397,29,48888,5,8,0:0:0:0:
77,101,49054,1,8,0:0:0:0:
432,351,49717,5,12,0:0:0:0:
432,351,50048,6,0,B|384:325|328:337|337:344|288:371|212:321,1,200,6|8,1:2|0:0,0:0:0:0:
311,106,50545,2,0,L|298:225,1,100,2|0,0:0|1:2,0:0:0:0:
135,66,50877,1,2,1:2:0:0:
398,40,51043,1,10,0:0:0:0:
97,71,51208,6,0,B|67:130|67:130|107:265,1,200,2|0,0:0|0:0,0:0:0:0:
395,209,51706,2,0,P|343:194|284:216,1,100,8|0,0:0|0:0,0:0:0:0:
155,352,52037,1,2,1:2:0:0:
441,294,52203,2,0,P|479:256|490:194,1,100,2|8,1:2|0:0,0:0:0:0:
294,374,52534,1,2,0:0:0:0:
261,93,52700,6,0,B|192:85|192:85|150:110|150:110|33:94,1,200,2|8,1:2|0:0,0:0:0:0:
356,37,53197,2,0,L|365:150,1,100,2|0,0:0|1:2,0:0:0:0:
131,24,53529,1,2,1:2:0:0:
432,0,53695,1,10,0:0:0:0:
145,213,53860,6,0,B|110:206|99:178|99:178|170:136|249:175,1,200,2|0,1:2|1:2,0:0:0:0:
373,309,54358,1,8,0:0:0:0:
298,53,54523,1,0,0:0:0:0:
383,343,54689,1,0,1:2:0:0:
447,127,54855,1,2,1:2:0:0:
248,295,55021,1,10,0:0:0:0:
462,263,55186,1,2,0:0:0:0:
325,100,55352,5,2,1:2:0:0:
306,357,55518,1,2,1:2:0:0:
449,106,55684,1,10,0:0:0:0:
434,366,55849,1,2,0:0:0:0:
317,84,56015,1,2,1:2:0:0:
295,374,56181,1,2,1:2:0:0:
457,90,56347,1,10,0:0:0:0:
440,384,56512,1,2,0:0:0:0:
310,67,56678,6,0,B|260:89|210:70|219:64|164:49|114:72,1,200,2|8,1:2|0:0,0:0:0:0:
191,344,57175,2,0,L|178:221,1,100,2|0,0:0|1:2,0:0:0:0:
325,337,57507,1,2,1:2:0:0:
65,266,57673,1,10,0:0:0:0:
297,224,57838,1,2,0:0:0:0:
102,365,58004,5,2,1:2:0:0:
214,124,58170,1,0,1:2:0:0:
345,361,58336,1,10,0:0:0:0:
43,137,58501,6,0,L|28:346,1,200,4|2,1:2|1:2,0:0:0:0:
354,122,58999,1,10,0:0:0:0:
31,11,59164,6,0,P|93:47|223:6,1,200,6|0,1:2|1:2,0:0:0:0:
387,253,59661,2,0,L|273:239,1,100,8|0,0:0|0:0,0:0:0:0:
483,98,59993,5,10,0:0:0:0:
377,347,60159,1,2,1:2:0:0:
279,62,60324,1,8,0:0:0:0:
386,372,60490,1,2,0:0:0:0:
512,22,60656,6,0,L|402:26,1,104.999996795654,2|0,1:2|0:0,0:0:0:0:
352,101,60987,6,0,L|405:105,1,50,12|0,0:0|0:0,0:0:0:0:
269,36,61153,2,0,L|216:40,1,50,2|0,1:2|0:0,0:0:0:0:
430,201,61319,2,0,P|445:161|414:86,1,100,0|0,1:2|1:2,0:0:0:0:
196,8,61650,1,10,0:0:0:0:
307,262,61816,6,0,B|226:273|226:273|184:248|184:248|115:256,1,200,2|0,0:0|1:2,0:0:0:0:
336,11,62313,1,8,0:0:0:0:
264,180,62479,1,0,0:0:0:0:
132,1,62645,1,2,1:2:0:0:
435,154,62811,2,0,L|428:46,1,100,2|8,1:2|0:0,0:0:0:0:
167,167,63142,1,2,0:0:0:0:
474,229,63308,5,2,1:2:0:0:
252,36,63474,2,0,L|248:103,1,50,0|0,1:2|0:0,0:0:0:0:
224,324,63639,1,8,0:0:0:0:
340,74,63805,2,0,P|267:35|142:99,1,200,2|0,1:2|1:2,0:0:0:0:
350,244,64302,1,10,0:0:0:0:
37,72,64468,6,0,L|48:280,1,200,6|0,1:2|1:2,0:0:0:0:
316,314,64965,1,8,0:0:0:0:
161,71,65131,2,0,L|149:187,1,100,0|0,1:2|1:2,0:0:0:0:
347,331,65463,2,0,L|336:231,1,100,2|8,0:0|0:0,0:0:0:0:
125,383,65794,1,2,0:0:0:0:
285,128,65960,6,0,P|344:113|389:135,1,100,2|0,1:2|1:2,0:0:0:0:
191,281,66291,2,0,P|132:296|87:274,1,100,10|0,0:0|0:0,0:0:0:0:
284,97,66623,2,0,P|343:82|388:104,1,100,2|0,1:2|1:2,0:0:0:0:
189,310,66954,1,10,0:0:0:0:
165,54,67120,1,2,0:0:0:0:
338,215,67286,5,2,1:2:0:0:
43,185,67452,1,2,1:2:0:0:
284,97,67617,1,10,0:0:0:0:
173,340,67783,6,0,B|242:332|242:332|284:357|284:357|364:345,1,200,6|10,1:2|0:0,0:0:0:0:
176,125,68280,1,2,1:2:0:0:
488,252,68446,1,8,0:0:0:0:
488,252,68529,1,8,0:0:0:0:
488,252,68612,5,10,0:0:0:0:
434,3,68778,1,0,1:2:0:0:
339,302,68943,5,8,0:0:0:0:
322,5,69109,1,0,1:2:0:0:
169,298,69275,5,10,0:0:0:0:
209,3,69441,1,0,1:2:0:0:
373,310,69606,5,8,0:0:0:0:
58,195,69772,1,0,1:2:0:0:
378,58,69938,5,10,0:0:0:0:
264,336,70103,1,0,1:2:0:0:
173,33,70269,5,8,0:0:0:0:
264,351,70435,1,0,1:2:0:0:
385,37,70601,5,10,0:0:0:0:
264,365,70766,1,0,1:2:0:0:
167,11,70932,5,8,0:0:0:0:
264,377,71098,1,0,1:2:0:0:
393,11,71264,5,10,0:0:0:0:
78,183,71429,1,2,1:2:0:0:
450,309,71595,5,8,0:0:0:0:
289,0,71761,1,2,1:2:0:0:
151,348,71927,5,8,1:2:0:0:
473,152,72092,1,0,1:2:0:0:
78,65,72258,1,8,0:0:0:0:
367,374,72424,6,0,L|352:163,1,200,8|0,0:0|1:2,0:0:0:0:
182,16,72990,2,0,L|173:108,1,69.9999978637696,0|0,1:2|1:2,0:0:0:0:
126,146,73251,6,0,P|174:131|228:151,1,100,8|8,0:0|0:0,0:0:0:0:
492,335,73749,5,4,1:2:0:0:
