osu file format v14

[General]
AudioFilename: audio.mp3
AudioLeadIn: 0
PreviewTime: 49385
Countdown: 0
SampleSet: Soft
StackLeniency: 0.4
Mode: 0
LetterboxInBreaks: 0
WidescreenStoryboard: 1

[Editor]
DistanceSpacing: 1
BeatDivisor: 4
GridSize: 32
TimelineZoom: 1.8

[Metadata]
Title:Kishiryu Sentai Ryusoulger
TitleUnicode:騎士竜戦隊リュウソウジャー
Artist:NEO
ArtistUnicode:NEO
Creator:Glaceon
Version:Easy
Source:騎士竜戦隊リュウソウジャー
Tags:elcheer agatsu kowari xenon- xehn cover japanese power rangers
BeatmapID:2003129
BeatmapSetID:955538

[Difficulty]
HPDrainRate:2
CircleSize:2
OverallDifficulty:2
ApproachRate:3
SliderMultiplier:0.999999999999999
SliderTickRate:1

[Events]
//Background and Video events
0,0,"what the fuvk.jpg",0,0
//Break Periods
//Storyboard Layer 0 (Background)
//Storyboard Layer 1 (Fail)
//Storyboard Layer 2 (Pass)
//Storyboard Layer 3 (Foreground)
//Storyboard Sound Samples

[TimingPoints]
-338,331.491712707182,4,2,22,70,1,0
822,-100,4,2,22,50,0,0
2396,-100,4,2,22,5,0,0
2479,-100,4,2,22,50,0,0
6208,-100,4,2,22,5,0,0
6291,-100,4,2,22,50,0,0
6623,-100,4,2,22,10,0,0
6789,-100,4,2,22,15,0,0
6954,-100,4,2,22,20,0,0
7120,-100,4,2,22,30,0,0
7286,-100,4,2,22,40,0,0
7452,-100,4,2,22,50,0,0
8612,-100,4,2,22,50,0,0
12755,-100,4,2,22,60,0,0
16899,-100,4,2,22,50,0,0
27507,-100,4,2,22,60,0,0
32728,-100,4,2,22,5,0,0
32811,-100,4,2,22,60,0,0
38115,-100,4,2,22,40,0,0
42092,-100,4,2,22,50,0,0
43418,-100,4,2,22,60,0,0
49717,-100,4,2,22,40,0,0
50048,-100,4,2,22,70,0,1
60656,-100,4,2,22,70,0,0
60905,-100,4,2,22,5,0,0
60987,-100,4,2,22,70,0,1
68446,-100,4,2,22,70,0,0
68612,-100,4,2,22,70,0,1
72424,377.358490566038,4,2,22,70,1,1
72424,-100,4,2,22,70,0,1
72990,314.13612565445,4,2,22,70,1,1
72990,-100,4,2,22,70,0,1
73147,416.666666666667,4,2,22,70,1,1
73147,-100,4,2,22,70,0,1
73251,331.491712707182,4,2,22,70,1,1
73251,-100,4,2,22,70,0,1
73416,333.333333333333,4,2,22,70,1,1
73416,-100,4,2,22,70,0,1
73749,-100,4,2,22,70,0,0

[Colours]
Combo1 : 1,231,82
Combo2 : 255,53,53
Combo3 : 53,154,255
Combo4 : 255,91,173
Combo5 : 192,192,192

[HitObjects]
53,64,987,6,0,L|218:53,1,150,8|0,0:0|1:2,0:0:0:0:
352,50,1982,2,0,L|347:117,1,50,0|0,1:2|1:2,0:0:0:0:
279,172,2479,2,0,P|254:241|277:312,1,150,0|0,1:2|1:2,0:0:0:0:
358,369,3308,1,12,0:0:0:0:
486,291,3805,6,0,L|477:133,1,150,12|12,0:0|0:0,0:0:0:0:
367,38,4800,2,0,L|375:187,1,150,12|12,0:0|0:0,0:0:0:0:
284,229,5628,2,0,L|277:118,1,99.9999999999999,12|12,0:0|0:0,0:0:0:0:
223,45,6291,5,12,0:0:0:0:
128,79,6623,2,0,B|103:127|103:127|127:242,1,150,8|8,0:0|0:0,0:0:0:0:
58,298,7452,2,0,P|99:321|196:297,1,150,4|0,1:2|1:2,0:0:0:0:
274,238,8280,2,0,L|381:243,1,99.9999999999999,2|4,1:2|1:2,0:0:0:0:
484,141,9109,5,0,1:2:0:0:
417,65,9441,2,0,B|353:34|353:34|209:53,1,200,6|2,0:0|0:0,0:0:0:0:
144,109,10435,2,0,P|131:156|148:215,1,99.9999999999999,0|0,1:2|1:2,0:0:0:0:
184,295,11098,2,0,L|241:291,1,50,2|8,1:2|0:0,0:0:0:0:
332,276,11595,6,0,L|339:127,1,150,2|6,0:0|0:0,0:0:0:0:
510,35,12755,2,0,L|504:146,1,99.9999999999999,6|0,1:2|1:2,0:0:0:0:
444,215,13418,2,0,P|460:288|427:373,1,150,4|8,1:2|0:0,0:0:0:0:
315,270,14413,6,0,B|267:246|267:246|157:262,2,150,8|8|8,0:0|0:0|0:0,0:0:0:0:
388,138,15905,2,0,L|381:77,1,50,8|8,0:0|0:0,0:0:0:0:
136,35,16899,6,0,L|142:152,1,99.9999999999999,6|0,3:2|3:2,0:0:0:0:
239,156,17562,2,0,L|233:56,1,99.9999999999999,2|0,3:2|3:2,0:0:0:0:
326,17,18225,2,0,P|377:6|434:22,1,99.9999999999999,6|0,3:2|3:2,0:0:0:0:
473,103,18888,2,0,P|422:114|365:98,1,99.9999999999999,2|0,3:2|3:2,0:0:0:0:
322,187,19551,6,0,B|348:245|348:245|312:386,1,200,6|2,3:2|1:2,0:0:0:0:
228,324,20545,1,2,3:2:0:0:
141,375,20877,2,0,L|35:376,1,99.9999999999999,6|0,3:2|3:2,0:0:0:0:
13,279,21540,2,0,L|112:278,1,99.9999999999999,2|2,1:2|3:2,0:0:0:0:
201,230,22203,6,0,P|211:181|200:133,2,99.9999999999999,6|2|2,3:2|3:2|1:2,0:0:0:0:
112,277,23197,1,2,3:2:0:0:
150,370,23529,2,0,L|273:365,1,99.9999999999999,6|2,3:2|3:2,0:0:0:0:
329,305,24192,2,0,P|317:256|328:208,1,99.9999999999999,2|2,3:2|3:2,0:0:0:0:
383,124,24855,5,2,3:2:0:0:
324,43,25186,1,12,0:0:0:0:
230,79,25518,2,0,L|112:76,1,99.9999999999999,10|8,0:0|0:0,0:0:0:0:
93,169,26181,2,0,L|256:174,1,150,10|12,0:0|0:0,0:0:0:0:
383,124,27175,1,10,0:0:0:0:
472,79,27507,6,0,B|489:131|489:131|449:235,1,150,6|2,1:2|0:0,0:0:0:0:
408,308,28336,1,2,1:2:0:0:
281,228,28833,2,0,P|205:211|121:233,1,150,2|0,0:0|0:0,0:0:0:0:
46,271,29661,1,2,1:2:0:0:
11,124,30159,6,0,L|131:130,1,99.9999999999999,2|14,1:2|0:0,0:0:0:0:
168,47,30822,2,0,L|267:51,1,99.9999999999999,2|14,1:2|0:0,0:0:0:0:
355,100,31485,2,0,B|374:147|374:147|336:243,1,150,2|4,1:2|1:2,0:0:0:0:
398,376,32479,1,10,0:0:0:0:
489,335,32811,6,0,P|509:263|490:189,1,150,2|0,1:2|0:0,0:0:0:0:
505,92,33639,1,2,1:2:0:0:
362,44,34137,2,0,L|253:48,1,99.9999999999999,2|10,1:2|0:0,0:0:0:0:
231,142,34800,2,0,L|330:138,1,99.9999999999999,2|10,1:2|0:0,0:0:0:0:
402,208,35463,6,0,P|413:256|402:304,1,99.9999999999999,2|12,1:2|0:0,0:0:0:0:
318,360,36126,2,0,P|269:371|221:360,1,99.9999999999999,0|12,1:2|0:0,0:0:0:0:
135,312,36789,2,0,B|117:254|117:254|146:146,1,150,0|4,1:2|1:2,0:0:0:0:
180,23,37783,1,0,1:2:0:0:
269,67,38115,6,0,L|435:64,2,150,6|0|2,1:2|3:2|1:2,0:0:0:0:
180,23,39441,2,0,L|14:20,2,150,2|10|2,1:2|0:0|1:2,0:0:0:0:
269,67,40766,2,0,P|283:106|260:219,1,150,2|8,3:2|0:0,0:0:0:0:
203,289,41595,1,0,3:2:0:0:
67,352,42092,6,0,L|74:243,1,99.9999999999999,14|2,0:0|0:0,0:0:0:0:
6,177,42755,1,14,0:0:0:0:
60,93,43087,1,14,0:0:0:0:
156,120,43418,6,0,B|212:139|212:139|317:116,1,150,14|14,0:0|0:0,0:0:0:0:
391,161,44247,2,0,L|385:229,1,50,12|0,1:2|1:2,0:0:0:0:
327,291,44744,2,0,B|271:272|271:272|166:295,1,150,14|14,0:0|0:0,0:0:0:0:
86,320,45573,1,14,0:0:0:0:
19,185,46070,6,0,L|26:72,1,99.9999999999999,14|2,0:0|1:2,0:0:0:0:
103,22,46733,2,0,P|152:11|200:22,1,99.9999999999999,2|2,1:2|1:2,0:0:0:0:
275,87,47396,2,0,B|289:135|289:135|257:253,1,150,14|14,0:0|0:0,0:0:0:0:
194,304,48225,1,12,0:0:0:0:
259,380,48557,6,0,L|423:373,1,150,8|8,0:0|0:0,0:0:0:0:
509,200,49717,1,12,0:0:0:0:
423,149,50048,6,0,L|430:-4,2,150,6|2|10,1:2|0:0|0:0,0:0:0:0:
330,188,51374,2,0,L|333:76,1,99.9999999999999,0|8,1:2|0:0,0:0:0:0:
277,4,52037,1,2,1:2:0:0:
179,27,52369,1,8,0:0:0:0:
175,126,52700,6,0,B|160:175|160:175|178:276,2,150,2|2|10,1:2|0:0|0:0,0:0:0:0:
257,183,54026,2,0,L|369:178,1,99.9999999999999,0|8,0:0|0:0,0:0:0:0:
433,113,54689,1,0,1:2:0:0:
506,180,55021,1,10,0:0:0:0:
467,272,55352,6,0,L|349:281,1,99.9999999999999,2|10,1:2|0:0,0:0:0:0:
299,353,56015,2,0,P|250:364|202:353,1,99.9999999999999,2|10,1:2|0:0,0:0:0:0:
132,281,56678,2,0,P|113:209|143:125,1,150,2|2,1:2|0:0,0:0:0:0:
229,22,57673,1,10,0:0:0:0:
324,52,58004,6,0,B|346:98|346:98|330:200,1,150,2|4,1:2|1:2,0:0:0:0:
243,245,58833,1,2,1:2:0:0:
277,338,59164,2,0,P|352:360|430:331,1,150,6|8,1:2|0:0,0:0:0:0:
476,257,59993,2,0,P|486:208|475:160,1,99.9999999999999,10|8,0:0|0:0,0:0:0:0:
423,74,60656,5,2,1:2:0:0:
325,96,60987,2,0,L|208:93,1,99.9999999999999,12|0,0:0|1:2,0:0:0:0:
145,32,61650,1,10,0:0:0:0:
67,95,61982,2,0,P|56:143|67:191,1,99.9999999999999,0|8,1:2|0:0,0:0:0:0:
126,272,62645,1,2,1:2:0:0:
218,233,62976,1,8,0:0:0:0:
280,311,63308,6,0,L|488:304,1,200,2|0,1:2|1:2,0:0:0:0:
505,156,64468,2,0,L|387:162,1,99.9999999999999,6|0,1:2|1:2,0:0:0:0:
337,86,65131,2,0,B|284:66|284:66|173:86,1,150,0|8,1:2|0:0,0:0:0:0:
129,160,65960,6,0,L|23:158,2,99.9999999999999,2|10|2,1:2|0:0|1:2,0:0:0:0:
171,250,66954,1,10,0:0:0:0:
269,231,67286,2,0,P|284:303|267:376,1,150,2|6,1:2|1:2,0:0:0:0:
116,373,68280,1,2,1:2:0:0:
54,293,68612,6,0,L|60:178,1,99.9999999999999,10|8,0:0|0:0,0:0:0:0:
121,114,69275,2,0,P|169:102|217:113,1,99.9999999999999,10|8,0:0|0:0,0:0:0:0:
263,205,69938,2,0,P|311:215|359:204,1,99.9999999999999,10|8,0:0|0:0,0:0:0:0:
443,149,70601,2,0,L|437:46,1,99.9999999999999,10|8,0:0|0:0,0:0:0:0:
347,3,71264,6,0,B|296:36|296:36|143:12,1,200,10|8,0:0|1:2,0:0:0:0:
256,192,72424,12,8,73749,0:0:0:0:
