osu file format v14

[General]
AudioFilename: audio.mp3
AudioLeadIn: 0
PreviewTime: 45737
Countdown: 0
SampleSet: Soft
StackLeniency: 0.6
Mode: 0
LetterboxInBreaks: 0
WidescreenStoryboard: 1

[Editor]
DistanceSpacing: 1
BeatDivisor: 4
GridSize: 4
TimelineZoom: 3.199999

[Metadata]
Title:Happy End no Intro ga Kikoeru
TitleUnicode:ハッピーエンドのイントロが聴こえる
Artist:NEO
ArtistUnicode:NEO
Creator:Glaceon
Version:Normal
Source:
Tags:japanese tokotoko 西沢さんP Nishizawasan-P zawaso panaman airincat serizawa haruki Jack J_a_c_k hooni kowari fixxis elcheer
BeatmapID:1935391
BeatmapSetID:926563

[Difficulty]
HPDrainRate:4
CircleSize:3.5
OverallDifficulty:4
ApproachRate:5.5
SliderMultiplier:1.1
SliderTickRate:1

[Events]
//Background and Video events
0,0,"im sad.jpg",0,0
//Break Periods
//Storyboard Layer 0 (Background)
//Storyboard Layer 1 (Fail)
//Storyboard Layer 2 (Pass)
//Storyboard Layer 3 (Foreground)
//Storyboard Sound Samples

[TimingPoints]
-1236,315.789473684211,4,2,22,70,1,0
1290,-100,4,2,22,60,0,0
6342,-100,4,2,22,80,0,0
11395,-100,4,2,22,60,0,0
16448,-100,4,2,22,80,0,0
16764,-100,4,2,22,60,0,0
21500,-100,4,2,22,60,0,0
25447,-100,4,2,22,60,0,0
36658,-100,4,2,22,50,0,0
41395,-100,4,2,22,55,0,0
41711,-100,4,2,22,60,0,0
45500,-100,4,2,22,60,0,0
46764,-100,4,2,22,80,0,1
55763,-100,4,2,22,80,0,1
60895,-100,4,2,22,80,0,1
61132,-100,4,2,22,80,0,1
61921,-100,4,2,22,70,0,0
64448,-100,4,2,22,80,0,0
66974,-100,4,2,22,80,0,1
75974,-100,4,2,22,80,0,1
82132,-100,4,2,22,80,0,0
87184,-100,4,2,22,60,0,0
92237,-100,4,2,22,60,0,0
97290,-100,4,2,22,60,0,0
99184,-100,4,2,22,15,0,0

[Colours]
Combo1 : 250,185,122
Combo2 : 207,130,91
Combo3 : 0,128,255
Combo4 : 255,83,83

[HitObjects]
96,52,500,6,0,L|99:124,1,55,8|8,0:2|1:2,0:0:0:0:
136,147,816,2,0,L|130:215,2,55,0|0|0,1:2|1:2|1:2,0:0:0:0:
186,124,1290,6,0,P|241:118|310:128,1,110,10|0,1:2|1:0,0:0:0:0:
384,188,1921,2,0,L|376:364,1,165,0|0,1:0|1:0,0:0:0:0:
266,359,2711,2,0,P|211:365|142:355,1,110,0|0,1:0|1:0,0:0:0:0:
135,308,3185,2,0,L|140:190,1,110,0|0,1:0|1:0,0:0:0:0:
146,87,3816,6,0,L|280:95,1,110,4|0,1:2|1:0,0:0:0:0:
302,63,4290,1,0,1:0:0:0:
302,63,4448,2,0,P|345:55|476:67,1,165,0|0,1:0|1:0,0:0:0:0:
507,165,5237,1,0,1:0:0:0:
432,246,5553,1,0,1:0:0:0:
432,246,5711,2,0,L|429:317,1,55,8|8,1:2|1:2,0:0:0:0:
278,366,6342,6,0,P|271:318|286:246,1,110,6|8,1:2|0:2,0:0:0:0:
322,220,6816,1,0,1:2:0:0:
322,220,6974,2,0,L|314:101,1,110,0|8,1:2|0:0,0:0:0:0:
310,55,7448,1,0,1:2:0:0:
210,7,7764,1,0,1:2:0:0:
134,86,8079,1,0,1:2:0:0:
134,86,8237,2,0,L|131:219,1,110,0|8,1:2|0:0,0:0:0:0:
129,306,8869,6,0,P|183:315|249:306,1,110,0|8,1:2|0:0,0:0:0:0:
283,277,9342,1,0,1:2:0:0:
283,277,9500,2,0,L|279:151,1,110,0|8,1:2|0:0,0:0:0:0:
276,111,9974,1,0,1:2:0:0:
356,36,10290,1,0,1:2:0:0:
449,93,10606,1,0,1:2:0:0:
449,93,10764,2,0,L|449:226,1,110,0|10,1:2|0:0,0:0:0:0:
448,313,11395,5,4,1:2:0:0:
338,327,11711,2,0,L|339:389,2,55,8|0|0,0:0|1:2|1:2,0:0:0:0:
299,287,12185,2,0,P|306:239|294:158,1,110,0|0,0:0|1:2,0:0:0:0:
249,80,12816,1,0,1:2:0:0:
147,123,13132,1,0,1:2:0:0:
147,123,13290,2,0,L|77:122,2,55,0|0|8,1:2|0:0|0:0,0:0:0:0:
195,159,13764,1,0,0:0:0:0:
195,159,13921,6,0,L|196:285,1,110,4|8,1:2|0:0,0:0:0:0:
194,324,14395,1,0,1:2:0:0:
194,324,14553,2,0,L|270:320,1,55,0|0,1:2|1:2,0:0:0:0:
358,317,15027,1,0,1:2:0:0:
393,212,15342,1,0,1:2:0:0:
298,155,15658,1,0,1:2:0:0:
298,155,15816,2,0,L|301:92,2,55,8|0|8,0:0|1:2|0:0,0:0:0:0:
212,224,16448,5,4,1:2:0:0:
118,166,16764,1,10,0:0:0:0:
21,214,17079,2,0,L|27:339,1,110,2|10,1:2|0:0,0:0:0:0:
27,379,17553,1,2,1:2:0:0:
130,342,17869,1,2,1:2:0:0:
130,342,18027,2,0,P|173:336|251:344,1,110,10|0,0:0|1:2,0:0:0:0:
341,380,18658,1,8,0:0:0:0:
438,329,18974,6,0,L|433:206,1,110,2|10,1:2|0:0,0:0:0:0:
431,169,19448,1,2,1:2:0:0:
431,169,19606,2,0,P|374:174|298:163,1,110,2|8,1:2|0:0,0:0:0:0:
275,137,20079,2,0,L|146:140,1,110,2|2,1:2|1:2,0:0:0:0:
74,75,20711,1,2,1:2:0:0:
0,159,21027,2,0,L|2:233,1,55,2|10,0:0|0:0,0:0:0:0:
102,256,21500,6,0,L|96:372,2,110,6|10|2,1:2|0:0|1:2,0:0:0:0:
203,211,22448,1,10,0:0:0:0:
203,211,22606,2,0,P|273:206|328:217,1,110,2|2,1:2|1:2,0:0:0:0:
366,222,23079,2,0,L|365:91,1,110,10|0,0:0|1:2,0:0:0:0:
322,10,23711,1,8,0:0:0:0:
222,56,24027,6,0,L|95:56,2,110,2|10|2,1:2|0:0|1:2,0:0:0:0:
266,88,24816,2,0,L|261:153,1,55,2|10,0:0|0:0,0:0:0:0:
213,170,25132,2,0,L|215:295,1,110,6|2,1:2|1:2,0:0:0:0:
297,353,25764,2,0,P|351:358|429:347,1,110,2|2,1:2|1:2,0:0:0:0:
453,322,26237,2,0,L|450:250,1,55,8|8,3:2|3:2,0:0:0:0:
410,228,26553,6,0,L|415:101,1,110,6|10,1:2|0:0,0:0:0:0:
422,7,27185,1,0,1:2:0:0:
422,7,27342,2,0,P|378:-1|296:6,1,110,2|2,0:0|1:2,0:0:0:0:
244,88,27974,2,0,L|164:84,1,55,2|10,1:2|0:0,0:0:0:0:
78,83,28448,2,0,L|80:201,1,110,2|10,1:2|0:0,0:0:0:0:
80,248,28921,1,2,0:0:0:0:
187,272,29237,5,2,0:0:0:0:
187,272,29395,2,0,L|181:403,2,110,10|2|10,0:0|1:2|0:0,0:0:0:0:
285,222,30342,2,0,P|293:170|284:102,1,110,2|10,0:0|0:0,0:0:0:0:
260,5,30974,2,0,L|385:10,1,110,2|10,1:2|0:0,0:0:0:0:
429,16,31448,1,2,0:0:0:0:
429,16,31606,5,4,1:2:0:0:
474,115,31921,2,0,L|468:242,1,110,10|2,0:0|1:2,0:0:0:0:
402,313,32553,1,8,0:0:0:0:
402,313,32711,2,0,P|345:321|278:310,1,110,2|2,1:2|1:2,0:0:0:0:
212,239,33342,1,2,1:2:0:0:
212,239,33500,2,0,L|211:112,1,110,2|10,1:2|0:0,0:0:0:0:
212,74,33974,1,2,0:0:0:0:
212,74,34132,6,0,P|156:82|91:72,1,110,2|8,1:2|0:0,0:0:0:0:
18,145,34764,2,0,L|21:274,1,110,2|8,1:2|0:0,0:0:0:0:
22,310,35237,1,4,1:2:0:0:
108,378,35553,1,8,0:0:0:0:
195,311,35869,1,0,3:2:0:0:
195,311,36027,2,0,L|191:178,1,110,8|0,3:2|3:2,0:0:0:0:
186,90,36658,6,0,P|135:85|58:96,2,110,6|2|2,3:2|3:2|3:2,0:0:0:0:
280,145,37606,1,10,3:2:0:0:
280,145,37764,2,0,L|405:139,1,110,2|2,0:0|0:0,0:0:0:0:
447,234,38395,2,0,L|337:239,1,110,2|2,3:2|0:0,0:0:0:0:
302,281,38869,2,0,L|240:281,1,55,10|2,3:2|0:0,0:0:0:0:
196,257,39185,6,0,P|188:301|196:375,2,110,2|2|2,3:2|3:2|3:2,0:0:0:0:
254,163,40132,2,0,L|252:102,1,55,10|0,3:2|0:0,0:0:0:0:
249,53,40448,2,0,L|384:59,1,110,0|0,3:2|3:2,0:0:0:0:
468,66,41079,2,0,P|474:117|459:183,1,110,2|10,3:2|3:2,0:0:0:0:
429,218,41553,1,8,3:2:0:0:
429,218,41711,6,0,L|434:354,2,110,6|8|8,1:2|0:0|0:0,0:0:0:0:
389,179,42500,1,0,1:2:0:0:
300,113,42816,2,0,P|253:106|170:118,1,110,6|2,1:2|1:2,0:0:0:0:
143,140,43290,2,0,L|136:272,1,110,10|10,0:0|0:0,0:0:0:0:
137,304,43764,1,2,1:2:0:0:
137,304,43921,1,10,0:0:0:0:
240,342,44237,6,0,L|366:336,1,110,6|10,1:2|0:0,0:0:0:0:
409,335,44711,1,0,1:2:0:0:
409,335,44869,2,0,L|402:260,1,55,10|0,0:0|1:2,0:0:0:0:
369,236,45185,2,0,L|376:161,1,55,2|0,3:2|3:2,0:0:0:0:
409,138,45500,1,10,3:2:0:0:
87,41,46764,6,0,L|94:166,1,110,14|8,0:0|0:0,0:0:0:0:
135,194,47237,1,2,1:2:0:0:
135,194,47395,2,0,P|126:242|133:316,1,110,10|8,0:0|0:0,0:0:0:0:
210,377,48027,1,8,0:0:0:0:
310,331,48342,1,10,0:0:0:0:
290,222,48658,2,0,L|288:158,1,55,10|2,0:0|1:2,0:0:0:0:
310,116,48974,1,10,0:0:0:0:
259,17,49290,6,0,P|310:9|382:24,1,110,6|8,1:2|0:0,0:0:0:0:
414,46,49764,1,2,0:0:0:0:
414,46,49921,2,0,L|413:108,1,55,10|0,0:0|1:2,0:0:0:0:
384,148,50237,2,0,L|384:202,1,55,10|0,0:0|1:2,0:0:0:0:
432,231,50553,2,0,L|428:348,1,110,10|8,0:0|0:0,0:0:0:0:
325,379,51185,2,0,P|258:385|210:377,1,110,10|10,0:0|0:0,0:0:0:0:
122,319,51816,6,0,L|32:324,2,82.5,14|2|2,0:0|0:0|0:0,0:0:0:0:
176,316,52448,1,10,0:0:0:0:
93,242,52764,1,10,0:0:0:0:
177,171,53079,2,0,L|276:176,2,82.5,10|2|2,0:0|0:0|0:0,0:0:0:0:
121,167,53711,1,10,0:0:0:0:
38,94,54027,1,10,0:0:0:0:
99,2,54342,5,6,1:2:0:0:
205,31,54658,2,0,L|272:35,1,55,10|2,0:0|1:2,0:0:0:0:
310,56,54974,2,0,L|364:52,2,55,10|2|10,0:0|1:2|0:0,0:0:0:0:
284,104,55448,2,0,P|275:150|283:226,1,110,6|2,1:2|1:2,0:0:0:0:
298,264,55921,1,10,0:0:0:0:
348,361,56237,2,0,L|228:357,1,110,10|10,0:0|0:0,0:0:0:0:
193,256,56869,6,0,L|83:259,1,110,6|8,1:2|0:0,0:0:0:0:
32,263,57342,1,2,0:0:0:0:
32,263,57500,2,0,L|29:142,1,110,10|8,0:0|0:0,0:0:0:0:
20,42,58132,1,8,0:0:0:0:
126,5,58448,2,0,L|194:8,1,55,10|2,0:0|0:0,0:0:0:0:
217,48,58764,2,0,L|292:44,1,55,10|2,0:0|1:2,0:0:0:0:
318,14,59079,1,10,0:0:0:0:
387,99,59395,6,0,L|383:235,1,110,6|8,1:2|0:0,0:0:0:0:
383,267,59869,1,2,0:0:0:0:
383,267,60027,2,0,P|320:272|255:261,1,110,10|10,0:0|0:0,0:0:0:0:
183,201,60658,2,0,L|85:204,2,82.5,10|2|2,0:0|0:0|0:0,0:0:0:0:
210,152,61290,2,0,L|292:154,2,82.5,10|2|2,0:0|0:0|1:2,0:0:0:0:
175,108,61921,6,0,L|176:13,2,82.5,6|2|0,1:2|0:0|1:2,0:0:0:0:
122,126,62553,2,0,P|72:120|-7:134,1,110,10|2,0:0|0:0,0:0:0:0:
4,237,63185,2,0,L|1:345,2,82.5,10|2|2,3:2|0:0|1:2,0:0:0:0:
45,200,63816,1,10,0:0:0:0:
126,273,64132,1,8,0:0:0:0:
208,200,64448,6,0,P|254:193|329:204,1,110,6|6,1:2|1:2,0:0:0:0:
413,253,65079,2,0,L|406:132,1,110,4|12,1:2|0:0,0:0:0:0:
394,33,65711,2,0,L|328:37,1,55,2|0,3:2|3:2,0:0:0:0:
310,83,66027,2,0,L|255:79,1,55,2|0,3:2|3:2,0:0:0:0:
205,54,66342,2,0,L|203:-13,2,55,10|8|14,3:2|3:2|3:2,0:0:0:0:
118,122,66974,6,0,P|110:170|121:247,1,110,6|8,1:2|0:0,0:0:0:0:
139,280,67448,1,2,0:0:0:0:
139,280,67606,2,0,L|256:277,1,110,10|8,0:0|0:0,0:0:0:0:
359,277,68237,1,8,0:0:0:0:
391,171,68553,1,10,0:0:0:0:
299,109,68869,2,0,L|235:110,1,55,10|2,0:0|1:2,0:0:0:0:
188,112,69185,1,10,0:0:0:0:
86,154,69500,6,0,L|89:38,1,110,6|8,1:2|0:0,0:0:0:0:
129,6,69974,1,2,0:0:0:0:
129,6,70132,2,0,L|200:3,1,55,10|0,0:0|1:2,0:0:0:0:
227,37,70448,2,0,L|281:39,1,55,10|0,0:0|1:2,0:0:0:0:
332,15,70764,2,0,P|392:8|459:23,1,110,10|8,0:0|0:0,0:0:0:0:
499,109,71395,2,0,P|439:116|372:101,1,110,10|10,0:0|0:0,0:0:0:0:
315,188,72027,6,0,L|313:289,2,82.5,6|2|2,1:2|0:0|0:0,0:0:0:0:
313,132,72658,1,10,0:0:0:0:
236,52,72974,1,10,0:0:0:0:
140,106,73290,2,0,L|138:11,2,82.5,10|2|2,0:0|0:0|0:0,0:0:0:0:
141,161,73921,1,10,0:0:0:0:
79,252,74237,1,10,0:0:0:0:
152,333,74553,5,6,1:2:0:0:
252,289,74869,2,0,L|316:284,1,55,10|2,0:0|1:2,0:0:0:0:
347,246,75185,2,0,L|401:250,2,55,10|2|10,0:0|1:2|0:0,0:0:0:0:
310,204,75658,2,0,P|305:144|314:88,1,110,6|2,1:2|1:2,0:0:0:0:
339,46,76132,1,14,0:0:0:0:
235,10,76448,2,0,L|112:13,1,110,10|2,0:0|1:2,0:0:0:0:
22,54,77079,6,0,L|19:164,1,110,6|8,1:2|0:0,0:0:0:0:
54,205,77553,1,2,0:0:0:0:
54,205,77711,2,0,P|47:251|54:324,1,110,10|8,0:0|0:0,0:0:0:0:
142,376,78342,1,8,0:0:0:0:
222,301,78658,2,0,L|340:299,2,110,10|10|10,0:0|0:0|0:0,0:0:0:0:
276,205,79606,6,0,L|385:203,1,110,6|8,1:2|0:0,0:0:0:0:
443,219,80079,1,2,0:0:0:0:
443,219,80237,2,0,P|451:163|444:109,1,110,10|10,0:0|0:0,0:0:0:0:
337,83,80869,2,0,L|329:-7,2,82.5,10|2|0,0:0|0:0|0:0,0:0:0:0:
300,124,81500,2,0,L|292:206,2,82.5,10|2|0,0:0|0:0|0:0,0:0:0:0:
256,89,82132,6,0,L|248:-1,2,82.5,10|2|0,0:0|0:0|0:0,0:0:0:0:
217,129,82764,2,0,P|162:119|108:128,1,110,10|2,0:0|0:0,0:0:0:0:
5,165,83395,2,0,L|2:82,2,82.5,2|2|2,1:2|0:0|1:2,0:0:0:0:
1,220,84027,1,10,0:0:0:0:
91,282,84342,1,10,0:0:0:0:
42,380,84658,6,0,L|156:378,1,110,6|10,1:2|0:0,0:0:0:0:
191,338,85132,2,0,P|196:283|190:228,1,110,2|2,0:0|0:0,0:0:0:0:
121,142,85764,1,2,0:0:0:0:
121,142,85921,2,0,B|178:156|244:131|220:125|285:104|352:125,1,220,6|2,3:2|3:2,0:0:0:0:
493,259,87185,6,0,L|367:262,1,110,4|8,1:2|0:0,0:0:0:0:
347,226,87658,1,0,1:2:0:0:
347,226,87816,2,0,L|237:223,1,110,0|8,1:2|0:0,0:0:0:0:
181,217,88290,1,0,1:2:0:0:
85,270,88606,1,0,1:2:0:0:
118,374,88921,1,0,1:2:0:0:
118,374,89079,2,0,L|237:370,1,110,0|8,1:2|0:0,0:0:0:0:
338,364,89711,6,0,P|343:319|333:237,1,110,0|8,1:2|0:0,0:0:0:0:
302,220,90185,1,0,1:2:0:0:
302,220,90342,2,0,L|306:108,1,110,0|8,1:2|0:0,0:0:0:0:
304,54,90816,1,0,1:2:0:0:
204,100,91132,1,0,1:2:0:0:
107,47,91448,1,0,1:2:0:0:
107,47,91606,2,0,P|96:99|107:170,1,110,0|8,1:2|0:0,0:0:0:0:
106,265,92237,6,0,L|226:269,1,110,4|8,1:2|0:0,0:0:0:0:
259,234,92711,1,0,1:2:0:0:
259,234,92869,2,0,L|368:230,1,110,0|8,1:2|0:0,0:0:0:0:
423,227,93342,1,0,1:2:0:0:
490,139,93658,1,0,1:2:0:0:
418,62,93974,1,0,1:2:0:0:
418,62,94132,2,0,L|297:66,1,110,0|8,1:2|0:0,0:0:0:0:
212,120,94764,6,0,L|208:190,2,55,4|0|8,1:2|0:0|0:0,0:0:0:0:
212,69,95237,1,0,1:2:0:0:
212,69,95395,2,0,P|159:60|85:70,1,110,0|8,1:2|0:0,0:0:0:0:
59,98,95869,1,0,1:2:0:0:
6,194,96185,1,0,1:2:0:0:
87,268,96500,1,0,1:2:0:0:
87,268,96658,2,0,L|166:262,1,55,8|0,0:0|1:2,0:0:0:0:
197,259,96974,1,8,0:0:0:0:
290,201,97290,5,4,1:2:0:0:
256,192,97369,12,0,99185,0:0:0:0:
