osu file format v14

[General]
AudioFilename: audio.mp3
AudioLeadIn: 0
PreviewTime: 45737
Countdown: 0
SampleSet: Soft
StackLeniency: 0.4
Mode: 0
LetterboxInBreaks: 0
WidescreenStoryboard: 0

[Editor]
Bookmarks: 501,1290,6342,16447,26553,36658,41711,46763,61921,66974,82132,87184,97290,99184
DistanceSpacing: 2.2
BeatDivisor: 4
GridSize: 4
TimelineZoom: 1.7

[Metadata]
Title:Happy End no Intro ga Kikoeru
TitleUnicode:ハッピーエンドのイントロが聴こえる
Artist:NEO
ArtistUnicode:NEO
Creator:Glaceon
Version:Haruki's Easy
Source:
Tags:japanese tokotoko 西沢さんP Nishizawasan-P zawaso panaman airincat serizawa haruki Jack J_a_c_k hooni kowari fixxis elcheer
BeatmapID:1947131
BeatmapSetID:926563

[Difficulty]
HPDrainRate:2
CircleSize:2.5
OverallDifficulty:2
ApproachRate:3
SliderMultiplier:0.8
SliderTickRate:1

[Events]
//Background and Video events
0,0,"im sad.jpg",0,0
//Break Periods
//Storyboard Layer 0 (Background)
//Storyboard Layer 1 (Fail)
//Storyboard Layer 2 (Pass)
//Storyboard Layer 3 (Foreground)
//Storyboard Sound Samples

[TimingPoints]
-1236,315.789473684211,4,2,22,70,1,0
1290,-100,4,2,22,60,0,0
6342,-100,4,2,22,80,0,0
11316,-100,4,2,22,5,0,0
11395,-100,4,2,22,60,0,0
16368,-100,4,2,22,5,0,0
16448,-100,4,2,22,80,0,0
16684,-100,4,2,22,5,0,0
16763,-100,4,2,22,60,0,0
21421,-100,4,2,22,5,0,0
21500,-100,4,2,22,60,0,0
25368,-100,4,2,22,5,0,0
25447,-100,4,2,22,60,0,0
31842,-100,4,2,22,5,0,0
31921,-100,4,2,22,60,0,0
35474,-100,4,2,22,5,0,0
35553,-100,4,2,22,60,0,0
36579,-100,4,2,22,5,0,0
36658,-100,4,2,22,50,0,0
41395,-100,4,2,22,55,0,0
41711,-100,4,2,22,60,0,0
46764,-100,4,2,22,80,0,1
55684,-100,4,2,22,5,0,1
55763,-100,4,2,22,80,0,1
61921,-100,4,2,22,70,0,0
64448,-100,4,2,22,80,0,0
66974,-100,4,2,22,80,0,1
75895,-100,4,2,22,5,0,1
75974,-100,4,2,22,80,0,1
82132,-100,4,2,22,70,0,0
87184,-100,4,2,22,60,0,0
92158,-100,4,2,22,5,0,0
92237,-100,4,2,22,60,0,0
99184,-100,4,2,22,15,0,0

[Colours]
Combo1 : 250,185,122
Combo2 : 207,130,91
Combo3 : 0,128,255
Combo4 : 255,83,83

[HitObjects]
30,300,500,6,0,B|66:316|66:316|146:309,1,120,8|0,0:2|1:2,0:0:0:0:
234,301,1290,5,10,1:2:0:0:
133,157,1921,2,0,P|114:101|133:45,1,120,0|0,1:0|1:0,0:0:0:0:
201,101,2711,1,0,1:0:0:0:
332,113,3185,2,0,L|411:119,1,80,0|0,1:0|1:0,0:0:0:0:
500,127,3816,5,4,1:2:0:0:
400,272,4448,2,0,L|280:261,1,120,0|0,1:0|1:0,0:0:0:0:
193,253,5237,1,0,1:0:0:0:
117,361,5711,2,0,L|77:364,1,40,8|8,1:2|1:2,0:0:0:0:
2,255,6342,6,0,P|-7:216|2:177,1,80,6|8,1:2|0:2,0:0:0:0:
52,105,6974,2,0,L|171:115,1,120,0|0,1:2|1:2,0:0:0:0:
260,123,7764,1,0,1:2:0:0:
316,242,8237,2,0,L|395:235,1,80,0|8,1:2|0:0,0:0:0:0:
460,175,8869,6,0,P|469:136|460:97,1,80,0|8,1:2|0:0,0:0:0:0:
395,38,9500,2,0,P|339:19|283:38,1,120,0|0,1:2|1:2,0:0:0:0:
221,100,10290,1,0,1:2:0:0:
209,232,10764,2,0,L|202:311,1,80,0|10,1:2|0:0,0:0:0:0:
136,369,11395,6,0,P|97:378|58:369,1,80,4|8,1:2|0:0,0:0:0:0:
97,290,12027,2,0,L|107:170,1,120,0|0,1:2|1:2,0:0:0:0:
115,82,12816,1,0,1:2:0:0:
231,20,13290,2,0,P|269:11|308:20,1,80,0|8,1:2|0:0,0:0:0:0:
380,70,13921,6,0,L|386:149,1,80,4|8,1:2|0:0,0:0:0:0:
442,218,14553,2,0,P|386:237|330:218,1,120,0|0,1:2|1:2,0:0:0:0:
260,165,15342,1,0,1:2:0:0:
129,177,15816,2,0,L|49:183,1,80,8|8,0:0|0:0,0:0:0:0:
12,262,16448,5,4,1:2:0:0:
63,335,16764,1,10,0:0:0:0:
150,327,17079,2,0,L|269:316,1,120,2|2,1:2|1:2,0:0:0:0:
400,304,18027,1,10,0:0:0:0:
446,229,18342,2,0,P|455:190|446:151,1,80,0|8,1:2|0:0,0:0:0:0:
383,90,18974,6,0,L|389:10,2,80,2|10|2,1:2|0:0|1:2,0:0:0:0:
263,145,20079,1,2,1:2:0:0:
271,233,20395,1,2,1:2:0:0:
199,284,20711,2,0,P|143:303|87:284,1,120,2|10,1:2|0:0,0:0:0:0:
25,222,21500,6,0,P|16:183|25:144,1,80,6|10,1:2|0:0,0:0:0:0:
75,72,22132,2,0,L|194:82,1,120,2|2,1:2|1:2,0:0:0:0:
326,94,23079,1,10,0:0:0:0:
281,170,23395,2,0,P|272:209|281:248,1,80,0|8,1:2|0:0,0:0:0:0:
350,302,24027,6,0,L|343:381,2,80,2|10|2,1:2|0:0|1:2,0:0:0:0:
469,246,25132,1,6,1:2:0:0:
461,158,25448,1,2,1:2:0:0:
387,110,25764,2,0,P|331:91|275:110,1,120,2|8,1:2|3:2,0:0:0:0:
206,165,26553,6,0,L|126:158,1,80,6|10,1:2|0:0,0:0:0:0:
70,38,27342,2,0,L|149:44,1,80,2|2,0:0|1:2,0:0:0:0:
275,3,28132,2,0,P|314:-6|353:3,1,80,10|2,0:0|1:2,0:0:0:0:
314,82,28764,1,10,0:0:0:0:
275,161,29079,6,0,P|266:200|275:239,1,80,0|10,1:2|0:0,0:0:0:0:
236,318,29711,2,0,P|275:327|314:318,1,80,2|10,1:2|0:0,0:0:0:0:
392,357,30342,2,0,P|401:318|392:279,1,80,2|10,0:0|0:0,0:0:0:0:
431,200,30974,2,0,P|392:191|353:200,1,80,2|10,1:2|0:0,0:0:0:0:
275,238,31606,5,6,1:2:0:0:
187,230,31921,2,0,L|107:223,1,80,10|2,0:0|1:2,0:0:0:0:
51,103,32711,2,0,L|130:109,1,80,2|2,1:2|1:2,0:0:0:0:
262,121,33500,1,2,1:2:0:0:
334,70,33816,1,10,0:0:0:0:
414,107,34132,6,0,B|424:145|424:145|414:184|414:184|431:223|414:262,1,160,2|2,1:2|1:2,0:0:0:0:
360,382,35237,1,4,1:2:0:0:
272,374,35553,1,8,0:0:0:0:
216,252,36027,2,0,P|207:213|216:174,1,80,8|0,3:2|3:2,0:0:0:0:
266,102,36658,6,0,L|345:108,2,80,6|2|2,3:2|3:2|3:2,0:0:0:0:
179,95,37606,1,10,3:2:0:0:
111,151,37921,2,0,P|92:95|111:39,2,120,0|2|10,3:2|3:2|3:2,0:0:0:0:
161,223,39185,6,0,L|240:216,2,80,2|2|2,3:2|3:2|3:2,0:0:0:0:
73,230,40132,1,10,3:2:0:0:
20,300,40448,2,0,P|11:338|20:377,1,80,0|0,3:2|3:2,0:0:0:0:
99,338,41079,1,2,3:2:0:0:
180,377,41395,1,10,3:2:0:0:
250,325,41711,6,0,B|286:301|327:311|327:311|369:300|388:261,1,160,6|8,1:2|0:0,0:0:0:0:
435,140,42816,2,0,L|315:129,1,120,6|10,1:2|0:0,0:0:0:0:
244,78,43606,2,0,L|164:84,1,80,10|10,0:0|0:0,0:0:0:0:
85,124,44237,6,0,P|76:85|85:46,2,80,6|10|10,1:2|0:0|0:0,0:0:0:0:
129,200,45185,1,2,3:2:0:0:
121,288,45500,1,10,3:2:0:0:
121,288,46764,6,0,L|127:208,1,80,14|8,0:0|0:0,0:0:0:0:
189,145,47395,2,0,B|228:128|267:145|267:145|306:162|345:145,1,160,10|8,0:0|0:0,0:0:0:0:
423,106,48342,2,0,P|432:145|423:184,1,80,10|10,0:0|0:0,0:0:0:0:
380,260,48974,1,10,0:0:0:0:
293,268,49290,6,0,L|213:274,1,80,6|8,1:2|0:0,0:0:0:0:
162,203,49921,1,10,0:0:0:0:
200,124,50237,1,10,0:0:0:0:
149,52,50553,2,0,L|69:45,1,80,10|8,0:0|0:0,0:0:0:0:
19,117,51185,1,10,0:0:0:0:
56,197,51500,1,10,0:0:0:0:
6,269,51816,6,0,P|-3:308|6:347,2,80,14|8|10,0:0|0:0|0:0,0:0:0:0:
85,308,52764,1,10,0:0:0:0:
164,347,53079,2,0,P|203:356|242:347,2,80,10|8|10,0:0|0:0|0:0,0:0:0:0:
203,268,54027,1,10,0:0:0:0:
195,181,54342,6,0,L|188:101,2,80,6|10|10,1:2|0:0|0:0,0:0:0:0:
315,125,55448,2,0,P|371:106|427:125,1,120,6|10,1:2|0:0,0:0:0:0:
495,181,56237,1,10,0:0:0:0:
487,268,56553,1,10,0:0:0:0:
408,306,56869,6,0,P|369:315|330:306,1,80,6|8,1:2|0:0,0:0:0:0:
254,263,57500,2,0,B|200:267|200:267|158:298|158:298|104:302,1,160,10|8,0:0|0:0,0:0:0:0:
25,342,58448,2,0,P|16:303|25:264,1,80,10|10,0:0|0:0,0:0:0:0:
72,190,59079,1,10,0:0:0:0:
25,116,59395,6,0,P|16:77|25:38,1,80,6|8,1:2|0:0,0:0:0:0:
104,77,60027,1,10,0:0:0:0:
184,40,60342,1,10,0:0:0:0:
256,91,60658,2,0,L|335:97,1,80,10|8,0:0|0:0,0:0:0:0:
351,185,61290,2,0,L|271:178,1,80,10|0,0:0|1:2,0:0:0:0:
214,245,61921,6,0,B|184:300|214:355|214:355|236:361|257:352,1,160,6|10,1:2|0:0,0:0:0:0:
337,314,62869,1,2,0:0:0:0:
398,250,63185,2,0,B|421:215|410:174|410:174|388:140|388:140|384:100,1,160,10|10,3:2|0:0,0:0:0:0:
376,12,64132,1,8,0:0:0:0:
304,62,64448,6,0,P|265:71|226:62,2,80,6|6|4,1:2|1:2|1:2,0:0:0:0:
376,12,65395,1,12,0:0:0:0:
456,49,65711,2,0,L|462:128,1,80,2|2,3:2|3:2,0:0:0:0:
471,217,66342,1,10,3:2:0:0:
399,268,66658,1,14,3:2:0:0:
319,230,66974,6,0,P|280:221|241:230,1,80,6|8,1:2|0:0,0:0:0:0:
162,268,67606,2,0,B|122:257|122:257|91:200|122:143,1,160,10|8,0:0|0:0,0:0:0:0:
170,70,68553,2,0,L|249:76,1,80,10|10,0:0|0:0,0:0:0:0:
338,85,69185,1,10,0:0:0:0:
375,164,69500,6,0,P|384:203|375:242,1,80,6|8,1:2|0:0,0:0:0:0:
325,315,70132,1,10,0:0:0:0:
238,323,70448,1,10,0:0:0:0:
187,250,70764,2,0,L|180:170,1,80,10|8,0:0|0:0,0:0:0:0:
172,82,71395,1,10,0:0:0:0:
92,45,71711,1,10,0:0:0:0:
13,84,72027,6,0,P|4:45|13:6,2,80,6|8|10,1:2|0:0|0:0,0:0:0:0:
51,163,72974,1,10,0:0:0:0:
89,242,73290,2,0,P|98:281|89:320,2,80,10|8|10,0:0|0:0|0:0,0:0:0:0:
51,163,74237,1,10,0:0:0:0:
138,170,74553,6,0,L|217:176,2,80,6|10|10,1:2|0:0|0:0,0:0:0:0:
214,62,75658,2,0,L|333:71,1,120,6|14,1:2|0:0,0:0:0:0:
406,122,76448,1,10,0:0:0:0:
398,209,76764,1,2,1:2:0:0:
319,247,77079,6,0,P|280:256|241:247,1,80,6|8,1:2|0:0,0:0:0:0:
188,177,77711,2,0,P|154:247|188:317,1,160,10|8,0:0|0:0,0:0:0:0:
260,366,78658,2,0,L|339:359,1,80,10|10,0:0|0:0,0:0:0:0:
427,351,79290,1,10,0:0:0:0:
478,280,79606,6,0,P|487:241|478:202,1,80,6|8,1:2|0:0,0:0:0:0:
427,131,80237,1,10,0:0:0:0:
339,123,80553,1,10,0:0:0:0:
289,195,80869,2,0,L|281:274,1,80,10|10,0:0|0:0,0:0:0:0:
195,290,81500,2,0,L|202:210,1,80,10|0,0:0|3:2,0:0:0:0:
150,140,82132,6,0,B|124:108|83:100|83:100|62:137|70:178,1,160,6|10,1:2|0:0,0:0:0:0:
83,266,83079,1,2,0:0:0:0:
96,354,83395,2,0,B|174:332|174:332|251:353,1,160,2|10,1:2|0:0,0:0:0:0:
336,375,84342,1,10,0:0:0:0:
390,305,84658,6,0,P|398:266|389:227,2,80,6|10|0,1:2|0:0|3:2,0:0:0:0:
311,266,85606,1,0,3:2:0:0:
240,318,85921,1,6,3:2:0:0:
80,243,86553,1,2,3:2:0:0:
224,144,87185,6,0,P|263:135|302:144,1,80,4|8,1:2|0:0,0:0:0:0:
383,178,87816,2,0,L|393:58,1,120,0|0,1:2|1:2,0:0:0:0:
322,7,88606,1,0,1:2:0:0:
202,62,89079,2,0,L|122:55,1,80,0|8,1:2|0:0,0:0:0:0:
68,125,89711,6,0,P|59:164|68:203,1,80,0|8,1:2|0:0,0:0:0:0:
130,265,90342,2,0,P|186:284|242:265,1,120,0|0,1:2|1:2,0:0:0:0:
186,197,91132,1,0,1:2:0:0:
306,142,91606,2,0,L|385:148,1,80,0|8,1:2|0:0,0:0:0:0:
440,220,92237,6,0,P|449:259|440:298,1,80,4|8,1:2|0:0,0:0:0:0:
370,350,92869,2,0,L|250:360,1,120,0|0,1:2|1:2,0:0:0:0:
164,368,93658,1,0,1:2:0:0:
88,259,94132,2,0,P|79:220|88:181,1,80,0|8,1:2|0:0,0:0:0:0:
135,107,94764,6,0,L|214:113,1,80,4|8,1:2|0:0,0:0:0:0:
283,58,95395,2,0,P|301:113|282:169,1,120,0|0,1:2|1:2,0:0:0:0:
220,232,96185,1,0,1:2:0:0:
340,290,96658,2,0,P|379:299|418:290,1,80,8|8,0:0|0:0,0:0:0:0:
490,240,97290,5,4,1:2:0:0:
256,192,97448,12,0,99185,0:0:0:0:
