osu file format v14

[General]
AudioFilename: audio.mp3
AudioLeadIn: 0
PreviewTime: 45737
Countdown: 0
SampleSet: Soft
StackLeniency: 0.6
Mode: 0
LetterboxInBreaks: 0
WidescreenStoryboard: 1

[Editor]
Bookmarks: 16447,26553
DistanceSpacing: 1
BeatDivisor: 4
GridSize: 4
TimelineZoom: 3.999998

[Metadata]
Title:Happy End no Intro ga Kikoeru
TitleUnicode:ハッピーエンドのイントロが聴こえる
Artist:NEO
ArtistUnicode:NEO
Creator:Glaceon
Version:Airin's Hard
Source:
Tags:japanese tokotoko 西沢さんP Nishizawasan-P zawaso panaman airincat serizawa haruki Jack J_a_c_k hooni kowari fixxis elcheer
BeatmapID:1937440
BeatmapSetID:926563

[Difficulty]
HPDrainRate:4.5
CircleSize:3.8
OverallDifficulty:6
ApproachRate:8
SliderMultiplier:1.4
SliderTickRate:1

[Events]
//Background and Video events
0,0,"im sad.jpg",0,0
//Break Periods
//Storyboard Layer 0 (Background)
//Storyboard Layer 1 (Fail)
//Storyboard Layer 2 (Pass)
//Storyboard Layer 3 (Foreground)
//Storyboard Sound Samples

[TimingPoints]
-1236,315.789473684211,4,2,22,70,1,0
1290,-111.111111111111,4,2,22,60,0,0
3816,-105.263157894737,4,2,22,60,0,0
6342,-90.9090909090909,4,2,22,80,0,0
11316,-90.9090909090909,4,2,22,5,0,0
11395,-90.9090909090909,4,2,22,60,0,0
16368,-90.9090909090909,4,2,22,5,0,0
16448,-100,4,2,22,80,0,0
16684,-100,4,2,22,5,0,0
16763,-100,4,2,22,60,0,0
21421,-100,4,2,22,5,0,0
21500,-100,4,2,22,60,0,0
25368,-100,4,2,22,5,0,0
25447,-100,4,2,22,60,0,0
31842,-100,4,2,22,5,0,0
31921,-100,4,2,22,60,0,0
35474,-100,4,2,22,5,0,0
35553,-100,4,2,22,60,0,0
36579,-100,4,2,22,5,0,0
36658,-111.111111111111,4,2,22,50,0,0
41395,-111.111111111111,4,2,22,55,0,0
41711,-100,4,2,22,60,0,0
45500,-100,4,2,22,60,0,0
46764,-90.9090909090909,4,2,22,80,0,1
54579,-90.9090909090909,4,2,22,5,0,1
54658,-90.9090909090909,4,2,22,80,0,1
55684,-90.9090909090909,4,2,22,5,0,1
55763,-90.9090909090909,4,2,22,80,0,1
60895,-90.9090909090909,4,2,22,80,0,1
61132,-90.9090909090909,4,2,22,80,0,1
61921,-100,4,2,22,70,0,0
64448,-100,4,2,22,80,0,0
66974,-90.9090909090909,4,2,22,80,0,1
74790,-90.9090909090909,4,2,22,5,0,1
74869,-90.9090909090909,4,2,22,80,0,1
75895,-90.9090909090909,4,2,22,5,0,1
75974,-90.9090909090909,4,2,22,80,0,1
82132,-100,4,2,22,70,0,0
85921,-125,4,2,22,70,0,0
87184,-100,4,2,22,60,0,0
92158,-100,4,2,22,5,0,0
92237,-100,4,2,22,60,0,0
97290,-100,4,2,22,60,0,0
99184,-100,4,2,22,15,0,0

[Colours]
Combo1 : 250,185,122
Combo2 : 207,130,91
Combo3 : 0,128,255
Combo4 : 255,83,83

[HitObjects]
236,32,500,6,0,L|221:-8,2,35,8|8|8,0:2|0:2|1:2,0:0:0:0:
198,105,816,2,0,L|124:94,2,70,0|0|0,1:2|1:2|1:2,0:0:0:0:
296,88,1290,6,0,B|291:136|291:136|306:166|306:166|303:227,1,125.999996154785,10|0,1:2|1:0,0:0:0:0:
268,281,1764,1,0,1:0:0:0:
268,281,1921,2,0,P|323:249|391:272,1,125.999996154785,0|0,1:0|1:0,0:0:0:0:
471,262,2395,2,0,B|472:226|455:209|444:197|444:197|455:164|451:119,2,125.999996154785,0|0|0,1:0|1:0|1:0,0:0:0:0:
438,351,3185,2,0,P|402:346|366:348,1,62.9999980773926,0|0,1:0|1:0,0:0:0:0:
292,360,3500,2,0,P|253:366|219:364,1,62.9999980773926,0|0,1:0|1:2,0:0:0:0:
134,343,3816,6,0,B|126:287|126:287|141:254|141:254|128:189,1,132.999996448517,4|0,1:2|1:0,0:0:0:0:
73,159,4290,1,0,1:0:0:0:
73,159,4448,2,0,P|132:175|217:156,1,132.999996448517,0|0,1:0|1:0,0:0:0:0:
279,115,4921,2,0,P|282:80|274:43,1,66.4999982242585,0|0,1:0|1:0,0:0:0:0:
336,185,5237,2,0,P|356:156|367:115,2,66.4999982242585,0|0|0,1:0|1:0|1:0,0:0:0:0:
261,247,5711,1,8,1:2:0:0:
285,333,5869,1,8,1:2:0:0:
285,333,6342,6,0,P|213:324|176:255,1,154.000004699707,6|8,1:2|0:2,0:0:0:0:
261,247,6816,1,0,1:2:0:0:
345,272,6974,2,0,P|365:307|368:345,2,77.0000023498536,0|0|8,1:2|0:0|0:0,0:0:0:0:
317,187,7448,2,0,P|297:134|358:45,1,154.000004699707,0|0,1:2|1:2,0:0:0:0:
425,44,7921,1,8,0:0:0:0:
456,134,8079,1,0,1:2:0:0:
456,134,8237,2,0,L|372:129,1,77.0000023498536,0|0,1:2|0:0,0:0:0:0:
394,218,8553,2,0,L|483:226,1,77.0000023498536,8|0,0:0|0:0,0:0:0:0:
399,311,8869,6,0,B|343:304|343:304|299:322|299:322|231:317,1,154.000004699707,0|8,1:2|0:0,0:0:0:0:
192,261,9342,1,0,1:2:0:0:
122,301,9500,2,0,P|72:301|43:289,2,77.0000023498536,0|0|8,1:2|0:0|0:0,0:0:0:0:
99,224,9974,2,0,P|57:161|71:87,1,154.000004699707,0|0,1:2|1:2,0:0:0:0:
131,27,10448,1,8,0:0:0:0:
131,27,10606,1,0,1:2:0:0:
203,69,10764,2,0,B|246:74|246:74|286:58,1,77.0000023498536,0|0,1:2|0:0,0:0:0:0:
333,141,11079,2,0,B|301:138|301:138|263:158|263:158|205:151,1,115.50000352478,10|0,0:0|0:0,0:0:0:0:
193,158,11395,6,0,P|250:209|251:293,1,154.000004699707,4|8,1:2|0:0,0:0:0:0:
210,353,11869,1,0,1:2:0:0:
133,318,12027,2,0,P|88:318|53:336,2,77.0000023498536,0|0|8,1:2|0:0|0:0,0:0:0:0:
210,353,12500,2,0,P|245:365|340:303,1,154.000004699707,0|0,1:2|1:2,0:0:0:0:
371,233,12974,1,8,0:0:0:0:
442,287,13132,1,0,1:2:0:0:
442,287,13290,2,0,L|441:363,1,77.0000023498536,0|0,1:2|0:0,0:0:0:0:
512,237,13606,2,0,L|511:154,1,77.0000023498536,8|0,0:0|0:0,0:0:0:0:
459,76,13921,6,0,P|393:106|309:79,1,154.000004699707,4|8,1:2|0:0,0:0:0:0:
244,46,14395,1,0,1:2:0:0:
163,65,14553,2,0,P|129:61|89:37,2,77.0000023498536,0|0|8,1:2|1:2|0:0,0:0:0:0:
215,131,15027,5,0,1:2:0:0:
44,258,15342,1,0,1:2:0:0:
101,323,15500,1,0,0:0:0:0:
101,323,15658,1,0,1:2:0:0:
177,286,15816,2,0,L|174:209,1,77.0000023498536,8|0,0:0|1:2,0:0:0:0:
263,245,16132,2,0,L|260:168,1,77.0000023498536,8|0,0:0|1:0,0:0:0:0:
347,94,16448,6,0,L|351:240,1,140,4|10,1:2|0:0,0:0:0:0:
348,325,16921,1,0,1:2:0:0:
347,325,17079,2,0,P|412:305|436:236,1,140,2|10,1:2|0:0,0:0:0:0:
442,148,17553,2,0,L|439:65,1,70,2|0,1:2|0:0,0:0:0:0:
375,28,17869,1,2,1:2:0:0:
298,55,18027,2,0,B|259:53|236:25|236:25|210:51|172:46,2,140,10|0|8,0:0|1:2|0:0,0:0:0:0:
229,138,18816,1,2,0:0:0:0:
229,138,18974,6,0,L|221:221,1,70,2|2,1:2|0:0,0:0:0:0:
296,248,19290,2,0,L|289:339,1,70,10|2,0:0|1:2,0:0:0:0:
207,363,19606,1,2,1:2:0:0:
207,362,19764,2,0,L|214:279,1,70,2|8,0:0|0:0,0:0:0:0:
122,240,20079,6,0,P|88:242|55:232,1,70,2|0,1:2|0:0,0:0:0:0:
96,155,20395,2,0,P|64:139|41:113,1,70,2|8,1:2|0:0,0:0:0:0:
90,7,20711,2,0,P|97:41|117:71,1,70,2|0,1:2|1:2,0:0:0:0:
188,122,21027,1,2,0:0:0:0:
188,122,21185,2,0,L|289:117,1,70,10|0,0:0|0:0,0:0:0:0:
328,63,21500,6,0,B|361:21|414:24|414:24|467:63,1,140,6|10,1:2|0:0,0:0:0:0:
484,128,21974,1,0,1:2:0:0:
484,127,22132,2,0,P|470:162|479:270,1,140,2|10,1:2|0:0,0:0:0:0:
413,340,22606,2,0,L|328:338,1,70,2|0,1:2|0:0,0:0:0:0:
280,288,22921,1,2,1:2:0:0:
214,332,23079,2,0,B|165:331|165:331|145:314|145:314|113:307|73:330,2,140,10|0|8,0:0|1:2|0:0,0:0:0:0:
205,244,23869,1,2,0:0:0:0:
205,244,24027,6,0,L|197:161,1,70,2|2,1:2|0:0,0:0:0:0:
273,125,24342,2,0,L|267:42,1,70,10|2,0:0|1:2,0:0:0:0:
178,19,24658,2,0,L|182:91,1,70,2|2,1:2|0:0,0:0:0:0:
198,174,24974,1,10,0:0:0:0:
273,125,25132,6,0,B|310:118|310:118|350:129,1,70,6|0,1:2|0:0,0:0:0:0:
402,206,25448,2,0,B|389:241|389:241|360:270,1,70,2|12,1:2|0:0,0:0:0:0:
257,271,25764,2,0,B|232:242|232:242|221:202,1,70,2|12,1:2|0:0,0:0:0:0:
306,200,26079,1,2,1:2:0:0:
365,264,26237,2,0,L|365:302,3,35,8|8|8|8,3:2|3:2|3:2|3:2,0:0:0:0:
363,332,26553,6,0,L|291:344,1,70,6|0,1:2|0:0,0:0:0:0:
208,339,26869,2,0,B|158:325|158:325|138:353|112:364|78:359,1,140,10|0,0:0|1:2,0:0:0:0:
89,275,27342,2,0,B|91:193,1,70,2|8,0:0|0:0,0:0:0:0:
7,153,27658,2,0,L|2:298,1,140,2|2,1:2|1:2,0:0:0:0:
83,360,28132,5,10,0:0:0:0:
83,360,28290,1,2,1:2:0:0:
171,324,28448,2,0,P|208:325|253:344,1,70,2|2,1:2|0:0,0:0:0:0:
310,281,28764,1,10,0:0:0:0:
310,281,28921,2,0,L|306:203,2,70,2|0|2,0:0|1:2|0:0,0:0:0:0:
393,333,29395,6,0,P|438:324|465:306,1,70,10|2,0:0|1:2,0:0:0:0:
498,226,29711,2,0,L|489:144,1,70,2|2,1:2|0:0,0:0:0:0:
426,95,30027,2,0,L|354:102,1,70,10|2,0:0|1:2,0:0:0:0:
282,143,30342,2,0,L|288:216,1,70,2|2,0:0|1:2,0:0:0:0:
284,304,30658,1,10,0:0:0:0:
284,304,30816,1,2,1:2:0:0:
199,348,30974,2,0,B|169:358|133:354|133:354|112:314|129:283,1,140,2|10,1:2|0:0,0:0:0:0:
165,207,31448,1,2,0:0:0:0:
129,284,31606,6,0,L|59:280,1,70,6|0,1:2|0:0,0:0:0:0:
165,207,31921,2,0,L|238:212,1,70,10|0,0:0|1:2,0:0:0:0:
303,158,32237,2,0,B|348:149|348:149|392:169|392:169|449:167,1,140,2|8,1:2|0:0,0:0:0:0:
341,235,32711,2,0,L|344:312,1,70,2|0,1:2|0:0,0:0:0:0:
445,307,33027,2,0,L|437:161,1,140,2|2,1:2|1:2,0:0:0:0:
427,66,33500,5,2,1:2:0:0:
427,66,33658,1,2,0:0:0:0:
338,21,33816,2,0,L|254:30,1,70,10|2,0:0|0:0,0:0:0:0:
176,20,34132,2,0,B|83:11|129:68|37:49,1,140,2|8,1:2|0:0,0:0:0:0:
15,136,34606,1,2,1:2:0:0:
15,136,34764,2,0,B|54:149|66:179|66:179|49:215|61:263,1,140,2|8,1:2|0:0,0:0:0:0:
126,317,35237,6,0,L|195:312,1,70,4|0,1:2|0:0,0:0:0:0:
146,226,35553,2,0,L|215:221,1,70,8|0,0:0|1:2,0:0:0:0:
263,151,35869,2,0,L|257:122,3,23.3333333333333,0|0|0|8,3:2|3:2|3:2|3:2,0:0:0:0:
306,63,36185,1,0,3:2:0:0:
306,63,36342,2,0,L|384:63,1,70,0|0,3:2|0:0,0:0:0:0:
478,109,36658,6,0,P|443:158|441:231,1,125.999996154785,6|2,3:2|3:2,0:0:0:0:
406,301,37132,1,2,3:2:0:0:
406,301,37290,2,0,B|359:301|359:301|336:316|336:316|280:314,1,125.999996154785,2|10,3:2|3:2,0:0:0:0:
208,279,37764,1,2,0:0:0:0:
208,279,37921,6,0,P|139:280|99:219,1,125.999996154785,0|0,3:2|3:2,0:0:0:0:
79,158,38395,2,0,L|80:77,2,62.9999980773926,2|0|2,3:2|3:2|0:0,0:0:0:0:
17,220,38869,2,0,L|16:292,1,62.9999980773926,10|2,3:2|0:0,0:0:0:0:
101,345,39185,6,0,B|140:354|140:354|184:338|184:338|235:347,2,125.999996154785,2|2|2,3:2|3:2|3:2,0:0:0:0:
132,257,39974,1,0,0:0:0:0:
132,257,40132,2,0,L|134:172,1,62.9999980773926,10|0,3:2|0:0,0:0:0:0:
77,106,40448,6,0,P|128:88|205:119,1,125.999996154785,0|0,3:2|3:2,0:0:0:0:
269,163,40921,1,0,3:2:0:0:
269,163,41079,2,0,L|340:160,1,62.9999980773926,2|0,3:2|0:0,0:0:0:0:
401,225,41395,2,0,L|437:223,3,31.4999990386963,10|8|8|8,3:2|3:2|3:2|3:2,0:0:0:0:
462,216,41711,6,0,B|467:167|467:167|451:136|451:136|455:98|455:98|478:84,2,140,6|8|8,1:2|0:0|0:0,0:0:0:0:
457,311,42500,1,0,1:2:0:0:
457,311,42658,1,2,0:0:0:0:
363,286,42816,5,6,1:2:0:0:
185,370,43132,1,2,1:2:0:0:
185,370,43290,2,0,L|109:366,1,70,10|0,0:0|0:0,0:0:0:0:
76,282,43606,2,0,L|152:286,1,70,10|2,0:0|1:2,0:0:0:0:
205,210,43921,2,0,L|129:206,1,70,10|0,0:0|1:2,0:0:0:0:
56,152,44237,6,0,P|39:96|87:24,2,140,6|10|10,1:2|0:0|0:0,0:0:0:0:
131,104,45027,1,0,1:2:0:0:
131,104,45185,2,0,L|219:98,1,70,2|0,3:2|3:2,0:0:0:0:
273,33,45500,1,10,3:2:0:0:
273,33,46764,6,0,B|281:82|281:82|266:121|266:121|274:188,1,154.000004699707,14|8,0:0|0:0,0:0:0:0:
367,163,47237,1,2,1:2:0:0:
273,183,47395,2,0,L|196:184,1,77.0000023498536,10|0,0:0|1:2,0:0:0:0:
141,272,47711,2,0,L|230:269,1,77.0000023498536,8|0,0:0|1:2,0:0:0:0:
293,334,48027,6,0,P|367:349|432:293,1,154.000004699707,8|10,0:0|0:0,0:0:0:0:
416,131,48658,1,10,0:0:0:0:
416,131,48816,1,2,1:2:0:0:
338,171,48974,2,0,L|339:263,1,77.0000023498536,10|0,0:0|1:2,0:0:0:0:
293,334,49290,6,0,B|240:327|240:327|216:348|216:348|142:339,1,154.000004699707,6|8,1:2|0:0,0:0:0:0:
75,300,49764,1,2,0:0:0:0:
125,233,49921,2,0,L|120:155,1,77.0000023498536,10|0,0:0|1:2,0:0:0:0:
50,103,50237,2,0,L|55:21,1,77.0000023498536,10|0,0:0|1:2,0:0:0:0:
161,63,50553,6,0,B|242:44|210:95|315:74,1,154.000004699707,10|8,0:0|0:0,0:0:0:0:
454,189,51185,2,0,L|448:273,1,77.0000023498536,10|0,0:0|1:2,0:0:0:0:
383,321,51500,2,0,L|298:308,1,77.0000023498536,10|0,0:0|1:2,0:0:0:0:
231,262,51816,6,0,B|187:231|187:231|132:241|108:303,1,154.000004699707,14|8,0:0|0:0,0:0:0:0:
57,358,52290,1,2,0:0:0:0:
18,283,52448,2,0,L|16:198,1,77.0000023498536,10|0,0:0|1:2,0:0:0:0:
101,122,52764,2,0,L|104:211,1,77.0000023498536,10|0,0:0|1:2,0:0:0:0:
187,253,53079,6,0,P|256:262|312:203,1,154.000004699707,10|8,0:0|0:0,0:0:0:0:
351,129,53553,1,2,0:0:0:0:
401,202,53711,2,0,L|403:287,1,77.0000023498536,10|0,0:0|1:2,0:0:0:0:
503,326,54027,2,0,L|502:247,1,77.0000023498536,10|0,0:0|1:2,0:0:0:0:
459,139,54342,6,0,P|388:117|336:139,1,115.50000352478,6|0,1:2|0:0,0:0:0:0:
326,138,54658,2,0,L|234:133,1,77.0000023498536,10|2,0:0|1:2,0:0:0:0:
164,127,54974,1,10,0:0:0:0:
164,127,55132,1,2,1:2:0:0:
217,52,55290,1,10,0:0:0:0:
249,134,55448,6,0,B|283:208|212:195|259:296,1,154.000004699707,6|2,1:2|1:2,0:0:0:0:
324,347,55921,2,0,L|408:350,1,77.0000023498536,10|2,0:0|1:2,0:0:0:0:
243,370,56237,2,0,L|155:372,1,77.0000023498536,10|2,0:0|1:2,0:0:0:0:
318,336,56553,1,10,0:0:0:0:
143,165,56869,6,0,B|107:141|65:156|65:156|52:187|83:239,1,154.000004699707,6|8,1:2|0:0,0:0:0:0:
128,297,57342,1,2,0:0:0:0:
200,243,57500,2,0,L|296:245,1,77.0000023498536,10|0,0:0|1:2,0:0:0:0:
356,160,57816,2,0,L|278:157,1,77.0000023498536,8|0,0:0|1:2,0:0:0:0:
391,249,58132,6,0,P|426:220|435:112,1,154.000004699707,8|10,0:0|0:0,0:0:0:0:
272,13,58764,1,10,0:0:0:0:
272,13,58921,1,2,1:2:0:0:
199,77,59079,2,0,L|198:157,1,77.0000023498536,10|0,0:0|1:2,0:0:0:0:
205,261,59395,6,0,B|155:251|155:251|129:228|129:228|77:231|77:231|65:242,1,154.000004699707,6|8,1:2|0:0,0:0:0:0:
95,323,59869,1,2,0:0:0:0:
66,242,60027,2,0,L|68:161,1,77.0000023498536,10|0,0:0|1:2,0:0:0:0:
6,92,60342,2,0,L|4:11,1,77.0000023498536,10|0,0:0|1:2,0:0:0:0:
97,65,60658,6,0,P|140:33|217:27,2,115.50000352478,10|2|2,0:0|0:0|0:0,0:0:0:0:
171,111,61290,2,0,P|238:113|297:153,2,115.50000352478,10|2|2,0:0|0:0|1:2,0:0:0:0:
262,216,61921,6,0,P|320:210|362:133,1,140,6|0,1:2|0:0,0:0:0:0:
393,73,62395,1,0,1:2:0:0:
393,73,62553,2,0,L|408:218,1,140,10|2,0:0|0:0,0:0:0:0:
426,299,63027,1,0,0:0:0:0:
347,359,63185,6,0,L|220:349,2,105,10|2|2,3:2|0:0|1:2,0:0:0:0:
302,268,63816,2,0,L|222:263,1,70,10|0,0:0|1:2,0:0:0:0:
163,318,64132,2,0,L|83:313,1,70,8|2,0:0|1:2,0:0:0:0:
147,218,64448,6,0,L|150:139,1,70,6|2,1:2|0:0,0:0:0:0:
88,91,64764,1,6,1:2:0:0:
149,148,64921,2,0,L|240:142,1,70,2|4,0:0|1:2,0:0:0:0:
272,73,65237,2,0,L|341:74,1,70,2|12,1:2|0:0,0:0:0:0:
422,35,65553,1,2,0:0:0:0:
471,105,65711,6,0,B|481:142|481:142|474:185,1,70,2|0,3:2|3:2,0:0:0:0:
399,224,66027,2,0,B|361:214|361:214|328:186,1,70,2|0,3:2|3:2,0:0:0:0:
365,100,66342,2,0,L|337:70,3,35,10|8|8|8,3:2|3:2|3:2|3:2,0:0:0:0:
320,62,66658,2,0,L|240:67,1,70,14|0,3:2|0:0,0:0:0:0:
159,74,66974,6,0,B|212:75|212:75|238:121|238:121|232:198,1,154.000004699707,6|8,1:2|0:0,0:0:0:0:
168,233,67448,1,2,0:0:0:0:
93,190,67606,2,0,L|11:198,1,77.0000023498536,10|0,0:0|1:2,0:0:0:0:
27,300,67921,2,0,L|110:290,1,77.0000023498536,8|0,0:0|1:2,0:0:0:0:
201,327,68237,6,0,B|296:301|259:358|370:341,1,154.000004699707,8|10,0:0|0:0,0:0:0:0:
416,146,68869,1,10,0:0:0:0:
416,146,69027,1,2,1:2:0:0:
323,179,69185,2,0,L|325:256,1,77.0000023498536,10|0,0:0|1:2,0:0:0:0:
414,300,69500,6,0,P|388:233|319:278,1,154.000004699707,6|8,1:2|0:0,0:0:0:0:
262,321,69974,1,2,0:0:0:0:
188,269,70132,2,0,L|97:274,1,77.0000023498536,10|0,0:0|1:2,0:0:0:0:
76,189,70448,2,0,L|-15:194,1,77.0000023498536,10|0,0:0|1:2,0:0:0:0:
60,101,70764,6,0,B|122:98|122:98|152:123|152:123|235:121,1,154.000004699707,10|8,0:0|0:0,0:0:0:0:
345,34,71395,2,0,L|428:35,1,77.0000023498536,10|0,0:0|1:2,0:0:0:0:
502,86,71711,2,0,L|501:169,1,77.0000023498536,10|0,0:0|0:0,0:0:0:0:
451,265,72027,6,0,B|402:265|402:265|343:257|333:188,1,154.000004699707,6|8,1:2|0:0,0:0:0:0:
313,110,72500,1,2,0:0:0:0:
243,161,72658,2,0,L|238:240,1,77.0000023498536,10|0,0:0|1:2,0:0:0:0:
330,272,72974,2,0,L|334:196,1,77.0000023498536,10|0,0:0|1:2,0:0:0:0:
302,91,73290,6,0,P|240:70|158:121,1,154.000004699707,10|8,0:0|0:0,0:0:0:0:
159,197,73764,1,2,0:0:0:0:
87,245,73921,2,0,L|9:239,1,77.0000023498536,10|0,0:0|1:2,0:0:0:0:
19,131,74237,2,0,L|98:136,1,77.0000023498536,10|0,0:0|1:2,0:0:0:0:
232,166,74553,6,0,P|287:137|346:157,1,115.50000352478,6|0,1:2|0:0,0:0:0:0:
355,156,74869,2,0,L|359:239,1,77.0000023498536,10|2,0:0|1:2,0:0:0:0:
450,277,75185,1,10,0:0:0:0:
450,277,75342,1,2,1:2:0:0:
448,181,75500,1,10,0:0:0:0:
359,233,75658,6,0,B|312:251|312:251|254:242|254:242|211:207|211:207,1,154.000004699707,6|2,1:2|1:2,0:0:0:0:
160,129,76132,2,0,L|157:51,1,77.0000023498536,14|2,0:0|1:2,0:0:0:0:
103,209,76448,2,0,L|106:295,1,77.0000023498536,10|2,0:0|1:2,0:0:0:0:
174,128,76764,2,0,L|171:50,1,77.0000023498536,2|0,1:2|1:2,0:0:0:0:
293,157,77079,6,0,B|346:193|408:162|408:162|416:115,1,154.000004699707,6|8,1:2|0:0,0:0:0:0:
413,42,77553,1,2,0:0:0:0:
504,88,77711,2,0,L|501:176,1,77.0000023498536,10|0,0:0|1:2,0:0:0:0:
410,206,78027,2,0,L|413:118,1,77.0000023498536,8|0,0:0|1:2,0:0:0:0:
472,267,78342,6,0,P|412:291|336:249,1,154.000004699707,8|10,0:0|0:0,0:0:0:0:
214,111,78974,2,0,L|139:125,1,77.0000023498536,10|0,0:0|1:2,0:0:0:0:
72,187,79290,2,0,L|87:268,1,77.0000023498536,10|0,0:0|1:2,0:0:0:0:
176,283,79606,6,0,P|111:281|91:361,1,154.000004699707,6|8,1:2|0:0,0:0:0:0:
173,367,80079,1,2,0:0:0:0:
261,319,80237,2,0,L|254:241,1,77.0000023498536,10|0,0:0|1:2,0:0:0:0:
186,184,80553,2,0,L|193:106,1,77.0000023498536,10|0,0:0|1:2,0:0:0:0:
275,62,80869,6,0,P|243:32|165:25,2,115.50000352478,10|2|2,0:0|0:0|0:0,0:0:0:0:
296,161,81500,2,0,P|328:131|406:124,2,115.50000352478,10|2|2,0:0|0:0|0:0,0:0:0:0:
210,243,82132,6,0,B|153:239|153:239|129:257|129:257|60:251,1,140,6|0,1:2|0:0,0:0:0:0:
5,203,82606,1,0,1:2:0:0:
5,203,82764,2,0,P|43:265|25:334,1,140,10|2,0:0|0:0,0:0:0:0:
91,384,83237,1,0,0:0:0:0:
166,333,83395,6,0,L|166:223,2,105,2|2|2,1:2|0:0|1:2,0:0:0:0:
252,286,84027,2,0,L|251:205,1,70,10|0,0:0|1:2,0:0:0:0:
188,147,84342,2,0,L|188:64,1,70,10|2,0:0|0:0,0:0:0:0:
254,13,84658,6,0,B|292:5|292:5|332:16,1,70,6|2,1:2|0:0,0:0:0:0:
392,70,84974,2,0,L|392:148,1,70,10|2,0:0|0:0,0:0:0:0:
363,240,85290,2,0,P|344:259|314:273,2,46.6666666666667,0|0|0,3:2|3:2|3:2,0:0:0:0:
438,218,85606,2,0,P|463:220|490:235,2,46.6666666666667,0|0|0,3:2|3:2|3:2,0:0:0:0:
382,167,85921,6,0,B|287:158|323:227|227:208,1,168,6|0,3:2|0:0,0:0:0:0:
159,149,86553,2,0,B|141:123|124:112|124:112|135:182|97:173|114:236,1,168,2|0,3:2|0:0,0:0:0:0:
172,292,87185,6,0,P|109:317|48:288,1,140,4|8,1:2|0:0,0:0:0:0:
7,215,87658,1,0,1:2:0:0:
40,134,87816,2,0,L|38:57,2,70,0|0|8,1:2|0:0|0:0,0:0:0:0:
121,179,88290,2,0,P|163:175|214:93,1,140,0|0,1:2|1:2,0:0:0:0:
216,15,88764,1,8,0:0:0:0:
301,44,88921,1,0,1:2:0:0:
301,44,89079,2,0,L|375:39,1,70,0|0,1:2|0:0,0:0:0:0:
428,117,89395,2,0,L|355:122,1,70,8|0,0:0|0:0,0:0:0:0:
253,138,89711,6,0,B|202:147|192:207|192:207|219:253,1,140,0|8,1:2|0:0,0:0:0:0:
272,316,90185,1,0,1:2:0:0:
192,350,90342,2,0,P|155:353|119:346,2,70,0|0|8,1:2|0:0|0:0,0:0:0:0:
272,316,90816,2,0,P|325:305|413:323,1,140,0|0,1:2|1:2,0:0:0:0:
491,357,91290,1,8,0:0:0:0:
491,357,91448,1,0,1:2:0:0:
495,264,91606,2,0,L|490:193,1,70,0|0,1:2|0:0,0:0:0:0:
397,236,91921,2,0,L|389:122,1,105,8|0,0:0|0:0,0:0:0:0:
376,110,92237,6,0,B|326:104|326:104|282:130|282:130|222:118,1,140,4|8,1:2|0:0,0:0:0:0:
162,97,92711,1,0,1:2:0:0:
104,39,92869,2,0,P|73:30|34:32,2,70,0|0|8,1:2|0:0|0:0,0:0:0:0:
63,110,93342,2,0,P|27:168|51:240,1,140,0|0,1:2|1:2,0:0:0:0:
131,265,93816,1,8,0:0:0:0:
186,186,93974,1,0,1:2:0:0:
186,186,94132,2,0,L|100:182,1,70,0|0,1:2|0:0,0:0:0:0:
195,101,94448,2,0,L|281:105,1,70,8|0,0:0|0:0,0:0:0:0:
368,143,94764,6,0,B|400:180|400:180|402:230|402:230|380:278,1,140,4|8,1:2|0:0,0:0:0:0:
327,337,95237,1,0,1:2:0:0:
236,318,95395,2,0,L|150:319,2,70,0|0|8,1:2|1:2|0:0,0:0:0:0:
292,242,95869,5,0,1:2:0:0:
229,80,96185,1,0,1:2:0:0:
164,147,96342,1,0,0:0:0:0:
164,147,96500,1,0,1:2:0:0:
98,72,96658,2,0,L|97:-7,1,70,8|0,0:0|1:2,0:0:0:0:
33,156,96974,2,0,L|35:239,1,70,8|0,0:0|0:0,0:0:0:0:
87,85,97290,5,4,1:2:0:0:
256,192,97369,12,0,99185,0:0:0:0:
