osu file format v14

[General]
AudioFilename: audio.mp3
AudioLeadIn: 0
PreviewTime: 27643
Countdown: 1
SampleSet: None
StackLeniency: 0.7
Mode: 0
LetterboxInBreaks: 0
WidescreenStoryboard: 1

[Editor]
DistanceSpacing: 1.1
BeatDivisor: 8
GridSize: 8
TimelineZoom: 1.600001

[Metadata]
Title:Fundy
TitleUnicode:Fundy
Artist:NEO
ArtistUnicode:NEO
Creator:Zanilis-
Version:Normal
Source:
Tags:
BeatmapID:2022689
BeatmapSetID:933357

[Difficulty]
HPDrainRate:4.5
CircleSize:3.8
OverallDifficulty:4
ApproachRate:5.5
SliderMultiplier:1.5
SliderTickRate:2

[Events]
//Background and Video events
0,0,"43156_dark-forest-images-wallpapers-for-anime-2-desktop-backgrounds_1920x1080_h.jpg",0,0
//Break Periods
//Storyboard Layer 0 (Background)
//Storyboard Layer 1 (Fail)
//Storyboard Layer 2 (Pass)
//Storyboard Layer 3 (Foreground)
//Storyboard Sound Samples

[TimingPoints]
2043,800,4,1,0,100,1,0
2043,-133.333333333333,4,1,0,100,0,0
27643,-111.111111111111,4,1,0,100,0,0
37243,-83.3333333333333,4,1,0,100,0,0
40443,-66.6666666666667,4,1,0,100,0,1
66043,-83.3333333333333,4,1,0,100,0,0
66843,-200,4,1,0,100,0,0
77643,-100,4,1,0,100,0,0
78843,-76.9230769230769,4,1,0,100,0,0
80443,-71.4285714285714,4,1,0,100,0,0
82043,-66.6666666666667,4,1,0,100,0,0
83643,-62.5,4,1,0,100,0,0
85243,-90.9090909090909,4,1,0,100,0,0
88443,-71.4285714285714,4,1,0,100,0,0

[Colours]
Combo1 : 67,123,26
Combo2 : 210,0,0
Combo3 : 190,16,107
Combo4 : 89,68,69
Combo5 : 33,140,248
Combo6 : 192,192,192

[HitObjects]
109,94,2043,6,0,P|172:81|218:92,7,112.500004291535
310,219,8443,2,0,P|385:226|410:200,7,112.500004291535
436,130,14443,1,0,0:0:0:0:
457,54,14843,6,0,B|417:48|377:59|377:59|356:53|338:54,1,112.500004291535
275,89,16043,1,0,0:0:0:0:
203,121,16443,2,0,P|151:133|114:128,1,84.3750032186509
174,24,17643,1,0,0:0:0:0:
174,24,18043,6,0,B|160:80|160:80|174:135,1,112.500004291535
196,208,19243,1,0,0:0:0:0:
118,196,19643,2,0,B|55:184|55:184|27:197,1,84.3750032186509
72,305,20843,1,0,0:0:0:0:
72,305,21243,6,0,B|128:316|128:316|187:298,1,112.500004291535
254,270,22443,1,0,0:0:0:0:
325,237,22843,2,0,B|378:213|378:213|393:208|415:212,1,84.3750032186509
399,328,24043,1,0,0:0:0:0:
399,328,24443,6,0,P|342:322|294:357,1,112.500004291535
225,320,25643,1,0,0:0:0:0:
149,343,26043,2,0,L|63:347,1,84.3750032186509
31,325,26843,2,0,L|6:302,2,28.1250010728836
88,250,27643,6,0,P|127:219|215:217,2,134.999995880127
166,303,29643,1,0,0:0:0:0:
168,208,30043,2,0,L|169:115,1,67.4999979400635
111,64,30843,6,0,B|164:40|189:93|247:64,2,134.999995880127
137,154,32843,1,0,0:0:0:0:
231,161,33243,2,0,L|310:161,1,67.4999979400635
323,252,34043,5,0,0:0:0:0:
267,175,34443,2,0,L|268:124,2,33.7499989700318
323,99,35243,2,0,L|325:48,2,33.7499989700318
321,193,36043,2,0,L|322:255,2,33.7499989700318
388,126,36843,1,0,0:0:0:0:
267,87,37243,6,0,L|211:102,3,44.999998626709
167,68,38043,2,0,L|101:81,3,44.999998626709
89,129,38843,1,0,0:0:0:0:
277,158,39643,6,0,P|270:126|273:98,2,44.999998626709
277,158,40443,6,0,P|313:114|380:126,1,112.500004291535
340,271,41243,6,0,P|283:277|265:288,1,56.2500021457673
251,347,41643,2,0,P|195:358|175:349,1,56.2500021457673
164,287,42043,2,0,P|107:293|89:304,1,56.2500021457673
75,363,42443,2,0,P|19:374|-1:365,1,56.2500021457673
2,298,42843,2,0,P|-8:257|4:220,1,56.2500021457673
54,192,43243,1,0,0:0:0:0:
54,192,43643,6,0,L|172:188,1,112.500004291535
216,248,44243,1,0,0:0:0:0:
216,248,44443,2,0,L|267:203,1,56.2500021457673
331,239,44843,6,0,P|360:251|406:249,1,56.2500021457673
438,195,45243,2,0,P|456:158|446:128,1,56.2500021457673
384,108,45643,2,0,P|349:97|307:107,1,56.2500021457673
283,161,46043,6,0,P|223:183|187:142,1,112.500004291535
191,154,46843,2,0,P|126:180|86:139,1,112.500004291535
217,259,47643,6,0,P|256:268|293:253,1,56.2500021457673
308,195,48043,2,0,P|335:191|386:208,1,56.2500021457673
396,267,48443,2,0,P|444:273|480:253,1,56.2500021457673
497,207,48843,2,0,P|521:166|510:131,1,56.2500021457673
459,109,49243,2,0,P|404:121|380:111,1,56.2500021457673
341,74,49643,2,0,P|282:62|236:78,1,56.2500021457673
226,113,50043,5,0,0:0:0:0:
370,49,50443,6,0,P|331:40|301:44,1,56.2500021457673
253,89,50843,1,0,0:0:0:0:
406,123,51243,6,0,P|366:126|338:112,1,56.2500021457673
321,48,51643,6,0,P|235:38|179:61,1,112.500004291535
144,86,52243,1,0,0:0:0:0:
178,156,52443,6,0,P|238:204|309:150,1,168.750006437302
356,98,53243,6,0,L|429:97,1,56.2500021457673
491,97,53643,2,0,L|351:96,1,112.500004291535
403,252,54443,6,0,P|341:248|280:273,1,112.500004291535
228,220,55043,2,0,P|178:238|150:236,1,56.2500021457673
174,158,55443,1,0,0:0:0:0:
101,127,55643,6,0,P|80:97|75:61,1,56.2500021457673
141,34,56043,2,0,P|173:45|220:35,1,56.2500021457673
251,99,56443,6,0,P|295:84|372:102,1,112.500004291535
309,155,57043,1,0,0:0:0:0:
309,233,57243,5,0,0:0:0:0:
309,233,57643,6,0,P|224:245|167:221,1,112.500004291535
178,162,58243,2,0,P|117:153|96:162,1,56.2500021457673
71,210,58643,1,0,0:0:0:0:
94,285,58843,6,0,B|173:324|220:242,1,112.500004291535
261,318,59443,1,0,0:0:0:0:
317,262,59643,6,0,L|447:263,2,112.500004291535
317,262,60843,6,0,P|298:191|322:137,1,112.500004291535
388,149,61443,2,0,P|403:112|394:78,1,56.2500021457673
348,38,61843,1,0,0:0:0:0:
285,85,62043,6,0,P|230:97|201:88,1,56.2500021457673
173,43,62443,2,0,P|129:41|97:54,1,56.2500021457673
83,115,62843,2,0,L|81:243,1,112.500004291535
143,276,63443,1,0,0:0:0:0:
221,279,63643,5,0,0:0:0:0:
221,279,64043,6,0,P|281:235|274:170,1,112.500004291535
217,161,64643,2,0,P|233:104|250:86,1,56.2500021457673
302,75,65043,1,0,0:0:0:0:
348,138,65243,6,0,P|401:155|454:121,1,112.500004291535
448,129,66043,6,0,L|448:32,1,89.9999972534181
448,39,66843,6,0,B|353:34|361:137|435:137|435:137|474:175|441:232|441:232|409:283|341:271|316:239|316:239|272:187,1,487.5
228,209,72443,6,0,P|184:161|94:173,2,150
175,174,77643,6,0,L|163:116,1,37.5
206,102,78043,2,0,L|232:49,1,37.5
275,67,78443,2,0,L|318:44,1,37.5
367,83,78843,6,0,P|411:91|462:87,4,73.1249966526033
303,56,80243,1,0,0:0:0:0:
244,100,80443,2,0,P|204:135|191:171,4,78.7499975967408
272,168,81843,1,0,0:0:0:0:
332,217,82043,2,0,P|364:258|371:306,4,84.3750032186509
263,176,83443,1,0,0:0:0:0:
183,202,83643,2,0,P|145:229|129:275,2,90
216,279,84443,5,0,0:0:0:0:
317,241,84843,1,0,0:0:0:0:
408,170,85243,6,0,L|415:80,1,82.5000025177003
299,75,86043,2,0,L|302:172,1,82.5000025177003
188,181,86843,2,0,L|158:91,1,82.5000025177003
47,121,87643,2,0,L|116:183,1,82.5000025177003
112,291,88443,2,0,L|175:254,1,52.4999983978272
172,208,88843,2,0,L|228:171,1,52.4999983978272
270,197,89243,2,0,L|333:190,1,52.4999983978272
354,143,89643,2,0,L|408:159,1,52.4999983978272
422,212,90043,1,0,0:0:0:0:
