osu file format v14

[General]
AudioFilename: audio.mp3
AudioLeadIn: 0
PreviewTime: 28518
Countdown: 0
SampleSet: Soft
StackLeniency: 0.6
Mode: 0
LetterboxInBreaks: 0
WidescreenStoryboard: 1

[Editor]
Bookmarks: 6108,8965,11822,14679,17536,20393,23251,26108,28965,31822,34679,37536,40393,43251,46108,48965,51822,54679,57536,60393,63251,66108,68965,71822,74679,77536,80393,83251,86108
DistanceSpacing: 1.4
BeatDivisor: 4
GridSize: 32
TimelineZoom: 1

[Metadata]
Title:sharp # (TV Size)
TitleUnicode:sharp ♯ (TV Size)
Artist:NEGOTO
ArtistUnicode:ねごと
Creator:Chaoslitz
Version:Insane
Source:機動戦士ガンダムAGE
Tags:Mobile Suit Gundam AGE opening op op2 Anime Japanese
BeatmapID:2347300
BeatmapSetID:1123299

[Difficulty]
HPDrainRate:6
CircleSize:4.3
OverallDifficulty:8
ApproachRate:8.5
SliderMultiplier:1.6
SliderTickRate:1

[Events]
//Background and Video events
0,0,"bg.jpg",0,0
Video,207,"video.avi"
//Break Periods
//Storyboard Layer 0 (Background)
//Storyboard Layer 1 (Fail)
//Storyboard Layer 2 (Pass)
//Storyboard Layer 3 (Foreground)
//Storyboard Layer 4 (Overlay)
//Storyboard Sound Samples

[TimingPoints]
394,357.142857142857,4,2,1,80,1,0
6108,-111.111111111111,4,2,1,75,0,0
28608,-105.263157894737,4,2,1,90,0,0
28965,-100,4,2,2,100,0,1
29143,-100,4,2,3,100,0,1
40036,-105.263157894737,4,2,1,90,0,0
40393,-100,4,2,2,100,0,1
40572,-100,4,2,3,100,0,1
45751,-100,4,2,0,100,0,1
45929,-100,4,2,3,100,0,1
48965,-100,4,2,3,90,0,0
50393,-100,4,2,1,90,0,0
51465,-111.111111111111,4,2,1,75,0,0
51822,-133.333333333333,4,2,1,60,0,0
53429,-133.333333333333,4,2,1,40,0,0
53608,-133.333333333333,4,2,1,60,0,0
55036,-133.333333333333,4,2,1,65,0,0
57536,-133.333333333333,4,2,1,70,0,0
59679,-133.333333333333,4,2,4,80,0,0
59858,-133.333333333333,4,2,1,85,0,0
60929,-133.333333333333,4,2,1,75,0,0
61108,-117.647058823529,4,2,1,75,0,0
62179,-100,4,2,1,80,0,0
62893,-105.263157894737,4,2,1,90,0,0
63251,-100,4,2,2,100,0,1
63429,-100,4,2,3,100,0,1
74322,-83.3333333333333,4,2,1,90,0,0
74679,-100,4,2,2,100,0,1
74858,-100,4,2,3,100,0,1
80037,-100,4,2,0,100,0,1
80215,-100,4,2,3,100,0,1
83251,-100,4,2,3,90,0,0
84679,-100,4,2,1,90,0,0
85393,400,4,2,1,80,1,0
85593,363.636363636364,4,2,1,70,1,0
85774,-166.666666666667,4,2,1,75,0,0
85956,517.241379310345,4,2,1,70,1,0
86214,357.142857142857,4,2,1,90,1,0
90499,-100,4,2,1,80,0,0
91928,-100,4,2,1,70,0,0
93356,-100,4,2,1,60,0,0
94785,-100,4,2,1,45,0,0
96214,-100,4,2,1,30,0,0
97642,-100,4,2,1,15,0,0
97731,-100,4,2,1,30,0,0

[Colours]
Combo1 : 255,111,129
Combo2 : 89,103,246
Combo3 : 251,231,91
SliderBorder : 42,198,170
SliderTrackOverride : 250,250,250

[HitObjects]
256,192,3251,12,0,4322,1:0:0:0:
19,368,4679,5,8,0:0:0:0:
19,368,4858,1,8,0:0:0:0:
98,268,5036,2,0,B|77:303|77:303|98:360,1,80,4|0,1:2|0:0,0:0:0:0:
202,307,5393,1,8,0:0:0:0:
202,307,5483,2,0,L|156:311,2,40,8|8|8,0:1|0:1|0:1,0:0:0:0:
331,340,5751,6,0,P|264:359|259:355,1,80,8|10,1:0|0:0,0:0:0:0:
202,307,6018,1,0,1:0:0:0:
202,307,6108,6,0,L|211:217,1,71.9999978027344,14|0,0:0|3:0,0:0:0:0:
92,81,6465,1,0,1:0:0:0:
152,185,6643,2,0,B|139:151|139:151|176:91,1,71.9999978027344,0|0,3:0|0:0,0:0:0:0:
296,153,7001,2,0,L|222:159,1,71.9999978027344,8|0,3:2|1:0,0:0:0:0:
136,261,7358,1,2,0:0:0:0:
267,342,7537,5,10,0:0:0:0:
195,369,7715,2,0,P|193:365|204:299,1,71.9999978027344,8|0,3:2|1:0,0:0:0:0:
334,381,8072,2,0,P|338:374|260:266,1,143.999995605469,0|8,3:0|3:2,0:0:0:0:
267,342,8608,1,0,1:0:0:0:
308,192,8786,1,2,0:0:0:0:
448,226,8965,6,0,L|374:232,1,71.9999978027344,10|0,0:0|3:0,0:0:0:0:
512,274,9322,1,0,1:0:0:0:
433,371,9501,2,0,B|420:337|420:337|459:275,1,71.9999978027344,0|0,3:0|0:0,0:0:0:0:
455,154,9858,2,0,L|446:244,1,71.9999978027344,8|0,3:2|1:0,0:0:0:0:
391,106,10215,1,2,0:0:0:0:
247,158,10393,5,10,0:0:0:0:
324,67,10572,2,0,B|306:98|306:98|319:132,1,71.9999978027344,8|0,3:2|1:0,0:0:0:0:
512,75,10929,2,0,P|379:95|373:87,1,143.999995605469,0|8,3:0|3:2,0:0:0:0:
259,24,11465,1,0,1:0:0:0:
175,164,11643,5,2,0:0:0:0:
175,164,11822,2,0,L|249:158,2,71.9999978027344,10|0|0,0:0|3:0|1:0,0:0:0:0:
308,209,12358,1,2,3:2:0:0:
226,308,12536,2,0,L|235:218,2,71.9999978027344,2|8|0,0:0|3:2|1:0,0:0:0:0:
332,360,13072,1,2,0:0:0:0:
247,158,13251,5,10,0:0:0:0:
162,242,13429,2,0,L|236:236,1,71.9999978027344,8|0,3:2|1:0,0:0:0:0:
432,154,13786,2,0,B|362:143|379:219|309:209,1,143.999995605469,0|8,3:0|3:2,0:0:0:0:
173,122,14322,2,0,B|160:88|160:88|197:28,1,71.9999978027344,0|0,1:0|0:0,0:0:0:0:
247,158,14679,6,0,L|99:170,2,143.999995605469,10|2|2,0:0|1:2|0:0,0:0:0:0:
309,209,15572,1,8,3:2:0:0:
390,45,15751,6,0,P|385:43|322:130,1,143.999995605469,2|8,1:2|0:0,0:0:0:0:
319,126,16286,1,8,3:2:0:0:
295,288,16465,1,2,1:2:0:0:
381,203,16643,2,0,L|307:209,1,71.9999978027344,0|0,3:0|0:0,0:0:0:0:
247,158,17001,1,8,3:2:0:0:
281,369,17179,1,0,1:0:0:0:
458,209,17358,1,2,1:2:0:0:
417,235,17447,1,0,1:0:0:0:
381,203,17536,5,14,0:0:0:0:
223,294,17715,2,0,L|297:288,1,71.9999978027344,0|0,3:0|1:0,0:0:0:0:
153,329,18072,2,0,P|31:306|23:315,1,143.999995605469,0|8,3:0|3:2,0:0:0:0:
83,364,18608,1,0,1:0:0:0:
175,184,18786,1,2,3:2:0:0:
108,145,18965,6,0,B|90:176|90:176|103:210,1,71.9999978027344,10|8,0:0|3:2,0:0:0:0:
223,294,19322,1,0,1:0:0:0:
247,178,19501,2,0,L|173:184,1,71.9999978027344,0|0,3:0|0:0,0:0:0:0:
315,216,19858,2,0,L|389:210,1,71.9999978027344,8|0,3:2|1:0,0:0:0:0:
493,317,20215,1,2,0:0:0:0:
347,367,20393,5,10,0:0:0:0:
426,278,20572,2,0,B|408:309|408:309|421:343,1,71.9999978027344,0|0,3:0|1:0,0:0:0:0:
387,210,20929,2,0,L|403:48,1,143.999995605469,0|8,3:0|3:2,0:0:0:0:
362,0,21465,1,0,1:0:0:0:
222,74,21643,1,2,3:2:0:0:
292,37,21822,6,0,B|309:67|309:67|296:101,1,71.9999978027344,10|8,0:0|3:2,0:0:0:0:
161,124,22179,1,0,1:0:0:0:
227,223,22358,2,0,L|236:133,1,71.9999978027344,0|0,3:0|0:0,0:0:0:0:
91,124,22715,2,0,B|96:129|96:129|184:122,1,71.9999978027344,8|0,3:2|1:0,0:0:0:0:
304,254,23072,5,2,0:0:0:0:
300,250,23251,2,0,L|309:160,2,71.9999978027344,10|0|0,0:0|3:0|1:0,0:0:0:0:
296,102,23786,1,2,3:2:0:0:
162,157,23965,2,0,L|236:151,2,71.9999978027344,2|8|0,0:0|3:2|1:0,0:0:0:0:
44,95,24501,1,2,3:2:0:0:
144,233,24679,5,10,0:0:0:0:
69,255,24858,2,0,B|64:248|64:248|75:150,1,71.9999978027344,8|0,3:2|1:0,0:0:0:0:
126,309,25215,2,0,B|196:300|176:375|247:368,1,143.999995605469,0|8,3:0|3:2,0:0:0:0:
262,225,25751,2,0,P|258:229|316:306,1,71.9999978027344,0|0,1:0|0:0,0:0:0:0:
463,326,26108,6,0,L|315:338,2,143.999995605469,10|2|2,0:0|1:2|0:0,0:0:0:0:
409,381,27001,1,8,3:2:0:0:
374,210,27179,2,0,B|379:217|379:217|368:315,1,71.9999978027344,2|0,1:2|3:0,0:0:0:0:
462,149,27536,6,0,L|395:154,1,35.9999989013672,12|0,0:0|0:0,0:0:0:0:
299,232,27715,5,0,1:0:0:0:
263,200,27804,1,0,1:0:0:0:
249,155,27893,1,10,1:2:0:0:
262,109,27982,1,0,1:0:0:0:
295,75,28072,1,0,1:0:0:0:
342,67,28161,1,0,1:0:0:0:
387,83,28251,5,8,1:2:0:0:
339,102,28340,1,0,1:0:0:0:
316,57,28429,2,0,P|315:53|329:13,1,35.9999989013672,8|8,0:3|1:0,0:0:0:0:
470,73,28608,6,0,L|461:163,1,75.9999979705811,2|8,1:2|0:0,0:0:0:0:
504,217,28876,1,8,0:0:0:0:
512,211,28965,6,0,P|420:272|425:281,2,160,14|0|10,0:0|1:0|0:0,0:0:0:0:
471,337,29858,1,8,0:0:0:0:
342,282,30036,2,0,L|424:275,1,80,2|0,1:0|0:0,0:0:0:0:
182,360,30393,6,0,P|264:339|269:342,1,80,10|8,0:0|0:0,0:0:0:0:
259,339,30661,2,0,L|268:249,1,80,2|0,0:1|0:0,0:0:0:0:
248,182,30929,1,2,0:1:0:0:
112,240,31108,2,0,B|116:244|116:244|189:238,1,80,10|8,0:0|0:0,0:0:0:0:
179,87,31465,2,0,B|158:121|158:121|183:195,1,80,2|0,1:0|0:0,0:0:0:0:
271,263,31822,5,10,0:0:0:0:
271,263,32001,1,8,0:0:0:0:
408,169,32179,2,0,L|227:184,1,160,2|10,1:0|0:0,0:0:0:0:
190,238,32715,1,8,0:0:0:0:
264,338,32893,2,0,B|260:332|260:332|268:260,1,80,2|2,1:0|0:1,0:0:0:0:
335,112,33251,6,0,P|247:179|252:187,2,160,10|2|10,0:0|1:0|0:1,0:0:0:0:
268,260,34143,1,8,0:0:0:0:
407,197,34322,2,0,L|262:209,1,80,0|8,1:0|0:0,0:0:0:0:
260,350,34679,6,0,P|348:283|343:275,1,160,14|2,0:0|1:0,0:0:0:0:
190,262,35215,2,0,B|194:266|194:266|267:260,1,80,2|10,0:1|0:0,0:0:0:0:
124,219,35572,2,0,B|103:253|103:253|129:325,1,80,10|0,0:1|1:0,0:0:0:0:
196,183,35929,6,0,P|198:181|92:104,1,160,2|10,0:1|0:1,0:0:0:0:
0,126,36465,1,0,1:0:0:0:
80,26,36643,2,0,B|59:60|59:60|85:132,1,80,2|10,0:1|0:0,0:0:0:0:
227,62,37001,1,10,0:1:0:0:
227,62,37179,2,0,L|82:74,1,80,2|0,1:0|0:0,0:0:0:0:
293,104,37536,6,0,B|364:84|352:186|430:167,1,160,10|0,0:0|1:0,0:0:0:0:
497,135,38072,1,2,0:1:0:0:
505,10,38251,2,0,P|502:8|452:105,2,160,10|2|10,0:0|1:0|0:0,0:0:0:0:
369,47,39143,5,8,0:0:0:0:
423,246,39322,2,0,B|419:240|419:240|427:168,1,80,2|8,1:0|0:0,0:0:0:0:
326,122,39590,1,0,1:0:0:0:
326,122,39679,2,0,B|330:126|330:126|403:120,1,40,10|8,1:0|1:0,0:0:0:0:
470,83,39858,2,0,P|422:87|419:85,1,40,0|8,1:0|1:0,0:0:0:0:
294,36,40037,5,6,1:3:0:0:
248,25,40126,1,8,1:0:0:0:
206,47,40215,1,8,0:3:0:0:
189,91,40304,1,8,0:3:0:0:
205,136,40393,6,0,L|386:121,2,160,14|0|10,0:0|1:0|0:0,0:0:0:0:
58,191,41286,1,8,0:0:0:0:
139,92,41465,2,0,B|118:126|118:126|144:198,1,80,2|0,1:0|0:0,0:0:0:0:
203,370,41822,6,0,P|207:362|133:285,1,80,10|8,0:0|0:0,0:0:0:0:
184,292,42090,2,0,L|193:202,1,80,2|0,0:1|0:0,0:0:0:0:
205,136,42358,1,2,0:1:0:0:
345,179,42536,2,0,L|200:191,1,80,10|8,0:0|0:0,0:0:0:0:
139,92,42893,2,0,B|118:126|118:126|144:198,1,80,2|0,1:0|0:0,0:0:0:0:
269,189,43251,5,10,0:0:0:0:
269,189,43429,1,8,0:0:0:0:
203,370,43608,2,0,P|171:373|151:245,1,160,2|10,1:0|0:0,0:0:0:0:
182,225,44143,1,8,0:0:0:0:
53,165,44322,2,0,B|57:169|57:169|130:163,1,80,2|2,1:0|0:1,0:0:0:0:
316,161,44679,6,0,B|245:141|257:243|179:224,2,160,10|2|10,0:0|1:0|0:1,0:0:0:0:
448,249,45572,1,8,0:0:0:0:
296,360,45751,1,4,1:2:0:0:
374,276,45929,1,8,0:0:0:0:
374,276,46018,1,0,3:0:0:0:
374,276,46108,6,0,B|360:238|360:238|400:173,1,80,14|8,0:0|0:0,0:0:0:0:
461,45,46465,1,2,1:0:0:0:
461,45,46643,2,0,P|458:43|408:140,1,160,2|8,0:1|0:0,0:0:0:0:
238,163,47179,2,0,B|242:167|242:167|315:161,1,80,2|0,1:0|0:0,0:0:0:0:
461,198,47536,6,0,L|316:210,1,80,10|8,0:0|0:0,0:0:0:0:
289,353,47893,2,0,P|377:286|372:278,1,160,0|10,1:0|0:0,0:0:0:0:
310,239,48429,1,8,0:0:0:0:
389,133,48608,2,0,B|368:167|368:167|394:239,1,80,0|0,1:0|0:0,0:0:0:0:
505,272,48965,5,14,0:0:0:0:
256,192,49054,12,0,50215,0:0:0:0:
53,165,50393,5,12,0:0:0:0:
139,283,50572,2,0,L|146:211,1,40,8|8,0:1|0:1,0:0:0:0:
53,165,50751,2,0,B|57:169|57:169|130:163,1,80,8|0,1:2|3:0,0:0:0:0:
210,197,51018,1,8,0:1:0:0:
210,197,51108,1,8,1:2:0:0:
151,364,51286,1,8,0:3:0:0:
34,285,51465,6,0,B|41:291|41:291|167:281,1,107.999996704102,6|0,0:3|0:0,0:0:0:0:
214,312,51822,6,0,L|344:301,2,120.000004577637,12|8|8,0:0|0:0|0:0,0:0:0:0:
408,331,52893,1,10,0:0:0:0:
402,198,53251,6,0,B|386:223|386:223|405:277,1,60.0000022888184,10|0,0:0|0:0,0:0:0:0:
469,280,53608,1,10,0:0:0:0:
329,169,53965,2,0,L|343:25,2,120.000004577637,10|10|10,0:0|0:0|0:0,0:0:0:0:
208,26,55036,6,0,L|273:20,2,60.0000022888184,0|0|8,1:0|0:0|0:0,0:0:0:0:
145,75,55572,1,0,0:0:0:0:
216,162,55751,2,0,B|212:156|212:156|220:84,1,60.0000022888184,2|0,1:2|0:0,0:0:0:0:
87,76,56108,6,0,B|91:80|91:80|164:74,1,60.0000022888184,10|0,0:0|0:0,0:0:0:0:
25,124,56465,2,0,P|14:105|99:-2,2,120.000004577637,2|10|2,1:2|0:0|1:2,0:0:0:0:
98,154,57358,1,0,0:0:0:0:
207,66,57536,6,0,L|77:77,1,120.000004577637,10|0,0:0|1:0,0:0:0:0:
25,124,58072,1,0,0:0:0:0:
96,212,58251,2,0,B|92:206|92:206|100:134,1,60.0000022888184,10|0,0:0|0:0,0:0:0:0:
224,169,58608,2,0,P|215:178|142:140,1,60.0000022888184,2|0,1:2|0:0,0:0:0:0:
36,217,58965,6,0,L|140:208,1,60.0000022888184,10|0,0:0|0:0,0:0:0:0:
147,383,59322,2,0,L|161:236,1,120.000004577637,2|12,1:2|0:0,0:0:0:0:
308,313,59858,1,0,1:0:0:0:
71,355,60036,1,6,0:3:0:0:
71,355,60215,1,4,0:3:0:0:
266,240,60393,5,12,0:0:0:0:
266,240,60929,5,6,0:3:0:0:
308,313,61108,2,0,B|366:296|356:380|421:365,1,136.000002593994,0|2,1:0|0:0,0:0:0:0:
437,223,61643,2,0,P|434:226|475:307,1,68.0000012969971,8|8,0:3|0:0,0:0:0:0:
495,332,62001,1,10,0:3:0:0:
339,150,62179,6,0,L|419:144,1,80,12|8,0:0|0:3,0:0:0:0:
473,211,62446,1,8,0:1:0:0:
473,211,62536,2,0,P|426:217|421:212,1,40,10|8,0:0|0:1,0:0:0:0:
419,144,62715,2,0,L|425:81,1,40,8|8,1:0|1:0,0:0:0:0:
297,19,62893,6,0,B|277:52|277:52|304:120,1,75.9999979705811,2|8,1:2|0:0,0:0:0:0:
331,156,63161,1,8,0:0:0:0:
339,150,63251,6,0,P|247:211|252:220,2,160,14|0|10,0:0|1:0|0:0,0:0:0:0:
321,287,64143,1,8,0:0:0:0:
451,218,64322,2,0,L|306:230,1,80,2|0,1:0|0:0,0:0:0:0:
213,366,64679,6,0,P|212:364|298:302,1,80,10|8,0:0|0:0,0:0:0:0:
241,293,64947,2,0,L|250:197,1,80,2|0,0:1|0:0,0:0:0:0:
306,157,65215,1,2,0:1:0:0:
237,62,65393,2,0,B|216:96|216:96|241:170,1,80,10|8,0:0|0:0,0:0:0:0:
169,220,65751,2,0,L|314:208,1,80,2|0,1:0|0:0,0:0:0:0:
329,240,66108,5,10,0:0:0:0:
329,240,66286,1,8,0:0:0:0:
355,364,66465,2,0,P|267:297|272:289,1,160,2|10,1:0|0:0,0:0:0:0:
325,236,67001,1,8,0:0:0:0:
257,141,67179,2,0,B|236:175|236:175|262:248,1,80,2|2,1:0|0:1,0:0:0:0:
134,355,67536,6,0,B|204:376|194:274|272:294,2,160,10|2|10,0:0|1:0|0:1,0:0:0:0:
107,200,68429,1,8,0:0:0:0:
21,283,68608,2,0,B|25:287|25:287|98:281,1,80,0|8,1:0|0:0,0:0:0:0:
193,130,68965,6,0,P|105:197|110:205,1,160,14|2,0:0|1:0,0:0:0:0:
253,241,69501,2,0,L|108:253,1,80,2|10,0:1|0:0,0:0:0:0:
325,269,69858,2,0,B|339:231|339:231|299:165,1,80,10|0,0:1|1:0,0:0:0:0:
264,318,70215,6,0,B|335:298|323:400|401:381,1,160,2|10,0:1|0:1,0:0:0:0:
413,222,70751,1,0,1:0:0:0:
485,295,70929,2,0,L|340:307,1,80,2|10,0:1|0:0,0:0:0:0:
420,150,71286,1,10,0:1:0:0:
420,150,71465,2,0,B|399:184|399:184|425:257,1,80,2|0,1:0|0:0,0:0:0:0:
490,374,71822,6,0,P|403:305|408:297,1,160,10|0,0:0|1:0,0:0:0:0:
486,194,72358,1,2,0:1:0:0:
278,284,72536,2,0,B|348:305|338:203|416:223,2,160,10|2|10,0:0|1:0|0:0,0:0:0:0:
158,220,73429,5,8,0:0:0:0:
64,374,73608,2,0,L|209:362,1,80,2|8,1:0|0:0,0:0:0:0:
211,326,73876,1,0,1:0:0:0:
208,321,73965,2,0,P|164:298|158:301,1,40,10|8,1:0|1:0,0:0:0:0:
67,266,74143,2,0,P|69:268|130:255,1,40,0|8,1:0|1:0,0:0:0:0:
247,120,74322,5,6,1:3:0:0:
201,109,74411,1,8,1:0:0:0:
159,131,74500,1,8,0:3:0:0:
142,175,74589,1,8,0:3:0:0:
158,220,74679,6,0,L|339:205,2,160,14|0|10,0:0|1:0|0:0,0:0:0:0:
144,367,75572,1,8,0:0:0:0:
39,293,75751,2,0,B|43:297|43:297|116:291,1,80,2|0,1:0|0:0,0:0:0:0:
325,368,76108,6,0,P|323:364|216:391,1,80,10|8,0:0|0:0,0:0:0:0:
251,340,76376,2,0,L|260:250,1,80,2|0,0:1|0:0,0:0:0:0:
317,206,76643,1,2,0:1:0:0:
249,111,76822,2,0,B|228:145|228:145|254:218,1,80,10|8,0:0|0:0,0:0:0:0:
397,200,77179,2,0,L|252:212,1,80,2|0,1:0|0:0,0:0:0:0:
465,303,77536,6,0,L|474:213,1,80,10|8,0:0|0:0,0:0:0:0:
405,120,77893,2,0,L|396:210,1,80,2|0,1:0|0:0,0:0:0:0:
395,356,78251,2,0,P|307:289|312:281,1,160,10|2,0:0|1:0,0:0:0:0:
317,206,78786,1,2,0:1:0:0:
164,245,78965,6,0,L|280:236,1,80,10|0,0:0|0:0,0:0:0:0:
403,136,79322,2,0,P|315:203|320:211,1,160,2|10,1:0|0:1,0:0:0:0:
458,297,79858,1,8,0:0:0:0:
270,365,80036,1,4,1:2:0:0:
391,255,80215,1,8,0:0:0:0:
391,255,80304,1,0,3:0:0:0:
391,255,80393,6,0,B|370:289|370:289|396:361,1,80,14|8,0:0|0:0,0:0:0:0:
476,193,80751,1,2,1:0:0:0:
476,193,80929,2,0,L|313:205,1,160,2|8,0:1|0:0,0:0:0:0:
164,245,81465,2,0,L|280:236,1,80,2|0,1:0|0:0,0:0:0:0:
258,88,81822,6,0,B|237:122|237:122|263:194,1,80,10|8,0:0|0:0,0:0:0:0:
232,363,82179,2,0,P|311:285|306:279,1,160,0|10,1:0|0:0,0:0:0:0:
244,239,82715,1,8,0:0:0:0:
396,199,82893,2,0,L|280:208,1,80,0|0,1:0|0:0,0:0:0:0:
185,114,83251,5,14,0:0:0:0:
256,192,83340,12,0,84501,0:0:0:0:
105,364,84679,5,12,0:0:0:0:
61,191,84858,2,0,L|54:263,1,40,8|8,0:1|0:1,0:0:0:0:
105,364,85036,2,0,B|91:326|91:326|131:261,1,80,8|0,1:2|3:0,0:0:0:0:
183,341,85304,1,8,0:1:0:0:
183,341,85393,5,8,1:2:0:0:
318,265,85593,5,4,0:3:0:0:
413,315,85774,2,0,P|352:316|343:301,1,47.9999985351563,8|4,0:1|0:3,0:0:0:0:
256,192,86214,5,12,0:0:0:0:
256,192,86303,12,0,97731,3:0:0:0:
