osu file format v14

[General]
AudioFilename: audio.mp3
AudioLeadIn: 0
PreviewTime: 28518
Countdown: 0
SampleSet: Soft
StackLeniency: 0.6
Mode: 0
LetterboxInBreaks: 0
WidescreenStoryboard: 1

[Editor]
Bookmarks: 6108,8965,11822,14679,17536,20393,23251,26108,28965,31822,34679,37536,40393,43251,46108,48965,51822,54679,57536,60393,63251,66108,68965,71822,74679,77536,80393,83251,86108
DistanceSpacing: 1
BeatDivisor: 4
GridSize: 32
TimelineZoom: 1

[Metadata]
Title:sharp # (TV Size)
TitleUnicode:sharp ♯ (TV Size)
Artist:NEGOTO
ArtistUnicode:ねごと
Creator:Chaoslitz
Version:Easy
Source:機動戦士ガンダムAGE
Tags:Mobile Suit Gundam AGE opening op op2 Anime Japanese
BeatmapID:2360906
BeatmapSetID:1123299

[Difficulty]
HPDrainRate:2
CircleSize:3
OverallDifficulty:2
ApproachRate:3
SliderMultiplier:0.9
SliderTickRate:1

[Events]
//Background and Video events
0,0,"bg.jpg",0,0
Video,207,"video.avi"
//Break Periods
2,52022,58953
//Storyboard Layer 0 (Background)
//Storyboard Layer 1 (Fail)
//Storyboard Layer 2 (Pass)
//Storyboard Layer 3 (Foreground)
//Storyboard Layer 4 (Overlay)
//Storyboard Sound Samples

[TimingPoints]
394,357.142857142857,4,2,1,80,1,0
6108,-100,4,2,1,75,0,0
6465,-100,4,2,4,75,0,0
6554,-100,4,2,1,75,0,0
7893,-100,4,2,4,75,0,0
7983,-100,4,2,1,75,0,0
9322,-100,4,2,4,75,0,0
9411,-100,4,2,1,75,0,0
10751,-100,4,2,4,75,0,0
10840,-100,4,2,1,75,0,0
13608,-100,4,2,4,75,0,0
13697,-100,4,2,1,75,0,0
17893,-100,4,2,4,75,0,0
17983,-100,4,2,1,75,0,0
19322,-100,4,2,4,75,0,0
19411,-100,4,2,1,75,0,0
20751,-100,4,2,4,75,0,0
20840,-100,4,2,1,75,0,0
22179,-100,4,2,4,75,0,0
22268,-100,4,2,1,75,0,0
25036,-100,4,2,4,75,0,0
25126,-100,4,2,1,75,0,0
28608,-100,4,2,1,90,0,0
28965,-100,4,2,2,100,0,1
29143,-100,4,2,3,100,0,1
29322,-100,4,2,4,100,0,1
29411,-100,4,2,3,100,0,1
30751,-100,4,2,4,100,0,1
30840,-100,4,2,3,100,0,1
35036,-100,4,2,4,100,0,1
35126,-100,4,2,3,100,0,1
37893,-100,4,2,4,100,0,1
37983,-100,4,2,3,100,0,1
40036,-100,4,2,1,90,0,0
40393,-100,4,2,2,100,0,1
40572,-100,4,2,3,100,0,1
40751,-100,4,2,4,100,0,1
40840,-100,4,2,3,100,0,1
42179,-100,4,2,4,100,0,1
42268,-100,4,2,3,100,0,1
45751,-100,4,2,0,100,0,1
45929,-100,4,2,3,100,0,1
46465,-100,4,2,4,100,0,1
46554,-100,4,2,3,100,0,1
47893,-100,4,2,4,100,0,1
47983,-100,4,2,3,100,0,1
48608,-100,4,2,4,100,0,1
48697,-100,4,2,3,100,0,1
48965,-100,4,2,3,90,0,0
50393,-100,4,2,1,90,0,0
51465,-100,4,2,1,75,0,0
51822,-100,4,2,1,60,0,0
53429,-100,4,2,1,40,0,0
53608,-100,4,2,1,60,0,0
55036,-100,4,2,1,65,0,0
57536,-100,4,2,1,70,0,0
59679,-100,4,2,4,80,0,0
59858,-100,4,2,1,85,0,0
60929,-100,4,2,1,75,0,0
61108,-100,4,2,1,75,0,0
62179,-100,4,2,1,80,0,0
62893,-100,4,2,1,90,0,0
63251,-100,4,2,2,100,0,1
63429,-100,4,2,3,100,0,1
63608,-100,4,2,4,100,0,1
63697,-100,4,2,3,100,0,1
65036,-100,4,2,4,100,0,1
65126,-100,4,2,3,100,0,1
69322,-100,4,2,4,100,0,1
69411,-100,4,2,3,100,0,1
72179,-100,4,2,4,100,0,1
72268,-100,4,2,3,100,0,1
74322,-100,4,2,1,90,0,0
74679,-100,4,2,2,100,0,1
74858,-100,4,2,3,100,0,1
75036,-100,4,2,4,100,0,1
75126,-100,4,2,3,100,0,1
76465,-100,4,2,4,100,0,1
76554,-100,4,2,3,100,0,1
80037,-100,4,2,0,100,0,1
80215,-100,4,2,3,100,0,1
80751,-100,4,2,4,100,0,1
80840,-100,4,2,3,100,0,1
82179,-100,4,2,4,100,0,1
82268,-100,4,2,3,100,0,1
82893,-100,4,2,4,100,0,1
82983,-100,4,2,3,100,0,1
83251,-100,4,2,3,90,0,0
84679,-100,4,2,1,90,0,0
85393,400,4,2,1,80,1,0
85593,363.636363636364,4,2,1,70,1,0
85774,-100,4,2,1,75,0,0
85956,517.241379310345,4,2,1,70,1,0
86214,357.142857142857,4,2,1,90,1,0
90499,-100,4,2,1,80,0,0
91928,-100,4,2,1,70,0,0
93356,-100,4,2,1,60,0,0
94785,-100,4,2,1,45,0,0
96214,-100,4,2,1,30,0,0
97642,-100,4,2,1,15,0,0
97731,-100,4,2,1,30,0,0

[Colours]
Combo1 : 255,111,129
Combo2 : 89,103,246
Combo3 : 251,231,91
SliderBorder : 42,198,170
SliderTrackOverride : 250,250,250

[HitObjects]
64,206,4679,5,8,0:0:0:0:
138,259,5036,2,0,L|240:250,2,90,4|8|8,1:2|0:0|1:0,0:0:0:0:
109,345,6108,6,0,P|104:349|50:228,1,180,14|0,0:0|0:0,0:0:0:0:
64,206,7179,1,0,1:0:0:0:
14,131,7536,2,0,B|-10:67|-10:67|39:-12,2,135,10|0|0,0:0|3:0|1:0,0:0:0:0:
64,206,8965,6,0,B|105:216|105:216|136:188|136:188|230:177,1,180,10|0,0:0|0:0,0:0:0:0:
308,130,10036,1,0,1:0:0:0:
345,212,10393,2,0,B|313:270|313:270|337:334,2,135,10|0|0,0:0|3:0|1:0,0:0:0:0:
409,277,11822,6,0,L|502:269,1,90,10|0,0:0|1:0,0:0:0:0:
512,360,12536,2,0,L|419:368,1,90,2|0,0:0|1:0,0:0:0:0:
337,334,13251,2,0,L|169:348,2,135,10|0|0,0:0|3:0|1:0,0:0:0:0:
409,277,14679,6,0,B|394:234|394:234|429:173,1,90,10|2,0:0|1:2,0:0:0:0:
475,128,15392,1,2,0:0:0:0:
428,51,15750,2,0,L|335:59,1,90,2|8,1:2|0:0,0:0:0:0:
256,22,16465,2,0,B|173:-1|188:117|96:88,1,180,2|0,1:2|1:0,0:0:0:0:
21,128,17536,6,0,P|19:130|116:216,1,180,14|0,0:0|0:0,0:0:0:0:
164,183,18608,1,0,1:0:0:0:
228,248,18965,2,0,B|196:306|196:306|220:370,2,135,10|0|0,0:0|3:0|1:0,0:0:0:0:
292,313,20393,6,0,B|333:323|333:323|364:295|364:295|458:284,1,180,10|0,0:0|0:0,0:0:0:0:
504,204,21465,1,0,1:0:0:0:
441,136,21822,2,0,L|454:-20,2,135,10|0|0,0:0|3:0|1:0,0:0:0:0:
356,174,23251,6,0,L|263:182,1,90,10|0,0:0|1:0,0:0:0:0:
181,211,23965,2,0,B|158:249|158:249|182:317,1,90,2|0,0:0|1:0,0:0:0:0:
252,339,24679,2,0,L|420:325,2,135,10|0|0,0:0|3:0|1:0,0:0:0:0:
174,293,26108,6,0,L|81:301,1,90,10|2,0:0|1:2,0:0:0:0:
6,254,26822,1,2,0:0:0:0:
54,176,27179,2,0,B|44:161|44:161|56:70,1,90,2|12,1:2|0:0,0:0:0:0:
101,12,27893,2,0,L|194:4,1,90,10|8,1:2|1:0,0:0:0:0:
256,66,28608,1,2,1:2:0:0:
321,4,28965,6,0,P|326:2|393:118,1,180,14|10,0:0|0:0,0:0:0:0:
456,180,30036,1,2,1:0:0:0:
391,242,30393,2,0,B|308:219|323:337|231:308,1,180,10|10,0:0|0:0,0:0:0:0:
161,263,31465,1,2,1:0:0:0:
113,341,31823,5,10,0:0:0:0:
36,294,32179,2,0,B|21:251|21:251|56:190,1,90,2|10,1:0|0:0,0:0:0:0:
126,178,32893,1,2,1:0:0:0:
91,95,33251,2,0,B|81:80|81:80|93:-11,2,90,10|2|10,0:0|1:0|0:1,0:0:0:0:
126,178,34322,1,0,1:0:0:0:
209,144,34679,6,0,L|377:130,1,135,14|2,0:0|0:1,0:0:0:0:
410,72,35572,1,10,0:1:0:0:
464,144,35929,2,0,B|441:182|441:182|465:250,1,90,2|10,0:1|0:1,0:0:0:0:
510,297,36643,1,2,0:1:0:0:
445,359,37001,2,0,P|399:360|398:359,1,45,10|2,0:1|1:0,0:0:0:0:
331,311,37536,6,0,B|290:301|290:301|259:329|259:329|165:340,1,180,10|10,0:0|0:0,0:0:0:0:
107,268,38608,1,2,1:0:0:0:
22,299,38965,2,0,B|-1:337|-1:337|23:405,2,90,10|2|10,0:0|1:0|1:0,0:0:0:0:
107,268,40036,1,6,1:3:0:0:
51,196,40393,6,0,P|50:195|141:102,1,180,14|10,0:0|0:0,0:0:0:0:
205,126,41465,1,2,1:0:0:0:
262,55,41822,2,0,B|303:65|303:65|334:37|334:37|428:26,1,180,10|10,0:0|0:0,0:0:0:0:
477,103,42893,1,2,1:0:0:0:
418,172,43251,5,10,0:0:0:0:
332,202,43608,2,0,B|309:240|309:240|333:308,1,90,2|10,1:0|0:0,0:0:0:0:
353,368,44322,1,2,1:0:0:0:
423,313,44679,2,0,L|523:304,2,90,10|2|10,0:0|1:0|0:1,0:0:0:0:
353,368,45751,1,4,1:2:0:0:
324,283,46108,6,0,L|337:127,2,135,14|2|2,0:0|0:1|1:0,0:0:0:0:
264,350,47536,2,0,P|261:352|209:227,2,180,10|10|14,0:0|0:0|0:0,0:0:0:0:
256,192,49054,12,12,51822,0:0:0:0:
102,355,60393,5,12,0:0:0:0:
48,181,61108,2,0,L|61:25,2,135,0|8|12,1:0|0:3|0:0,0:0:0:0:
112,243,62536,1,10,0:0:0:0:
37,292,62893,1,2,1:2:0:0:
102,355,63251,6,0,B|143:365|143:365|174:337|174:337|268:326,1,180,14|10,0:0|0:0,0:0:0:0:
352,290,64322,1,2,1:0:0:0:
388,373,64679,2,0,P|393:376|437:258,1,180,10|10,0:0|0:0,0:0:0:0:
408,218,65751,1,2,1:0:0:0:
352,290,66108,5,10,0:0:0:0:
288,228,66465,2,0,B|278:213|278:213|290:122,1,90,2|10,1:0|0:0,0:0:0:0:
334,65,67179,1,2,1:0:0:0:
410,111,67536,2,0,L|527:101,2,90,10|2|10,0:0|1:0|0:1,0:0:0:0:
334,65,68608,1,0,1:0:0:0:
288,142,68965,6,0,L|135:155,1,135,14|2,0:0|0:1,0:0:0:0:
77,107,69858,1,10,0:1:0:0:
30,183,70215,2,0,B|40:198|40:198|28:289,1,90,2|10,0:1|0:1,0:0:0:0:
56,357,70929,1,2,0:1:0:0:
133,309,71286,2,0,P|136:314|188:315,1,45,10|2,0:1|1:0,0:0:0:0:
256,299,71822,6,0,B|339:276|324:394|416:365,1,180,10|10,0:0|0:0,0:0:0:0:
473,305,72893,1,2,1:0:0:0:
419,232,73251,2,0,B|404:189|404:189|439:128,2,90,10|2|10,0:0|1:0|1:0,0:0:0:0:
473,305,74322,1,6,1:3:0:0:
408,367,74679,6,0,P|396:371|343:253,1,180,14|10,0:0|0:0,0:0:0:0:
419,232,75751,1,2,1:0:0:0:
436,143,76108,2,0,B|395:133|395:133|364:161|364:161|270:172,1,180,10|10,0:0|0:0,0:0:0:0:
207,106,77179,1,2,1:0:0:0:
126,144,77536,5,10,0:0:0:0:
138,233,77893,2,0,B|148:248|148:248|136:339,1,90,2|10,1:0|0:0,0:0:0:0:
215,367,78608,1,2,1:0:0:0:
262,290,78965,2,0,L|379:280,2,90,10|2|10,0:0|1:0|0:1,0:0:0:0:
215,367,80036,1,4,1:2:0:0:
139,319,80393,6,0,L|-29:333,2,135,14|2|2,0:0|0:1|1:0,0:0:0:0:
186,242,81822,2,0,P|184:239|309:187,2,180,10|10|14,0:0|0:0|0:0,0:0:0:0:
256,192,83340,12,12,86214,0:0:0:0:
