osu file format v14

[General]
AudioFilename: Synchro Manica.mp3
AudioLeadIn: 1500
PreviewTime: 46935
Countdown: 0
SampleSet: Soft
StackLeniency: 0.6
Mode: 0
LetterboxInBreaks: 0
WidescreenStoryboard: 1

[Editor]
Bookmarks: 19863,29593,32836,35268,68512,88782,89390
DistanceSpacing: 1
BeatDivisor: 4
GridSize: 4
TimelineZoom: 1

[Metadata]
Title:Synchromanica (TV Size)
TitleUnicode:シンクロマニカ (TV Size)
Artist:NEGOTO
ArtistUnicode:ねごと
Creator:Mafiamaster
Version:Normal
Source:ガリレイドンナ
Tags:Galilei Donna Synchro Manica op opening jpop j-pop the story of three sisters in the search of a subjective mystery pop anime japanese
BeatmapID:1655606
BeatmapSetID:788795

[Difficulty]
HPDrainRate:3
CircleSize:3.5
OverallDifficulty:4
ApproachRate:5
SliderMultiplier:0.999999999999999
SliderTickRate:1

[Events]
//Background and Video events
Video,1310,"Galilei Donna.avi"
0,0,"BG.png",0,0
//Break Periods
//Storyboard Layer 0 (Background)
//Storyboard Layer 1 (Fail)
//Storyboard Layer 2 (Pass)
//Storyboard Layer 3 (Foreground)
//Storyboard Layer 4 (Overlay)
//Storyboard Sound Samples

[TimingPoints]
1530,405.405405405405,4,2,1,65,1,0
33962,-100,4,2,1,75,0,0
46935,-100,4,2,1,75,0,1
59908,-100,4,2,1,65,0,0
88393,-100,4,2,1,20,0,0
90313,-100,4,2,1,5,0,0

[Colours]
Combo1 : 83,100,255
Combo2 : 216,120,206
Combo3 : 251,181,36

[HitObjects]
120,272,7611,5,0,0:0:0:0:
188,200,8016,2,0,P|240:192|292:200,1,99.9999999999999,6|8,0:0|0:0,0:0:0:0:
324,232,8624,2,0,P|373:238|422:230,1,99.9999999999999,2|0,0:0|0:0,0:0:0:0:
468,208,9232,2,0,P|506:267|468:328,1,150,8|0,0:0|0:0,0:0:0:0:
424,356,10043,5,8,0:0:0:0:
376,348,10246,2,0,L|264:348,2,99.9999999999999,2|0|0,0:0|0:0|0:0,0:0:0:0:
416,320,11259,2,0,L|416:216,1,99.9999999999999,2|8,0:0|0:0,0:0:0:0:
456,188,11867,1,2,0:0:0:0:
372,64,12475,5,8,0:0:0:0:
328,40,12678,2,0,P|279:34|230:42,1,99.9999999999999
196,76,13286,2,0,P|190:125|198:174,2,99.9999999999999,10|2|8,0:0|0:0|0:0,0:0:0:0:
308,32,14502,6,0,P|376:64|404:136,2,150,2|2|10,0:0|0:0|0:0,0:0:0:0:
204,32,16124,2,0,P|136:64|108:136,2,150,2|2|10,0:0|0:0|0:0,0:0:0:0:
256,116,17746,1,2,0:0:0:0:
256,216,18151,1,10,0:0:0:0:
408,264,18759,6,0,L|468:268,1,50,2|8,0:0|0:0,0:0:0:0:
408,120,19570,2,0,L|468:116,1,50,2|12,0:0|0:0,0:0:0:0:
388,192,20178,2,0,L|288:192,1,99.9999999999999,10|10,0:0|0:0,0:0:0:0:
336,280,20989,5,6,0:0:0:0:
256,340,21394,1,10,0:0:0:0:
208,352,21597,2,0,P|159:358|110:350,1,99.9999999999999,0|2,0:0|0:0,0:0:0:0:
76,312,22205,2,0,P|70:263|78:214,1,99.9999999999999,8|2,0:0|0:0,0:0:0:0:
168,168,23016,1,8,0:0:0:0:
216,160,23219,2,0,L|328:160,2,99.9999999999999,0|2|0,0:0|0:0|0:0,0:0:0:0:
196,204,24232,6,0,P|190:253|198:302,1,99.9999999999999,2|8,0:0|0:0,0:0:0:0:
244,324,24840,2,0,P|300:368|356:324,1,150,2|10,0:0|0:0,0:0:0:0:
384,288,25651,2,0,L|460:144,1,150,2|8,0:0|0:0,0:0:0:0:
256,140,27070,1,8,0:0:0:0:
204,56,27475,6,0,B|136:96|200:148|120:184,2,150,2|2|8,0:0|0:0|0:0,0:0:0:0:
308,56,29097,2,0,B|376:96|312:148|392:184,2,150,2|2|8,0:0|0:0|0:0,0:0:0:0:
256,144,30719,5,6,0:0:0:0:
112,108,31327,1,2,0:0:0:0:
76,144,31529,2,0,P|64:192|76:240,1,99.9999999999999,2|8,0:0|0:0,0:0:0:0:
112,276,32138,1,0,0:0:0:0:
156,300,32340,1,8,0:0:0:0:
256,272,32746,2,0,B|364:252|328:344|444:312,1,200,10|10,0:0|0:0,0:0:0:0:
512,240,33962,5,6,0:0:0:0:
512,140,34367,1,8,0:0:0:0:
432,80,34773,2,0,L|344:68,2,74.9999999999999,2|2|2,0:0|0:0|0:0,0:0:0:0:
412,176,35786,6,0,L|368:152,2,50,0|8|0,0:0|0:0|0:0,0:0:0:0:
432,220,36394,2,0,L|360:272,2,74.9999999999999,2|2|2,0:0|0:0|0:0,0:0:0:0:
472,192,37205,5,2,0:0:0:0:
440,96,37611,1,8,0:0:0:0:
344,124,38016,1,2,0:0:0:0:
312,28,38421,1,8,0:0:0:0:
168,72,39029,5,0,0:0:0:0:
140,116,39232,2,0,P|134:165|142:214,2,99.9999999999999,8|2|8,0:0|0:0|0:0,0:0:0:0:
168,72,40246,1,0,0:0:0:0:
216,56,40448,6,0,L|320:56,1,99.9999999999999,6|8,0:0|0:0,0:0:0:0:
256,136,41259,2,0,L|360:136,1,99.9999999999999,2|8,0:0|0:0,0:0:0:0:
408,136,41867,2,0,P|414:185|406:234,1,99.9999999999999,2|2,0:0|0:0,0:0:0:0:
388,280,42475,2,0,L|284:280,2,99.9999999999999,8|2|8,0:0|0:0|0:0,0:0:0:0:
476,232,43692,6,0,L|404:152,1,99.9999999999999,6|8,0:0|0:0,0:0:0:0:
388,60,44502,2,0,L|316:140,1,99.9999999999999,2|8,0:0|0:0,0:0:0:0:
300,232,45313,2,0,L|228:152,1,99.9999999999999,2|12,0:0|0:0,0:0:0:0:
156,92,46124,1,10,0:0:0:0:
96,172,46529,1,10,0:0:0:0:
100,272,46935,6,0,P|180:336|232:320,1,150,6|2,0:0|0:0,0:0:0:0:
260,300,47746,1,2,0:0:0:0:
352,264,48151,1,10,0:0:0:0:
398,241,48354,2,0,P|447:235|496:243,2,99.9999999999999,0|2|0,0:0|0:0|0:0,0:0:0:0:
352,264,49367,1,2,0:0:0:0:
296,352,49773,2,0,P|192:192|296:32,1,400,10|10,0:0|0:0,0:0:0:0:
392,16,51800,5,2,0:0:0:0:
384,116,52205,1,10,0:0:0:0:
376,216,52611,1,2,0:0:0:0:
276,196,53016,1,10,0:0:0:0:
208,272,53421,6,0,P|128:336|76:320,1,150,6|2,0:0|0:0,0:0:0:0:
56,292,54232,1,2,0:0:0:0:
36,196,54637,1,10,0:0:0:0:
82,173,54840,2,0,P|131:167|180:175,2,99.9999999999999,0|2|0,0:0|0:0|0:0,0:0:0:0:
36,152,55853,1,2,0:0:0:0:
80,64,56259,2,0,B|220:-88|292:216|432:64,1,400,14|8,0:0|0:0,0:0:0:0:
508,132,58286,5,14,0:0:0:0:
440,204,58692,1,10,0:0:0:0:
492,288,59097,1,10,0:0:0:0:
216,360,59908,6,0,P|120:308|100:224,1,200,4|14,0:0|0:0,0:0:0:0:
296,360,61529,2,0,P|392:308|412:224,1,200,4|14,0:0|0:0,0:0:0:0:
216,360,63151,6,0,B|204:256|136:288|152:176,1,200,4|14,0:0|0:0,0:0:0:0:
296,360,64773,2,0,B|308:256|376:288|360:176,1,200,4|14,0:0|0:0,0:0:0:0:
132,108,66394,6,0,P|159:67|206:55,1,99.9999999999999,12|8,0:0|0:0,0:0:0:0:
306,55,67205,2,0,P|358:71|382:115,1,99.9999999999999,12|8,0:0|0:0,0:0:0:0:
323,191,68016,6,0,P|256:300|188:192,1,300,4|2,0:0|0:0,0:0:0:0:
132,112,69638,5,4,0:0:0:0:
104,156,69840,2,0,P|96:208|104:256,1,99.9999999999999,2|0,0:0|0:0,0:0:0:0:
120,304,70448,2,0,L|88:388,2,74.9999999999999,10|2|2,0:0|0:0|0:0,0:0:0:0:
216,276,71462,6,0,P|268:284|316:276,1,99.9999999999999,2|0,0:0|0:0,0:0:0:0:
364,260,72070,2,0,L|448:292,2,74.9999999999999,10|2|2,0:0|0:0|0:0,0:0:0:0:
408,168,73084,6,0,L|472:168,2,50,2|0|0,0:0|0:0|0:0,0:0:0:0:
356,168,73692,2,0,L|272:168,2,74.9999999999999,10|2|2,0:0|0:0|0:0,0:0:0:0:
408,168,74502,1,4,0:0:0:0:
256,300,75313,1,8,0:0:0:0:
168,36,76327,6,0,P|220:28|268:36,1,99.9999999999999,2|0,0:0|0:0,0:0:0:0:
316,52,76935,2,0,L|400:20,2,74.9999999999999,10|2|2,0:0|0:0|0:0,0:0:0:0:
220,108,77948,6,0,P|168:116|120:108,1,99.9999999999999,2|0,0:0|0:0,0:0:0:0:
72,92,78556,2,0,L|-12:124,2,74.9999999999999,10|2|2,0:0|0:0|0:0,0:0:0:0:
92,192,79570,6,0,L|28:192,2,50,2|0|0,0:0|0:0|0:0,0:0:0:0:
128,228,80178,2,0,L|212:228,2,74.9999999999999,10|2|2,0:0|0:0|0:0,0:0:0:0:
92,264,80988,1,6,0:0:0:0:
92,64,81800,1,8,0:0:0:0:
288,240,82813,6,0,L|288:296,2,50,2|0|0,0:0|0:0|0:0,0:0:0:0:
312,196,83421,2,0,B|332:216|364:176|384:196,2,74.9999999999999,10|2|2,0:0|0:0|0:0,0:0:0:0:
224,144,84435,6,0,L|224:88,2,50,2|0|0,0:0|0:0|0:0,0:0:0:0:
200,188,85043,2,0,B|180:168|148:208|128:188,2,74.9999999999999,10|2|2,0:0|0:0|0:0,0:0:0:0:
288,240,86057,6,0,L|344:240,2,50,2|0|0,0:0|0:0|0:0,0:0:0:0:
256,280,86665,2,0,L|256:360,2,74.9999999999999,10|2|2,0:0|0:0|0:0,0:0:0:0:
174,240,87678,6,0,P|130:220|86:240,1,99.9999999999999,2|2,0:0|0:0,0:0:0:0:
58,280,88286,1,14,0:0:0:0:
256,192,88388,12,0,90313,0:0:0:0:
