osu file format v14

[General]
AudioFilename: Synchro Manica.mp3
AudioLeadIn: 1500
PreviewTime: 46935
Countdown: 0
SampleSet: Soft
StackLeniency: 0.3
Mode: 0
LetterboxInBreaks: 0
WidescreenStoryboard: 1

[Editor]
Bookmarks: 19863,29593,32836,35268,68512,88782,89390
DistanceSpacing: 1.6
BeatDivisor: 4
GridSize: 4
TimelineZoom: 1

[Metadata]
Title:Synchromanica (TV Size)
TitleUnicode:シンクロマニカ (TV Size)
Artist:NEGOTO
ArtistUnicode:ねごと
Creator:Mafiamaster
Version:Hard
Source:ガリレイドンナ
Tags:Galilei Donna Synchro Manica op opening jpop j-pop the story of three sisters in the search of a subjective mystery pop anime japanese
BeatmapID:1655605
BeatmapSetID:788795

[Difficulty]
HPDrainRate:5
CircleSize:3.8
OverallDifficulty:6
ApproachRate:7
SliderMultiplier:1.6
SliderTickRate:1

[Events]
//Background and Video events
Video,1310,"Galilei Donna.avi"
0,0,"BG.png",0,0
//Break Periods
//Storyboard Layer 0 (Background)
//Storyboard Layer 1 (Fail)
//Storyboard Layer 2 (Pass)
//Storyboard Layer 3 (Foreground)
//Storyboard Layer 4 (Overlay)
//Storyboard Sound Samples

[TimingPoints]
1530,405.405405405405,4,2,1,65,1,0
33962,-100,4,2,1,75,0,0
46935,-100,4,2,1,75,0,1
59908,-100,4,2,1,65,0,0
74507,-100,4,2,1,60,0,0
74913,-100,4,2,1,50,0,0
75318,-100,4,2,1,40,0,0
75724,-100,4,2,1,30,0,0
76028,-100,4,2,1,65,0,0
80994,-100,4,2,1,60,0,0
81399,-100,4,2,1,50,0,0
81805,-100,4,2,1,40,0,0
82210,-100,4,2,1,30,0,0
82514,-100,4,2,1,65,0,0
88393,-100,4,2,1,20,0,0
90313,-100,4,2,1,5,0,0

[Colours]
Combo1 : 83,100,255
Combo2 : 216,120,206
Combo3 : 251,181,36

[HitObjects]
512,52,7611,5,0,0:0:0:0:
408,188,8016,2,0,P|376:260|408:332,1,160,6|8,0:0|0:0,0:0:0:0:
460,264,8624,2,0,P|492:192|460:120,1,160
400,56,9232,2,0,B|344:16|304:96|248:56,1,160,8|2,0:0|0:0,0:0:0:0:
164,32,9840,5,0,0:0:0:0:
84,72,10043,1,8,0:0:0:0:
40,148,10246,2,0,P|9:219|41:290,1,160
116,336,10854,1,8,0:0:0:0:
196,300,11057,1,0,0:0:0:0:
156,220,11259,6,0,P|144:160|216:100,1,160,2|8,0:0|0:0,0:0:0:0:
300,100,11867,2,0,P|362:143|356:219,1,160
312,296,12475,1,8,0:0:0:0:
256,228,12678,1,0,0:0:0:0:
144,364,13084,5,0,0:0:0:0:
200,296,13286,1,8,0:0:0:0:
128,220,13489,1,0,0:0:0:0:
108,192,13590,1,8,0:0:0:0:
128,164,13692,1,0,0:0:0:0:
200,88,13894,1,0,0:0:0:0:
292,116,14097,2,0,L|380:116,1,80,8|0,0:0|0:0,0:0:0:0:
440,48,14502,6,0,P|476:116|440:184,1,160,2|8,0:0|0:0,0:0:0:0:
404,252,15111,2,0,P|368:184|404:116,1,160
440,183,15719,2,0,L|496:244,1,80,8|0,0:0|0:0,0:0:0:0:
404,252,16124,2,0,L|460:313,2,80,2|0|8,0:0|0:0|0:0,0:0:0:0:
424,380,16732,2,0,L|312:256,1,160
404,252,17340,1,8,0:0:0:0:
440,183,17543,1,0,0:0:0:0:
340,148,17746,5,2,0:0:0:0:
256,192,17948,1,0,0:0:0:0:
172,148,18151,1,8,0:0:0:0:
424,100,18759,5,0,0:0:0:0:
340,148,18962,1,8,0:0:0:0:
88,100,19570,5,0,0:0:0:0:
172,148,19773,1,8,0:0:0:0:
256,192,19975,1,8,0:0:0:0:
256,224,20077,1,8,0:0:0:0:
256,256,20178,1,8,0:0:0:0:
256,352,20381,1,8,0:0:0:0:
164,384,20584,5,8,0:0:0:0:
84,332,20786,1,8,0:0:0:0:
64,304,20888,1,8,0:0:0:0:
44,276,20989,2,0,P|8:208|44:140,1,160,14|8,0:0|0:0,0:0:0:0:
112,208,21597,1,2,0:0:0:0:
144,208,21699,1,8,0:0:0:0:
176,208,21800,1,0,0:0:0:0:
144,120,22002,1,2,0:0:0:0:
144,300,22205,1,8,0:0:0:0:
336,140,22611,6,0,P|372:208|336:276,1,160,2|8,0:0|0:0,0:0:0:0:
268,208,23219,1,2,0:0:0:0:
236,208,23321,1,8,0:0:0:0:
204,208,23422,1,0,0:0:0:0:
236,296,23624,1,2,0:0:0:0:
236,120,23827,1,8,0:0:0:0:
204,208,24029,1,0,0:0:0:0:
316,208,24232,6,0,L|476:208,1,160,2|8,0:0|0:0,0:0:0:0:
488,116,24840,1,2,0:0:0:0:
464,96,24942,1,8,0:0:0:0:
440,76,25043,1,0,0:0:0:0:
368,140,25246,1,2,0:0:0:0:
276,112,25448,1,8,0:0:0:0:
80,36,25854,5,2,0:0:0:0:
20,112,26057,1,0,0:0:0:0:
72,192,26259,1,8,0:0:0:0:
12,268,26462,1,2,0:0:0:0:
36,288,26563,1,8,0:0:0:0:
60,308,26665,2,0,L|140:312,2,80,0|2|8,0:0|0:0|0:0,0:0:0:0:
52,44,27475,6,0,B|92:100|12:140|52:196,1,160,2|8,0:0|0:0,0:0:0:0:
140,236,28084,1,2,0:0:0:0:
168,248,28185,1,8,0:0:0:0:
196,260,28286,1,0,0:0:0:0:
200,164,28489,1,2,0:0:0:0:
136,332,28692,1,8,0:0:0:0:
460,340,29097,6,0,B|420:284|500:244|460:188,1,160,2|8,0:0|0:0,0:0:0:0:
372,148,29705,1,2,0:0:0:0:
344,136,29806,1,8,0:0:0:0:
316,124,29907,1,0,0:0:0:0:
312,220,30110,1,2,0:0:0:0:
376,52,30313,1,8,0:0:0:0:
132,148,30719,6,0,P|52:188|32:256,1,160,6|8,0:0|0:0,0:0:0:0:
132,248,31327,1,0,0:0:0:0:
132,348,31529,2,0,P|203:317|232:245,1,160,2|8,0:0|0:0,0:0:0:0:
132,248,32138,1,0,0:0:0:0:
65,317,32340,5,10,0:0:0:0:
198,178,32746,2,0,P|256:64|309:184,1,320,8|8,0:0|0:0,0:0:0:0:
256,136,33759,1,8,0:0:0:0:
256,232,33962,6,0,L|256:336,1,80,6|0,0:0|0:0,0:0:0:0:
352,300,34367,2,0,L|384:376,1,80,8|0,0:0|0:0,0:0:0:0:
448,304,34773,2,0,L|512:196,2,120,2|2|2,0:0|0:0|0:0,0:0:0:0:
256,232,35786,6,0,L|256:336,2,80,0|8|0,0:0|0:0|0:0,0:0:0:0:
200,152,36394,2,0,P|256:132|312:152,2,120,2|2|2,0:0|0:0|0:0,0:0:0:0:
160,300,37205,6,0,P|96:260|68:172,1,160,2|8,0:0|0:0,0:0:0:0:
352,300,38016,2,0,P|416:260|444:172,1,160,2|8,0:0|0:0,0:0:0:0:
140,80,39029,1,0,0:0:0:0:
208,12,39232,1,8,0:0:0:0:
304,16,39435,1,0,0:0:0:0:
372,80,39638,2,0,B|428:100|408:144|460:164,2,120,2|2|2,0:0|0:0|0:0,0:0:0:0:
316,156,40448,6,0,P|256:200|196:156,1,160,6|8,0:0|0:0,0:0:0:0:
124,88,41057,1,0,0:0:0:0:
52,148,41259,1,2,0:0:0:0:
32,176,41361,2,0,B|24:216|32:256,1,80
44,288,41665,2,0,B|84:296|124:288,1,80,8|2,0:0|0:0,0:0:0:0:
208,36,42273,5,0,0:0:0:0:
304,52,42475,1,8,0:0:0:0:
400,68,42678,1,0,0:0:0:0:
496,84,42881,2,0,P|508:164|496:244,1,160,2|8,0:0|0:0,0:0:0:0:
404,268,43489,5,0,0:0:0:0:
340,191,43692,2,0,P|393:132|418:57,1,160,6|8,0:0|0:0,0:0:0:0:
256,152,44502,2,0,L|256:68,2,80,2|0|8,0:0|0:0|0:0,0:0:0:0:
256,256,45111,1,0,0:0:0:0:
172,192,45313,2,0,P|112:120|92:44,2,160,2|12|10,0:0|0:0|0:0,0:0:0:0:
256,256,46327,1,8,0:0:0:0:
340,192,46529,1,10,0:0:0:0:
436,236,46732,1,8,0:0:0:0:
368,340,46935,6,0,P|256:376|144:340,1,240,14|0,0:0|0:0,0:0:0:0:
180,248,47746,2,0,P|256:272|332:248,1,160,2|8,0:0|0:0,0:0:0:0:
332,136,48354,2,0,P|256:112|180:136,2,160
256,192,49367,1,2,0:0:0:0:
436,76,49773,5,8,0:0:0:0:
396,248,50178,1,6,0:0:0:0:
256,116,50584,1,8,0:0:0:0:
256,308,50989,1,2,0:0:0:0:
116,248,51394,1,8,0:0:0:0:
76,76,51800,6,0,P|144:36|192:100,1,160,2|8,0:0|0:0,0:0:0:0:
320,86,52611,2,0,P|374:35|436:76,1,160,2|8,0:0|0:0,0:0:0:0:
256,180,53421,5,6,0:0:0:0:
76,244,53827,1,8,0:0:0:0:
0,184,54029,1,0,0:0:0:0:
48,100,54232,2,0,P|100:44|192:44,1,160,2|8,0:0|0:0,0:0:0:0:
272,72,54840,2,0,P|218:128|140:133,2,160
352,20,55854,6,0,P|400:76|476:124,1,160,2|12,0:0|0:0,0:0:0:0:
472,261,56665,2,0,P|404:304|352:364,1,160,6|8,0:0|0:0,0:0:0:0:
159,363,57475,2,0,P|107:304|39:261,1,160,6|8,0:0|0:0,0:0:0:0:
39,122,58286,2,0,P|107:79|160:19,2,160,14|8|10,0:0|0:0|0:0,0:0:0:0:
200,40,59908,6,0,B|256:16|256:16|310:39,2,120,6|0|0,0:0|0:0|0:0,0:0:0:0:
256,116,60719,1,12,0:0:0:0:
256,260,61023,1,8,0:0:0:0:
256,292,61124,2,0,L|256:380,1,80,8|0,0:0|0:0,0:0:0:0:
348,340,61529,5,6,0:0:0:0:
176,272,61935,1,2,0:0:0:0:
412,124,62340,1,12,0:0:0:0:
92,28,62746,1,10,0:0:0:0:
312,344,63151,6,0,B|256:368|256:368|201:344,2,120,6|0|0,0:0|0:0|0:0,0:0:0:0:
256,268,63962,1,12,0:0:0:0:
256,124,64266,1,8,0:0:0:0:
256,92,64367,2,0,L|256:4,1,80
164,44,64772,5,14,0:0:0:0:
336,112,65178,1,2,0:0:0:0:
100,260,65583,1,12,0:0:0:0:
420,356,65989,1,2,0:0:0:0:
384,128,66394,6,0,L|420:220,1,80,14|8,0:0|0:0,0:0:0:0:
324,236,66800,2,0,L|344:332,1,80,12|8,0:0|0:0,0:0:0:0:
188,236,67205,2,0,L|171:314,1,80,8|8,0:0|0:0,0:0:0:0:
128,128,67611,2,0,L|98:202,1,80,8|8,0:0|0:0,0:0:0:0:
256,192,68016,12,0,69232,0:0:0:0:
48,108,69638,5,6,0:0:0:0:
0,192,69840,1,2,0:0:0:0:
0,192,70246,1,2,0:0:0:0:
48,276,70448,2,0,L|184:280,2,120,10|2|2,0:0|0:0|0:0,0:0:0:0:
464,276,71462,5,0,0:0:0:0:
512,192,71664,1,2,0:0:0:0:
464,108,71867,1,0,0:0:0:0:
512,192,72070,2,0,L|376:188,2,120,10|2|2,0:0|0:0|0:0,0:0:0:0:
380,332,73084,6,0,P|344:348|308:332,1,80,2|0,0:0|0:0,0:0:0:0:
256,252,73489,1,0,0:0:0:0:
204,332,73692,2,0,L|84:344,2,120,10|2|2,0:0|0:0|0:0,0:0:0:0:
200,324,74705,5,2,0:0:0:0:
196,316,75111,5,2,0:0:0:0:
192,308,75516,5,2,0:0:0:0:
188,300,75921,5,2,0:0:0:0:
124,228,76124,1,6,0:0:0:0:
60,156,76327,6,0,P|16:96|60:36,1,160,2|0,0:0|0:0,0:0:0:0:
136,96,76935,2,0,L|256:92,2,120,10|2|2,0:0|0:0|0:0,0:0:0:0:
256,248,77948,5,2,0:0:0:0:
328,188,78151,1,0,0:0:0:0:
368,276,78354,1,0,0:0:0:0:
408,364,78557,1,10,0:0:0:0:
256,248,78861,1,2,0:0:0:0:
104,364,79165,1,2,0:0:0:0:
132,52,79570,6,0,P|168:36|204:52,1,80,2|0,0:0|0:0,0:0:0:0:
256,132,79975,1,0,0:0:0:0:
308,52,80178,2,0,L|428:40,2,120,10|2|2,0:0|0:0|0:0,0:0:0:0:
312,60,81191,5,2,0:0:0:0:
316,68,81597,5,2,0:0:0:0:
320,76,82002,5,2,0:0:0:0:
324,84,82407,5,2,0:0:0:0:
256,152,82611,1,6,0:0:0:0:
188,84,82813,5,2,0:0:0:0:
100,48,83016,1,0,0:0:0:0:
76,140,83219,1,0,0:0:0:0:
164,176,83421,2,0,P|144:232|164:288,2,120,10|2|2,0:0|0:0|0:0,0:0:0:0:
256,152,84232,1,2,0:0:0:0:
324,84,84435,5,0,0:0:0:0:
412,48,84638,1,0,0:0:0:0:
436,140,84841,1,0,0:0:0:0:
348,176,85043,2,0,P|368:232|348:288,2,120,10|2|2,0:0|0:0|0:0,0:0:0:0:
256,152,85854,1,2,0:0:0:0:
164,176,86057,5,0,0:0:0:0:
208,92,86259,1,0,0:0:0:0:
304,92,86462,1,0,0:0:0:0:
348,176,86665,2,0,L|472:180,2,120,10|2|2,0:0|0:0|0:0,0:0:0:0:
256,232,87475,1,2,0:0:0:0:
164,176,87678,2,0,L|40:180,2,120,10|2|14,0:0|0:0|0:0,0:0:0:0:
256,192,88388,12,0,90313,0:0:0:0:
