osu file format v14

[General]
AudioFilename: audio.ogg
AudioLeadIn: 0
PreviewTime: 70174
Countdown: 0
SampleSet: Soft
StackLeniency: 1
Mode: 0
LetterboxInBreaks: 0
WidescreenStoryboard: 0

[Editor]
DistanceSpacing: 0.5
BeatDivisor: 6
GridSize: 8
TimelineZoom: 3.099999

[Metadata]
Title:Kinkyuu Namahousou
TitleUnicode:緊急生放送
Artist:NEE
ArtistUnicode:NEE
Creator:Ryuusei Aika
Version:elvin's Extra
Source:
Tags:VoiceCore Stormiverse TtmnZk elvin l1ght_u light_u -Hitomi LimeTwist Emergency Live Broadcast Japanese Exotic Indie Rock J-Rock JRock SEKAI くぅ 夕日 かほ 大樹 KinKyu Namahoso Kinkyū namahōsō
BeatmapID:3761562
BeatmapSetID:1817367

[Difficulty]
HPDrainRate:5
CircleSize:4
OverallDifficulty:8
ApproachRate:9.2
SliderMultiplier:2.79999990463257
SliderTickRate:1

[Events]
//Background and Video events
0,0,"bg.jpg",0,0
//Break Periods
2,151204,159131
//Storyboard Layer 0 (Background)
//Storyboard Layer 1 (Fail)
//Storyboard Layer 2 (Pass)
//Storyboard Layer 3 (Foreground)
//Storyboard Layer 4 (Overlay)
//Storyboard Sound Samples

[TimingPoints]
459,545.454545454546,4,2,1,40,1,0
459,-250,4,2,1,40,0,0
2640,-200,4,2,1,40,0,0
4822,-133.333333333333,4,2,1,40,0,0
7004,-285.714285714286,4,2,1,40,0,0
7549,-285.714285714286,4,2,1,60,0,0
7822,-100,4,2,1,60,0,0
8913,-66.6666666666667,4,2,1,60,0,0
9459,-100,4,2,1,60,0,0
10277,-66.6666666666667,4,2,1,60,0,0
10822,-100,4,2,1,60,0,0
11368,-50,4,2,1,60,0,0
11913,-100,4,2,1,60,0,0
13549,-66.6666666666667,4,2,1,60,0,0
14095,-100,4,2,1,60,0,0
14640,-66.6666666666667,4,2,1,60,0,0
15186,-100,4,2,1,60,0,0
15731,-50,4,2,1,60,0,0
16277,-100,4,2,1,60,0,0
17640,-50,4,2,1,60,0,0
17913,-133.333333333333,4,2,1,40,0,0
18459,-250,4,2,1,40,0,0
19686,-125,4,2,1,40,0,0
20640,-250,4,2,1,40,0,0
21186,-125,4,2,1,40,0,0
21731,-250,4,2,1,40,0,0
24049,-125,4,2,1,40,0,0
25004,-250,4,2,1,40,0,0
25549,-66.6666666666667,4,2,1,40,0,0
26640,-125,4,2,1,50,0,0
27322,-250,4,2,1,50,0,0
28004,-66.6666666666667,4,2,1,50,0,0
28822,-125,4,2,1,50,0,0
29504,-250,4,2,1,50,0,0
29913,-125,4,2,1,50,0,0
30595,-250,4,2,1,50,0,0
31004,-125,4,2,1,50,0,0
31686,-250,4,2,1,50,0,0
32368,-66.6666666666667,4,2,1,50,0,0
33186,-125,4,2,1,60,0,0
34277,-66.6666666666667,4,2,1,60,0,0
35913,-100,4,2,1,60,0,0
36459,-66.6666666666667,4,2,1,60,0,0
37004,-100,4,2,1,60,0,0
37549,-50,4,2,1,60,0,0
38095,-100,4,2,1,60,0,0
39731,-66.6666666666667,4,2,1,60,0,0
40277,-100,4,2,1,60,0,0
40822,-66.6666666666667,4,2,1,60,0,0
41368,-100,4,2,1,60,0,0
41913,-50,4,2,1,60,0,0
42459,-100,4,2,1,60,0,0
44095,-100,4,2,1,50,0,0
44368,-200,4,2,1,50,0,0
46277,-100,4,2,1,50,0,0
47640,-66.6666666666667,4,2,1,50,0,0
48459,-100,4,2,1,50,0,0
48731,-66.6666666666667,4,2,1,50,0,0
49549,-100,4,2,1,50,0,0
49822,-66.6666666666667,4,2,1,50,0,0
50231,-100,4,2,1,50,0,0
50640,-66.6666666666667,4,2,1,50,0,0
50913,-100,4,2,1,50,0,0
51731,-66.6666666666667,4,2,1,50,0,0
52822,-66.6666666666667,4,2,1,60,0,0
53095,-100,4,2,1,60,0,0
53913,-66.6666666666667,4,2,1,60,0,0
55277,-100,4,2,1,60,0,0
57186,-66.6666666666667,4,2,1,60,0,0
57459,-100,4,2,1,60,0,0
59913,-66.6666666666667,4,2,1,60,0,0
61277,-100,4,2,1,60,0,0
61549,-200,4,2,1,40,0,0
68095,-100,4,2,1,40,0,0
69186,-1000,4,2,1,40,0,0
70277,-40,4,2,3,70,0,1
70413,-40,4,2,1,70,0,1
70549,-45.4545454545455,4,2,1,70,0,1
71640,-100,4,2,1,70,0,1
72459,-50,4,2,1,70,0,1
73277,-47.6190476190476,4,2,1,70,0,1
73822,-66.6666666666667,4,2,1,70,0,1
74640,-50,4,2,1,70,0,1
75186,-55.5555555555556,4,2,1,70,0,1
76277,-45.4545454545455,4,2,1,70,0,1
76822,-66.6666666666667,4,2,1,70,0,1
79004,-66.6666666666667,4,2,3,70,0,1
79277,-66.6666666666667,4,2,1,70,0,1
82004,-50,4,2,1,70,0,1
82822,-100,4,2,1,70,0,1
83095,-66.6666666666667,4,2,1,70,0,1
85549,-200,4,2,1,70,0,1
86640,-100,4,2,1,70,0,1
87459,-66.6666666666667,4,2,1,70,0,1
87731,-66.6666666666667,4,2,1,70,0,0
89913,-100,4,2,1,50,0,0
98368,-66.6666666666667,4,2,1,50,0,0
98640,-100,4,2,1,50,0,0
105186,-66.6666666666667,4,2,1,50,0,0
106822,-50,4,2,1,50,0,0
107368,-66.6666666666667,4,2,1,60,0,0
113913,-250.000000000001,4,2,1,60,0,0
114140,-250.000000000001,4,2,1,5,0,0
114186,-33.3333333333333,4,2,1,60,0,0
114731,-50,4,2,1,60,0,0
115004,-66.6666666666667,4,2,1,60,0,0
116095,-40,4,2,3,70,0,1
116231,-40,4,2,1,70,0,1
116368,-45.4545454545455,4,2,1,70,0,1
116777,-50,4,2,1,70,0,1
117459,-66.6666666666667,4,2,1,70,0,1
119095,-50,4,2,1,70,0,1
119640,-66.6666666666667,4,2,1,70,0,1
120459,-50,4,2,1,70,0,1
121004,-55.5555555555556,4,2,1,70,0,1
122095,-45.4545454545455,4,2,1,70,0,1
122640,-66.6666666666667,4,2,1,70,0,1
124277,-50,4,2,1,70,0,1
124686,-66.6666666666667,4,2,1,70,0,1
124822,-66.6666666666667,4,2,3,70,0,1
125095,-66.6666666666667,4,2,1,70,0,1
126595,-50,4,2,1,70,0,1
127004,-66.6666666666667,4,2,1,70,0,1
127822,-50,4,2,1,70,0,1
129186,-55.5555555555556,4,2,1,70,0,1
130277,-66.6666666666667,4,2,1,70,0,1
130822,-50,4,2,1,70,0,1
131368,-50,4,2,1,70,0,0
131640,-100,4,2,1,70,0,0
132459,-66.6666666666667,4,2,1,70,0,0
133549,-40,4,2,1,70,0,0
134095,-50,4,2,1,70,0,0
134504,-66.6666666666667,4,2,1,70,0,0
134640,-40,4,2,1,70,0,0
135186,-66.6666666666667,4,2,1,70,0,0
135731,-40,4,2,1,70,0,0
136277,-66.6666666666667,4,2,1,70,0,0
136549,-40,4,2,1,70,0,0
137368,-50,4,2,1,70,0,0
141277,-66.6666666666667,4,2,1,70,0,0
142277,-100,4,2,1,70,0,0
142822,-66.6666666666667,4,2,1,70,0,0
143913,-50,4,2,1,70,0,0
145004,-66.6666666666667,4,2,1,70,0,0
146368,-50,4,2,1,70,0,0
146640,-66.6666666666667,4,2,1,70,0,0
146777,-50,4,2,1,70,0,0
147049,-66.6666666666667,4,2,1,70,0,0
148277,-50,4,2,1,70,0,0
149095,-66.6666666666667,4,2,1,70,0,0
149368,-50,4,2,1,70,0,0
149640,-66.6666666666667,4,2,1,70,0,0
149913,-50,4,2,1,70,0,0
150118,-66.6666666666667,4,2,1,70,0,0
150322,-100,4,2,1,70,0,0
150459,-66.6666666666667,4,2,1,70,0,0
151004,-66.6666666666667,4,2,1,60,0,0
159731,-333.333333333333,4,2,1,40,0,0
166277,-133.333333333333,4,2,1,30,0,0
166549,-133.333333333333,4,2,1,35,0,0
166822,-80,4,2,1,40,0,0
167095,-80,4,2,1,45,0,0
167368,-57.1428571428571,4,2,1,55,0,0
167640,-57.1428571428571,4,2,1,60,0,0
167913,-44.4444444444445,4,2,1,65,0,0
168186,-50,4,2,1,70,0,0
168459,-50,4,2,0,5,0,0
169822,-100,4,2,1,30,0,0
170095,-100,4,2,1,50,0,0
170368,-100,4,2,1,60,0,0
170640,-100,4,2,1,65,0,0
171049,-66.6666666666667,4,2,1,65,0,0
171868,-50,4,2,1,65,0,0
172277,-1000,4,2,1,65,0,0
172731,-1000,4,2,1,5,0,0
172822,-50,4,2,3,70,0,1
172959,-50,4,2,1,70,0,1
175004,-66.6666666666667,4,2,1,70,0,1
177186,-66.6666666666667,4,2,3,70,0,1
177459,-66.6666666666667,4,2,1,70,0,1
181549,-55.5555555555556,4,2,1,70,0,1
182640,-66.6666666666667,4,2,1,70,0,1
183731,-66.6666666666667,4,2,1,70,0,0
184004,-100,4,2,1,70,0,0
184413,-66.6666666666667,4,2,1,70,0,0
185913,-66.6666666666667,4,2,1,70,0,1
187004,-86.9565217391304,4,2,1,70,0,1
188095,-66.6666666666667,4,2,1,70,0,1
189186,-100,4,2,1,70,0,1
189731,-66.6666666666667,4,2,1,70,0,1
191368,-83.3333333333333,4,2,1,70,0,1
192459,-66.6666666666667,4,2,1,70,0,1
193549,-100,4,2,1,70,0,1
194277,-66.6666666666667,4,2,1,70,0,1
195731,-83.3333333333333,4,2,1,70,0,1
196822,-66.6666666666667,4,2,1,70,0,1
197913,-100,4,2,1,70,0,1
198640,-66.6666666666667,4,2,1,70,0,1
200095,-83.3333333333333,4,2,1,70,0,1
201322,-100,4,2,1,70,0,1
202277,-66.6666666666667,4,2,1,70,0,1
203231,-50,4,2,1,70,0,0
203913,-50,4,2,1,5,0,0

[Colours]
Combo1 : 0,159,80
Combo2 : 0,80,159
Combo3 : 159,0,0
Combo4 : 159,80,0

[HitObjects]
96,100,459,6,1,P|73:89|84:66,3,55.9999980926514,0|0|0|0,2:0|2:0|2:0|2:0,2:0:0:0:
105,99,1549,2,1,P|116:75|93:64,3,55.9999980926514,0|0|0|0,2:0|2:0|2:0|2:0,2:0:0:0:
183,183,2640,6,1,P|171:154|198:140,3,69.9999976158143,0|0|0|0,2:0|2:0|2:0|2:0,2:0:0:0:
193,187,3731,2,1,P|221:173|207:144,3,69.9999976158143,0|0|0|0,2:0|2:0|2:0|2:0,2:0:0:0:
3,248,4822,6,1,P|-15:293|27:315,1,104.999996423722,0|0,2:0|2:0,2:0:0:0:
13,245,5368,2,1,P|55:264|38:310,1,104.999996423722,0|0,2:0|2:0,2:0:0:0:
240,378,5913,6,1,P|219:333|263:312,1,104.999996423722,0|0,2:0|2:0,2:0:0:0:
271,315,6459,2,1,P|290:358|248:379,1,104.999996423722,0|0,2:0|2:0,2:0:0:0:
144,253,7004,6,1,L|138:225,1,24.499999165535,0|0,2:0|2:0,2:0:0:0:
219,238,7277,2,1,L|213:210,1,24.499999165535,0|0,2:0|2:0,2:0:0:0:
294,220,7549,2,1,L|288:192,1,24.499999165535,0|0,2:0|2:0,2:0:0:0:
289,164,7822,6,1,L|283:188,1,23.3333325386048,8|0,2:0|2:0,2:0:0:0:
324,248,7959,2,1,L|318:270,1,23.3333325386048,8|0,2:0|2:0,2:0:0:0:
365,329,8095,6,1,P|410:318|435:281,1,93.333330154419,0|0,3:0|2:0,2:0:0:0:
447,278,8368,2,1,P|443:255|428:236,1,46.6666650772095,0|0,2:0|2:0,2:0:0:0:
485,178,8549,1,0,2:0:0:0:
485,178,8640,2,1,L|494:132,1,46.6666650772095,8|0,2:0|2:0,2:0:0:0:
432,0,8822,1,0,3:0:0:0:
369,39,8913,2,1,P|300:52|236:80,1,139.999995231628,12|0,2:0|2:0,2:0:0:0:
205,149,9186,6,1,P|138:155|92:105,1,139.999995231628,4|0,3:2|2:0,2:0:0:0:
100,24,9459,2,1,P|143:22|160:63,1,93.333330154419,0|0,3:0|2:0,2:0:0:0:
42,174,9731,2,1,P|20:182|7:201,2,46.6666650772095,8|0|0,2:0|2:0|3:0,2:0:0:0:
9,99,10004,5,0,3:0:0:0:
91,258,10186,1,0,3:0:0:0:
91,258,10277,2,1,P|158:276|220:308,1,139.999995231628,8|0,2:0|3:0,2:0:0:0:
300,315,10549,2,1,P|295:249|233:227,1,139.999995231628,0|0,3:0|3:0,2:0:0:0:
142,318,10822,2,1,P|103:342|58:333,1,93.333330154419,8|0,2:0|3:0,2:0:0:0:
161,196,11095,6,1,P|143:182|140:160,1,46.6666650772095,8|0,2:0|2:0,2:0:0:0:
260,68,11277,1,8,2:0:0:0:
260,68,11368,2,1,P|335:107|300:185,1,186.666660308838,4|0,3:2|2:0,2:0:0:0:
232,227,11640,2,1,P|283:152|371:131,1,186.666660308838,0|0,3:0|2:0,2:0:0:0:
428,77,11913,2,1,P|442:94|464:102,2,46.6666650772095,8|0|0,2:0|2:0|3:0,2:0:0:0:
488,30,12186,5,0,3:0:0:0:
420,205,12368,1,0,3:0:0:0:
420,205,12459,1,8,2:0:0:0:
487,276,12640,5,0,3:0:0:0:
487,276,12731,1,0,3:0:0:0:
398,290,12913,5,0,3:0:0:0:
410,299,13004,1,8,2:0:0:0:
313,314,13186,5,0,3:0:0:0:
334,329,13277,1,8,2:0:0:0:
465,367,13459,5,8,2:0:0:0:
414,206,13549,2,1,P|425:137|459:76,1,139.999995231628,4|0,3:2|2:0,2:0:0:0:
479,0,13822,2,1,P|412:-2|382:56,1,139.999995231628,0|0,3:0|2:0,2:0:0:0:
474,150,14095,2,1,P|496:144|511:127,2,46.6666650772095,8|0|0,2:0|2:0|3:0,2:0:0:0:
459,76,14368,5,0,3:0:0:0:
266,265,14549,1,0,3:0:0:0:
266,265,14640,2,1,P|198:240|135:215,1,139.999995231628,8|0,2:0|3:0,2:0:0:0:
135,58,14913,2,1,P|177:113|223:166,1,139.999995231628,0|0,3:0|3:0,2:0:0:0:
188,276,15186,2,1,P|151:302|107:291,1,93.333330154419,8|0,2:0|3:0,2:0:0:0:
55,234,15459,6,1,P|45:213|54:192,1,46.6666650772095,8|0,2:0|2:0,2:0:0:0:
139,61,15640,1,8,2:0:0:0:
139,61,15731,2,1,P|208:121|298:142,1,186.666660308838,4|0,3:2|2:0,2:0:0:0:
374,109,16004,2,1,P|282:110|212:170,1,186.666660308838,4|0,3:2|2:0,2:0:0:0:
135,215,16277,2,1,L|131:168,2,46.6666650772095,8|0|0,2:0|2:0|3:0,2:0:0:0:
53,192,16549,5,0,3:0:0:0:
256,320,16731,1,0,3:0:0:0:
256,320,16822,1,8,2:0:0:0:
319,265,17004,5,0,3:0:0:0:
322,249,17095,1,0,3:0:0:0:
212,168,17277,5,8,2:0:0:0:
204,136,17368,1,8,2:0:0:0:
342,86,17549,5,8,2:0:0:0:
299,173,17640,2,1,P|233:112|251:24,1,186.666660308838,0|0,3:0|2:0,2:0:0:0:
250,24,17913,6,1,B|350:29|316:70|415:72,1,174.999994039536,4|0,3:2|2:0,2:0:0:0:
491,48,18459,2,1,L|495:75,3,27.9999990463257,2|0|2|0,2:0|2:0|2:0|2:0,2:0:0:0:
416,72,19004,2,1,L|411:99,1,27.9999990463257,2|0,2:0|2:0,2:0:0:0:
512,227,19277,2,1,L|481:238,1,27.9999990463257,2|0,2:0|2:0,2:0:0:0:
446,304,19549,1,2,2:0:0:0:
474,149,19686,2,1,P|431:184|405:234,1,111.999996185303,2|0,2:0|2:0,2:0:0:0:
385,384,20095,6,1,P|358:305|298:247,1,167.999994277954,2|0,2:0|2:0,2:0:0:0:
223,232,20640,2,1,L|233:205,1,27.9999990463257,2|0,2:0|2:0,2:0:0:0:
182,150,20913,2,1,L|203:132,1,27.9999990463257,2|0,2:0|2:0,2:0:0:0:
340,185,21186,6,1,P|301:259|238:313,1,167.999994277954,2|0,2:0|2:0,2:0:0:0:
169,341,21731,2,1,L|158:315,1,27.9999990463257,2|0,2:0|2:0,2:0:0:0:
197,248,22004,2,1,L|175:230,1,27.9999990463257,2|0,2:0|2:0,2:0:0:0:
46,27,22277,6,1,L|51:0,3,27.9999990463257,2|0|2|2,2:0|2:0|2:0|2:0,2:0:0:0:
125,44,22822,2,1,L|130:76,1,27.9999990463257,2|0,2:0|2:0,2:0:0:0:
20,183,23095,2,1,L|51:194,1,27.9999990463257,2|0,2:0|2:0,2:0:0:0:
65,265,23368,2,1,L|37:270,1,27.9999990463257,2|0,2:0|2:0,2:0:0:0:
54,100,23640,2,1,L|72:121,1,27.9999990463257,2|0,2:0|2:0,2:0:0:0:
232,216,23913,1,2,2:0:0:0:
98,346,24049,2,1,P|140:310|166:260,1,111.999996185303,0|0,2:0|2:0,2:0:0:0:
129,193,24459,6,1,P|155:271|222:319,1,167.999994277954,2|0,2:0|2:0,2:0:0:0:
313,290,25004,2,1,L|301:320,1,27.9999990463257,2|0,2:0|2:0,2:0:0:0:
363,366,25277,2,1,L|337:386,1,27.9999990463257,2|0,2:0|2:0,2:0:0:0:
117,377,25549,6,1,P|74:348|58:298,1,104.999996423721,0|0,3:0|2:0,2:0:0:0:
245,166,25822,2,1,P|228:117|186:88,1,104.999996423721,0|0,3:0|2:0,2:0:0:0:
105,84,26095,2,1,P|152:66|162:17,1,104.999996423721,2|0,3:2|2:0,2:0:0:0:
85,8,26368,5,10,2:0:0:0:
31,223,26504,1,8,2:0:0:0:
31,223,26572,1,8,2:0:0:0:
31,223,26640,2,1,P|134:180|244:165,1,223.999992370606,4|10,3:2|2:0,2:0:0:0:
322,163,27322,2,1,L|316:136,1,27.9999990463257,2|2,2:0|2:0,2:0:0:0:
322,163,27595,2,1,L|316:136,1,27.9999990463257,2|2,2:0|2:0,2:0:0:0:
417,136,27868,1,2,2:0:0:0:
236,52,28004,6,1,P|314:119|416:137,1,209.999992847443,2|10,3:2|2:0,2:0:0:0:
351,262,28413,2,1,P|415:180|512:144,1,209.999992847443,2|2,3:2|2:0,2:0:0:0:
512,59,28754,5,0,2:0:0:0:
512,59,28822,2,1,P|471:162|460:273,1,223.999992370606,2|10,3:2|2:0,2:0:0:0:
506,356,29504,2,1,L|512:329,1,27.9999990463257,0|2,2:0|2:0,2:0:0:0:
394,318,29777,1,2,2:0:0:0:
432,383,29913,6,1,P|364:335|312:270,1,167.999994277954,2|2,3:2|3:2,2:0:0:0:
276,107,30459,1,10,2:0:0:0:
325,197,30595,2,1,L|331:170,1,27.9999990463257,2|0,2:0|2:0,2:0:0:0:
252,225,30868,1,0,2:0:0:0:
386,239,31004,6,1,P|305:164|200:128,1,223.999992370606,0|10,3:0|2:0,2:0:0:0:
127,150,31686,2,1,L|121:123,1,27.9999990463257,2|2,2:0|2:0,2:0:0:0:
127,150,31959,2,1,L|121:123,1,27.9999990463257,2|2,2:0|2:0,2:0:0:0:
2,141,32231,1,2,2:0:0:0:
169,34,32368,6,1,P|64:131|-29:138,1,209.999992847443,2|10,3:2|2:0,2:0:0:0:
0,60,32777,2,1,P|78:127|107:227,1,209.999992847443,2|2,3:2|2:0,2:0:0:0:
158,295,33118,5,0,2:0:0:0:
158,295,33186,2,1,B|223:295|195:332|260:337,1,111.999996185303,0|0,3:0|2:0,2:0:0:0:
306,283,33595,1,0,3:0:0:0:
76,370,33731,1,6,3:2:0:0:
1,314,33868,5,0,2:0:0:0:
70,294,34004,1,0,1:0:0:0:
93,366,34140,1,0,1:0:0:0:
184,219,34277,6,1,B|204:202|234:188|234:188|178:250|154:310|154:310|178:331|173:361,1,262.499991059303,4|0,3:2|2:0,2:0:0:0:
173,361,34686,1,0,2:0:0:0:
281,263,34822,2,1,B|274:256|274:256|252:117|252:117|246:114,1,157.499994635582,12|0,2:0|2:0,2:0:0:0:
245,113,35095,2,1,L|236:62,1,52.4999982118607,8|0,2:0|2:0,2:0:0:0:
285,1,35231,5,0,2:0:0:0:
285,1,35299,1,0,2:0:0:0:
285,1,35368,2,1,P|340:44|400:80,1,139.999995231628,4|0,3:2|2:0,2:0:0:0:
448,143,35640,2,1,P|393:179|342:138,1,139.999995231628,0|0,3:0|2:0,2:0:0:0:
360,12,35913,2,1,P|380:0|403:0,2,46.6666650772095,8|0|0,2:0|2:0|3:0,2:0:0:0:
400,80,36186,5,0,3:0:0:0:
206,208,36368,1,0,3:0:0:0:
206,208,36459,2,1,P|151:251|91:287,1,139.999995231628,8|0,2:0|3:0,2:0:0:0:
31,343,36731,2,1,P|84:383|143:353,1,139.999995231628,0|0,3:0|3:0,2:0:0:0:
124,218,37004,2,1,P|127:172|162:142,1,93.333330154419,8|0,2:0|3:0,2:0:0:0:
287,248,37277,6,1,P|309:241|328:253,1,46.6666650772095,8|0,2:0|2:0,2:0:0:0:
509,363,37459,1,8,2:0:0:0:
509,363,37549,2,1,P|428:322|416:233,1,186.666660308838,4|0,3:2|2:0,2:0:0:0:
488,202,37822,2,1,P|478:289|393:311,1,186.666660308838,4|0,3:2|2:0,2:0:0:0:
322,350,38095,2,1,P|300:357|281:345,2,46.6666650772095,8|0|0,2:0|2:0|3:0,2:0:0:0:
317,273,38368,5,0,2:0:0:0:
130,250,38549,1,0,3:0:0:0:
130,250,38640,1,8,2:0:0:0:
68,186,38822,5,0,3:0:0:0:
71,176,38913,1,0,3:0:0:0:
83,91,39095,5,0,3:0:0:0:
105,83,39186,1,8,2:0:0:0:
272,107,39368,5,0,3:0:0:0:
192,178,39459,1,8,2:0:0:0:
61,16,39640,5,8,2:0:0:0:
61,16,39731,2,1,P|125:41|192:63,1,139.999995231628,4|0,3:2|2:0,2:0:0:0:
260,22,40004,2,1,P|326:29|359:88,1,139.999995231628,0|0,3:0|2:0,2:0:0:0:
432,121,40277,2,1,P|445:141|465:153,2,46.6666650772095,8|0|0,2:0|2:0|3:0,2:0:0:0:
503,87,40549,5,0,3:0:0:0:
248,280,40731,1,0,3:0:0:0:
248,280,40822,2,1,P|214:222|246:163,1,139.999995231628,8|0,2:0|3:0,2:0:0:0:
359,88,41095,2,1,P|334:153|318:221,1,139.999995231628,0|0,3:0|3:0,2:0:0:0:
334,308,41368,2,1,P|376:291|392:248,1,93.333330154419,8|0,2:0|3:0,2:0:0:0:
246,163,41640,6,1,P|245:140|227:125,1,46.6666650772095,8|0,2:0|2:0,2:0:0:0:
0,157,41822,1,8,2:0:0:0:
0,157,41913,2,1,P|90:177|175:216,1,186.666660308838,4|0,3:2|2:0,2:0:0:0:
162,295,42186,2,1,P|76:300|54:217,1,186.666660308838,4|0,3:2|2:0,2:0:0:0:
127,106,42459,2,1,P|164:79|165:34,1,93.333330154419,12|0,2:0|3:0,2:0:0:0:
237,7,42731,6,1,P|244:22|256:35,1,34.9999988079071,0|0,2:0|2:0,2:0:0:0:
295,98,42868,1,0,3:0:0:0:
503,172,43140,6,1,L|509:138,2,34.9999988079071,8|8|8,2:0|2:0|2:0,2:0:0:0:
354,174,43413,1,8,2:0:0:0:
416,120,43549,1,8,2:0:0:0:
368,56,43686,1,8,2:0:0:0:
295,120,43822,5,8,2:0:0:0:
446,18,43959,1,8,2:0:0:0:
431,202,44095,1,4,3:2:0:0:
431,202,44368,6,1,L|422:253,1,52.4999982118607,2|0,3:2|2:0,2:0:0:0:
422,253,44640,1,10,2:0:0:0:
512,169,44913,1,2,2:0:0:0:
512,169,45049,1,2,2:0:0:0:
349,219,45186,1,2,2:0:0:0:
349,219,45459,6,1,L|340:271,1,52.4999982118607,2|0,3:2|2:0,2:0:0:0:
340,270,45731,1,10,2:0:0:0:
428,261,46004,1,2,2:0:0:0:
428,261,46140,1,2,2:0:0:0:
255,267,46277,6,1,P|212:242|200:192,1,104.999996423721,2|0,3:2|2:0,2:0:0:0:
191,190,46549,2,1,P|204:158|237:147,1,69.9999976158143,2|2,3:2|2:0,2:0:0:0:
283,84,46822,2,1,P|304:111|319:142,1,69.9999976158143,10|2,2:0|2:0,2:0:0:0:
363,52,47095,2,1,P|373:85|391:115,1,69.9999976158143,2|2,2:0|2:0,2:0:0:0:
391,115,47368,5,2,3:2:0:0:
185,85,47504,1,0,2:0:0:0:
185,85,47640,2,1,B|86:68|132:28|48:15,1,157.499994635582,2|0,3:2|2:0,2:0:0:0:
48,15,47913,1,10,2:0:0:0:
61,155,48049,1,2,3:2:0:0:
6,236,48322,5,2,2:0:0:0:
6,236,48459,2,1,P|55:241|73:288,1,104.999996423721,2|0,3:2|2:0,2:0:0:0:
74,289,48731,2,1,B|86:203|125:248|141:151,1,157.499994635582,2|0,3:2|2:0,2:0:0:0:
140,151,49004,1,10,2:0:0:0:
301,242,49140,1,2,2:0:0:0:
351,319,49413,5,2,2:0:0:0:
351,319,49549,2,1,P|390:286|391:235,1,104.999996423721,2|0,2:0|2:0,2:0:0:0:
391,235,49822,2,1,B|291:218|337:178|254:165,1,157.499994635582,2|0,3:2|2:0,2:0:0:0:
254,165,50095,1,10,2:0:0:0:
340,6,50231,2,1,P|360:52|408:70,1,104.999996423721,2|0,3:2|2:0,2:0:0:0:
485,90,50504,1,0,2:0:0:0:
485,90,50640,6,1,P|415:101|348:119,1,139.999995231628,4|0,3:1|2:0,2:0:0:0:
254,165,50913,2,1,P|264:132|273:98,1,69.9999976158143,10|2,3:2|3:2,2:0:0:0:
217,9,51186,1,10,2:0:0:0:
118,95,51322,5,0,3:0:0:0:
179,148,51459,2,1,P|189:114|197:80,1,69.9999976158143,0|0,3:0|3:0,2:0:0:0:
355,214,51731,2,1,P|406:216|443:182,1,104.999996423721,10|8,3:2|2:0,2:0:0:0:
486,92,52004,5,2,1:2:0:0:
253,164,52277,1,10,2:0:0:0:
443,180,52459,5,0,3:0:0:0:
504,291,52549,1,2,3:2:0:0:
504,291,52822,6,1,P|426:287|369:339,1,157.50000064373,4|0,3:2|2:0,2:0:0:0:
371,350,53095,2,1,P|336:343|302:334,1,69.9999976158143,2|0,3:2|2:0,2:0:0:0:
42,261,53368,2,1,P|68:236|110:226,1,69.9999976158143,10|2,2:0|2:0,2:0:0:0:
117,302,53640,2,1,P|150:311|176:334,1,69.9999976158143,2|2,2:0|2:0,2:0:0:0:
253,160,53913,6,1,P|286:88|331:23,1,157.499994635582,2|0,2:0|2:0,2:0:0:0:
330,23,54186,1,2,3:2:0:0:
416,0,54322,1,2,2:0:0:0:
416,0,54459,1,10,2:0:0:0:
431,219,54731,2,1,P|381:203|345:166,1,104.999996423721,2|0,2:0|2:0,2:0:0:0:
304,104,55004,6,1,P|228:101|182:161,1,157.499994635582,2|0,3:2|2:0,2:0:0:0:
182,160,55277,2,1,P|151:176|117:182,1,69.9999976158143,2|2,1:2|2:0,2:0:0:0:
52,63,55549,2,1,P|29:37|0:19,1,69.9999976158143,10|2,2:0|2:0,2:0:0:0:
114,107,55822,2,1,P|126:74|128:40,1,69.9999976158143,2|2,2:0|2:0,2:0:0:0:
37,196,56095,5,2,2:0:0:0:
251,12,56368,1,2,3:2:0:0:
488,149,56640,2,1,P|457:135|440:106,1,69.9999976158143,10|2,2:0|3:2,2:0:0:0:
360,100,56913,2,1,P|362:65|385:39,1,69.9999976158143,2|0,2:0|2:0,2:0:0:0:
418,205,57186,6,1,P|342:228|273:264,1,157.499994635582,0|0,3:0|2:0,2:0:0:0:
272,264,57459,2,1,P|239:252|217:226,1,69.9999976158143,2|0,3:2|2:0,2:0:0:0:
257,103,57731,2,1,P|272:134|273:168,1,69.9999976158143,10|2,2:0|2:0,2:0:0:0:
331,345,58004,1,2,2:0:0:0:
331,345,58140,2,1,P|381:360|427:384,1,104.999996423721,2|0,2:0|2:0,2:0:0:0:
486,312,58413,2,1,P|452:301|421:285,1,69.9999976158143,2|0,2:0|3:0,2:0:0:0:
344,228,58686,5,2,2:0:0:0:
216,225,58822,2,1,P|191:201|191:167,1,69.9999976158143,10|0,2:0|3:0,2:0:0:0:
121,130,59095,2,1,P|134:98|166:86,1,69.9999976158143,2|2,2:0|2:0,2:0:0:0:
253,68,59368,2,1,P|185:65|142:13,1,139.999995231629,2|0,3:2|2:0,2:0:0:0:
363,11,59777,5,2,3:2:0:0:
363,11,59913,2,1,P|346:60|338:112,1,104.999996423721,10|2,2:0|1:2,2:0:0:0:
43,140,60186,2,1,P|59:189|67:241,1,104.999996423721,2|2,1:2|1:2,2:0:0:0:
240,203,60459,6,1,P|309:229|315:303,1,157.499994635582,10|0,2:0|2:0,2:0:0:0:
266,365,60731,2,1,P|225:336|234:287,1,104.999996423721,8|0,2:0|2:0,2:0:0:0:
334,216,61004,6,1,P|367:226|402:230,1,69.9999976158142,0|0,3:0|2:0,2:0:0:0:
139,309,61186,1,8,2:0:0:0:
139,309,61277,2,1,P|89:326|38:338,1,104.999996423721,8|0,2:0|2:0,2:0:0:0:
38,337,61549,6,1,P|22:298|-2:274,2,69.9999976158143,4|2|10,3:2|2:0|2:0,2:0:0:0:
273,38,62640,5,2,2:0:0:0:
223,96,62913,1,0,3:0:0:0:
152,67,63186,2,1,L|45:49,1,104.999996423721,10|2,2:0|2:0,2:0:0:0:
3,278,63731,2,1,P|36:269|71:266,2,69.9999976158143,2|0|10,3:2|3:0|2:0,2:0:0:0:
273,38,64686,5,2,2:0:0:0:
328,93,64822,2,1,P|362:90|386:66,1,69.9999976158143,2|2,2:0|3:2,2:0:0:0:
478,7,65231,1,0,2:0:0:0:
478,7,65368,2,1,L|466:85,1,69.9999976158143,10|0,2:0|3:0,2:0:0:0:
508,209,65777,5,0,2:0:0:0:
508,209,65845,1,0,2:0:0:0:
508,209,65913,2,1,P|464:214|433:227,2,69.9999976158143,4|0|8,3:2|3:0|2:0,2:0:0:0:
389,161,66731,1,2,2:0:0:0:
512,357,67004,5,2,2:0:0:0:
455,304,67277,1,2,3:2:0:0:
334,220,67549,1,10,2:0:0:0:
36,128,67822,5,2,3:2:0:0:
70,146,67959,1,10,2:0:0:0:
82,181,68095,2,1,P|112:223|129:272,1,104.999996423721,2|0,3:2|2:0,2:0:0:0:
217,125,68368,2,1,P|238:77|272:37,1,104.999996423721,4|0,3:2|2:0,2:0:0:0:
103,36,68640,2,1,P|50:40|0:31,1,104.999996423721,0|0,3:0|2:0,2:0:0:0:
0,111,68913,5,0,3:0:0:0:
0,111,68981,1,8,2:0:0:0:
0,111,69049,2,1,L|31:127,1,34.9999988079071,8|8,2:0|2:0,2:0:0:0:
196,207,69186,6,1,L|233:225,1,41.9999985694886,8|0,2:0|2:0,2:0:0:0:
366,290,70186,5,0,2:0:0:0:
422,229,70277,2,1,P|297:209|215:304,1,262.499991059303,4|0,1:0|2:0,2:0:0:0:
273,363,70549,6,1,B|289:352|289:352|326:251|326:251|319:224,1,153.999994754791,2|0,3:2|2:0,2:0:0:0:
499,133,70822,1,10,2:0:0:0:
499,133,70959,2,1,P|491:206|421:228,1,153.999994754791,2|0,2:0|2:0,2:0:0:0:
234,225,71231,2,1,B|227:189|227:189|301:130|301:130|398:152,1,230.999992132187,2|0,3:2|2:0,2:0:0:0:
398,152,71504,1,0,2:0:0:0:
139,167,71640,6,1,B|102:150|102:112,1,69.9999976158143,2|0,3:2|2:0,2:0:0:0:
184,0,71913,2,1,P|178:33|149:55,1,69.9999976158143,10|0,2:0|2:0,2:0:0:0:
14,37,72186,2,1,P|45:24|77:38,1,69.9999976158143,2|0,2:0|3:0,2:0:0:0:
254,112,72390,5,0,3:0:0:0:
254,112,72459,2,1,P|123:153|45:266,2,279.999990463257,0|2|10,3:0|3:2|2:0,2:0:0:0:
306,53,73140,1,0,2:0:0:0:
76,37,73277,2,1,B|88:69|88:69|307:142|307:142|335:129,1,293.99998998642,2|0,3:2|2:0,2:0:0:0:
368,204,73686,1,0,2:0:0:0:
376,384,73822,6,1,P|334:355|339:306,1,104.999996423721,2|0,3:2|2:0,2:0:0:0:
419,135,74095,2,1,P|415:184|369:205,1,104.999996423721,10|0,2:0|2:0,2:0:0:0:
181,229,74368,2,1,P|225:207|266:237,1,104.999996423721,2|0,2:0|3:0,2:0:0:0:
423,314,74572,5,0,3:0:0:0:
423,314,74640,2,1,B|398:114|398:114|428:81|428:81|423:44,1,279.999990463257,2|2,3:2|3:2,2:0:0:0:
500,29,75049,1,2,2:0:0:0:
327,37,75186,6,1,B|305:103|378:165|378:156|452:169|445:240,1,251.999991416931,10|0,2:0|2:0,2:0:0:0:
475,375,75595,1,2,3:2:0:0:
343,289,75731,6,1,B|346:229|431:216|428:229|498:188|477:101,1,251.999991416931,2|0,2:0|3:0,2:0:0:0:
423,47,76140,1,2,2:0:0:0:
512,287,76277,6,1,B|508:251|508:251|393:182|393:182|296:204|296:204|262:185,1,307.999989509582,10|2,2:0|2:0,2:0:0:0:
108,239,76686,1,2,3:2:0:0:
108,239,76754,1,0,3:0:0:0:
108,239,76822,2,1,P|11:229|0:132,2,209.999992847443,2|0|8,3:2|3:0|2:0,2:0:0:0:
322,15,77640,6,1,P|271:11|236:48,1,104.999996423721,10|2,2:0|3:2,2:0:0:0:
167,148,77913,2,1,L|200:284,1,139.999995231628,2|0,3:2|2:0,2:0:0:0:
76,384,78186,1,2,3:2:0:0:
265,219,78368,5,8,2:0:0:0:
265,219,78459,2,1,P|198:206|166:147,1,139.999995231628,8|8,2:0|2:0,2:0:0:0:
0,62,78731,2,1,P|75:64|116:1,1,157.499994635582,0|0,1:0|2:0,2:0:0:0:
116,0,79004,6,1,P|174:40|162:97,1,104.999996423721,4|2,1:0|2:0,2:0:0:0:
265,219,79277,1,2,3:2:0:0:
165,146,79413,1,2,2:0:0:0:
262,49,79549,1,10,2:0:0:0:
262,49,79686,2,1,P|338:61|394:10,1,157.499994635582,2|0,2:0|2:0,2:0:0:0:
393,10,79959,6,1,P|442:2|471:42,1,104.999996423721,2|2,3:2|2:0,2:0:0:0:
463,278,80231,1,0,2:0:0:0:
425,117,80368,1,2,3:2:0:0:
339,188,80504,1,2,2:0:0:0:
498,208,80640,1,10,2:0:0:0:
498,208,80777,2,1,P|447:199|407:230,1,104.999996423721,0|8,2:0|2:0,2:0:0:0:
266,369,81049,6,1,P|191:381|136:327,1,157.499994635582,0|0,2:0|2:0,2:0:0:0:
136,327,81322,1,2,2:0:0:0:
323,197,81459,2,1,L|307:300,1,104.999996423721,2|2,3:2|2:0,2:0:0:0:
76,158,81731,2,1,L|91:54,1,104.999996423721,10|0,2:0|3:0,2:0:0:0:
90,54,81936,1,0,3:0:0:0:
90,54,82004,6,1,B|93:118|164:117|152:97|234:122|237:177,1,209.999992847443,10|0,3:2|2:0,2:0:0:0:
214,267,82277,2,1,B|183:270|183:270|139:219|139:219|180:109|180:109|242:94,1,279.999990463257,2|0,3:2|3:0,2:0:0:0:
512,75,82731,5,0,3:0:0:0:
512,75,82822,2,1,P|491:100|458:109,1,69.9999976158143,10|0,2:0|2:0,2:0:0:0:
299,27,83095,2,1,P|361:51|379:116,1,140.000000572205,2|0,3:2|2:0,2:0:0:0:
425,181,83368,2,1,B|363:381|363:381|362:379,2,209.999992847443,6|2|10,3:2|3:2|2:0,2:0:0:0:
474,4,84186,5,0,2:0:0:0:
366,119,84322,1,2,3:2:0:0:
292,96,84459,2,1,P|225:85|176:132,1,139.999995231628,2|0,2:0|2:0,2:0:0:0:
101,81,84731,2,1,P|84:110|98:141,1,69.9999976158142,2|0,3:2|2:0,2:0:0:0:
251,168,84913,1,0,2:0:0:0:
251,168,85004,2,1,P|311:198|325:265,1,139.999995231628,10|0,2:0|2:0,2:0:0:0:
169,358,85277,2,1,P|123:335|112:285,1,104.999996423721,2|2,2:0|2:0,2:0:0:0:
228,248,85549,6,1,L|221:294,2,46.6666650772095,2|0|0,3:2|2:0|2:0,2:0:0:0:
248,316,86095,5,8,2:0:0:0:
180,191,86277,5,0,2:0:0:0:
40,184,86459,5,0,2:0:0:0:
76,46,86640,6,1,L|89:91,1,46.6666650772095,10|0,2:0|2:0,2:0:0:0:
255,0,86822,1,0,2:0:0:0:
255,0,86913,2,1,L|255:46,1,46.6666650772095,10|0,2:0|2:0,2:0:0:0:
435,46,87095,1,8,2:0:0:0:
435,46,87186,2,1,L|423:91,1,46.6666650772095,8|0,2:0|2:0,2:0:0:0:
405,165,87368,5,8,2:0:0:0:
479,178,87459,2,1,P|470:227|421:238,1,104.999996423721,8|2,2:0|3:2,2:0:0:0:
343,53,87731,5,8,2:0:0:0:
256,192,87822,12,8,89368,2:0:0:0:
11,272,89640,5,8,2:0:0:0:
11,272,89709,1,8,2:0:0:0:
11,272,89777,1,8,2:0:0:0:
11,272,89845,1,8,2:0:0:0:
11,272,89913,2,1,L|148:243,1,139.999995231629,4|2,3:2|3:2,2:0:0:0:
193,178,90322,1,2,3:2:0:0:
147,243,90459,2,1,L|161:311,1,69.9999976158143,10|0,2:0|2:0,2:0:0:0:
235,364,90731,5,8,2:0:0:0:
235,364,90868,1,8,2:0:0:0:
235,364,91004,2,1,L|303:378,1,69.9999976158143,0|10,2:0|2:0,2:0:0:0:
461,232,91277,1,2,3:2:0:0:
461,232,91413,2,1,L|392:247,1,69.9999976158143,2|2,2:0|2:0,2:0:0:0:
198,184,91686,2,1,L|225:46,1,139.999995231629,2|2,3:2|2:0,2:0:0:0:
310,33,92095,5,2,3:2:0:0:
310,33,92231,2,1,L|404:54,1,69.9999976158143,0|8,2:0|2:0,2:0:0:0:
439,0,92504,1,2,3:2:0:0:
439,113,92640,2,1,L|371:127,1,69.9999976158143,2|0,2:0|2:0,2:0:0:0:
297,191,92913,5,8,2:0:0:0:
297,191,93049,1,8,2:0:0:0:
297,191,93186,2,1,L|400:209,1,104.999996423721,0|0,3:0|2:0,2:0:0:0:
400,209,93459,1,2,2:0:0:0:
217,216,93595,2,1,L|203:147,1,69.9999976158143,10|2,2:0|2:0,2:0:0:0:
82,8,93868,5,0,2:0:0:0:
200,44,94004,1,2,3:2:0:0:
30,128,94140,1,0,2:0:0:0:
125,85,94277,6,1,L|100:222,1,139.999995231629,4|10,3:2|2:0,2:0:0:0:
108,298,94686,1,10,2:0:0:0:
99,222,94822,2,1,L|31:208,1,69.9999976158143,10|10,2:0|2:0,2:0:0:0:
189,346,95095,5,10,2:0:0:0:
189,346,95231,1,10,2:0:0:0:
189,346,95368,2,1,L|257:333,1,69.9999976158143,10|0,2:0|2:0,2:0:0:0:
476,265,95640,1,2,3:2:0:0:
476,265,95777,2,1,L|407:252,1,69.9999976158143,0|10,2:0|2:0,2:0:0:0:
347,384,96049,2,1,L|324:245,1,139.999995231629,2|2,3:2|2:0,2:0:0:0:
364,166,96459,1,2,3:2:0:0:
364,166,96595,2,1,L|432:178,1,69.9999976158143,10|10,2:0|2:0,2:0:0:0:
435,19,96868,1,2,3:2:0:0:
512,86,97004,2,1,L|443:100,2,69.9999976158143,10|2|2,2:0|2:0|3:2,2:0:0:0:
512,185,97413,5,0,2:0:0:0:
367,64,97549,2,1,P|320:87|291:131,1,104.999996423721,2|0,3:2|2:0,2:0:0:0:
221,161,97822,1,8,2:0:0:0:
221,161,97890,1,8,2:0:0:0:
221,161,97959,2,1,P|213:145|200:133,1,34.9999988079071,8|8,2:0|2:0,2:0:0:0:
34,42,98095,1,8,2:0:0:0:
17,137,98277,5,0,1:0:0:0:
17,137,98368,2,1,P|87:101|129:35,1,157.499994635582,4|0,3:2|2:0,2:0:0:0:
201,4,98640,2,1,P|216:35|242:58,1,69.9999976158143,4|0,3:2|2:0,2:0:0:0:
452,200,98913,6,1,P|465:167|485:138,1,69.9999976158143,2|2,3:2|3:2,2:0:0:0:
377,181,99186,2,1,P|383:146|380:111,1,69.9999976158143,10|2,2:0|2:0,2:0:0:0:
447,70,99459,1,2,2:0:0:0:
447,70,99595,1,2,2:0:0:0:
115,197,100004,6,1,P|128:229|148:258,1,69.9999976158143,2|2,3:2|2:0,2:0:0:0:
40,216,100277,2,1,P|46:250|43:285,1,69.9999976158143,10|2,2:0|2:0,2:0:0:0:
111,330,100549,1,2,2:0:0:0:
111,330,100686,1,2,2:0:0:0:
178,371,100822,6,1,P|249:345|314:335,1,139.999995231629,2|2,3:2|3:2,2:0:0:0:
352,264,101231,1,2,2:0:0:0:
389,359,101368,2,1,P|414:334|425:302,1,69.9999976158143,10|2,2:0|2:0,2:0:0:0:
479,242,101640,2,1,P|461:212|456:171,1,69.9999976158143,2|0,2:0|2:0,2:0:0:0:
512,79,101913,2,1,P|447:103|378:114,1,139.999995231629,0|0,3:0|3:0,2:0:0:0:
479,242,102322,6,1,P|492:209|509:178,1,69.9999976158143,0|8,2:0|2:0,2:0:0:0:
340,0,102595,2,1,P|330:33|312:63,1,69.9999976158143,2|0,2:0|2:0,2:0:0:0:
256,192,102868,1,2,2:0:0:0:
256,192,103004,1,0,3:0:0:0:
28,158,103277,6,1,L|15:89,1,69.9999976158143,2|2,3:2|2:0,2:0:0:0:
104,144,103549,2,1,L|91:75,1,69.9999976158143,10|2,2:0|2:0,2:0:0:0:
145,13,103822,6,1,P|171:37|204:47,1,69.9999976158143,2|2,2:0|2:0,2:0:0:0:
247,113,104095,2,1,P|214:122|189:146,1,69.9999976158143,2|0,2:0|2:0,2:0:0:0:
79,219,104368,1,2,3:2:0:0:
79,219,104504,2,1,P|106:241|140:238,1,69.9999976158143,2|10,2:0|2:0,2:0:0:0:
256,192,104777,1,0,2:0:0:0:
256,384,104913,1,2,3:2:0:0:
256,384,105186,6,1,P|274:307|320:241,2,157.499994635582,2|0|2,3:2|2:0|3:2,2:0:0:0:
387,277,105731,2,1,P|417:259|432:228,1,69.9999976158142,2|0,3:2|2:0,2:0:0:0:
505,185,105913,5,8,2:0:0:0:
469,116,106004,5,8,2:0:0:0:
396,99,106095,5,8,3:0:0:0:
359,63,106186,5,8,3:0:0:0:
372,24,106277,6,1,B|380:15|380:15|426:24|426:24|429:34,5,69.9999976158142,0|0|0|0|0|0,1:0|1:0|1:0|1:0|1:0|1:0,2:0:0:0:
327,142,106822,6,1,B|236:161|236:161|173:90,1,186.666660308838,12|0,2:0|2:0,2:0:0:0:
198,17,107095,2,1,B|247:24|247:24|257:66,1,93.333330154419,8|0,2:0|2:0,2:0:0:0:
490,117,107277,5,0,2:0:0:0:
490,117,107368,2,1,B|421:128|421:128|400:196,1,140.000000572205,4|0,3:2|2:0,2:0:0:0:
399,359,107640,2,1,B|460:322|460:322|457:249,1,139.999995231628,0|0,3:0|2:0,2:0:0:0:
306,188,107913,2,1,B|300:161|300:161|277:153,1,52.4999982118607,2|0,2:0|2:0,2:0:0:0:
76,97,108049,5,8,2:0:0:0:
100,171,108186,2,1,L|203:188,1,104.999996423721,2|2,2:0|3:2,2:0:0:0:
262,254,108459,6,1,B|222:289|222:289|172:272,1,104.999996423721,2|8,2:0|2:0,2:0:0:0:
152,82,108731,2,1,B|170:64|170:64|194:73,1,52.4999982118607,10|0,2:0|2:0,2:0:0:0:
370,4,108868,5,0,3:0:0:0:
294,38,109004,2,1,B|337:89|337:89|407:75,1,139.999995231628,10|0,2:0|3:0,2:0:0:0:
512,136,109277,2,1,B|443:147|443:147|422:215,1,139.999995231628,2|0,3:2|3:0,2:0:0:0:
299,325,109549,6,1,B|344:378|344:378|412:363,1,139.999995231628,4|0,3:2|2:0,2:0:0:0:
512,323,109822,2,1,L|374:297,1,139.999995231628,2|0,3:2|2:0,2:0:0:0:
318,245,110095,2,1,B|292:236|292:236|284:213,1,52.4999982118607,2|0,2:0|2:0,2:0:0:0:
221,19,110231,5,10,2:0:0:0:
176,82,110368,2,1,B|136:117|136:117|85:101,1,104.999996423721,2|2,2:0|3:2,2:0:0:0:
0,25,110640,2,1,B|60:-11|60:-11|119:27,1,139.999995231628,2|0,2:0|2:0,2:0:0:0:
295,72,110913,2,1,B|263:84|263:84|257:119,1,69.9999976158142,10|0,2:0|2:0,2:0:0:0:
90,106,111095,5,0,2:0:0:0:
90,106,111186,2,1,L|67:244,1,139.999995231628,12|0,2:0|3:0,2:0:0:0:
116,352,111459,2,1,B|180:327|180:327|202:259,1,139.999995231628,0|0,3:0|3:0,2:0:0:0:
362,130,111731,6,1,B|384:198|384:198|448:223,1,139.999995231628,4|0,3:2|2:0,2:0:0:0:
496,158,112004,2,1,B|481:135|481:135|456:132,1,52.4999982118607,2|0,3:2|2:0,2:0:0:0:
295,258,112140,5,0,2:0:0:0:
295,258,112277,2,1,L|289:206,3,52.4999982118607,10|10|10|2,2:0|2:0|2:0|3:2,2:0:0:0:
355,320,112549,2,1,B|424:340|424:340|475:296,1,139.999995231628,2|0,3:2|2:0,2:0:0:0:
512,227,112822,1,2,3:2:0:0:
362,130,112959,1,10,2:0:0:0:
512,32,113095,1,2,2:0:0:0:
511,133,113277,5,8,2:0:0:0:
511,133,113368,2,1,L|441:123,1,69.9999976158142,8|0,2:0|2:0,2:0:0:0:
296,34,113549,5,8,3:0:0:0:
224,9,113640,5,8,3:0:0:0:
148,14,113731,5,4,3:0:0:0:
82,42,113822,5,4,3:0:0:0:
39,100,113913,6,1,P|16:98|0:81,1,46.6666650772093,4|0,3:2|2:0,2:0:0:0:
1,82,114186,6,1,B|136:34|296:145|268:325|268:325|213:202|108:194,1,630.000002574921,2|0,3:2|2:0,2:0:0:0:
56,216,114731,2,1,P|80:277|147:285,1,139.999995231629,2|0,3:2|2:0,2:0:0:0:
271,333,115004,2,1,B|258:298|241:316|229:279,2,69.9999976158142,0|0|0,3:0|3:0|3:0,2:0:0:0:
307,133,115277,2,1,B|283:161|308:168|282:197,2,69.9999976158142,0|0|0,3:0|3:0|3:0,2:0:0:0:
133,197,115549,6,1,P|158:195|179:179,1,52.4999982118607,8|0,2:0|2:0,2:0:0:0:
374,169,115686,2,1,P|394:185|402:210,1,52.4999982118607,8|0,2:0|2:0,2:0:0:0:
512,360,115822,5,8,2:0:0:0:
512,360,115890,1,8,2:0:0:0:
512,360,115959,1,8,2:0:0:0:
512,360,116027,1,8,2:0:0:0:
512,360,116095,2,1,P|429:264|457:141,1,262.499991059303,4|0,1:0|2:0,2:0:0:0:
321,24,116368,6,1,B|317:0|317:0|373:-17|373:-17|435:17,1,153.999994754791,2|0,3:2|2:0,2:0:0:0:
510,249,116640,1,10,2:0:0:0:
510,249,116777,2,1,P|456:207|457:139,1,139.999995231629,2|0,2:0|2:0,2:0:0:0:
512,30,117049,2,1,B|516:51|516:51|454:105|454:105|386:79|386:79|357:96,1,209.999992847443,2|0,3:2|2:0,2:0:0:0:
357,96,117322,1,0,2:0:0:0:
132,197,117459,6,1,P|177:170|196:122,1,104.999996423721,2|0,3:2|2:0,2:0:0:0:
309,14,117731,1,10,2:0:0:0:
92,81,117868,1,2,2:0:0:0:
244,225,118004,2,1,B|302:237|272:257|334:271,1,104.999996423721,2|0,2:0|3:0,2:0:0:0:
342,293,118209,5,0,3:0:0:0:
342,293,118277,2,1,P|344:344|310:381,1,104.999996423721,0|0,3:0|2:0,2:0:0:0:
277,90,118549,2,1,P|319:62|369:72,1,104.999996423721,2|0,3:2|2:0,2:0:0:0:
150,236,118822,2,1,P|104:212|88:164,1,104.999996423721,10|0,2:0|2:0,2:0:0:0:
432,153,119095,6,1,B|450:184|450:184|399:240|399:240|281:204|281:204|238:219,1,279.999990463257,2|0,3:2|2:0,2:0:0:0:
172,161,119504,1,0,2:0:0:0:
117,334,119640,6,1,P|168:335|205:300,1,104.999996423721,2|0,3:2|2:0,2:0:0:0:
294,165,119913,2,1,P|267:90|245:15,1,157.499994635582,10|0,2:0|2:0,2:0:0:0:
246,16,120186,1,2,2:0:0:0:
0,113,120322,1,0,2:0:0:0:
96,0,120459,6,1,B|118:22|118:22|70:239|70:239|46:252,1,279.999990463257,2|2,3:2|3:2,2:0:0:0:
18,327,120868,5,2,2:0:0:0:
205,299,121004,2,1,B|195:202|118:204|109:213|57:161|80:104,1,251.999991416931,10|0,2:0|2:0,2:0:0:0:
22,34,121413,5,2,3:2:0:0:
192,93,121549,2,1,B|213:135|167:185|164:175|113:174|74:255|121:304,1,251.999991416931,2|0,2:0|3:0,2:0:0:0:
212,375,121959,5,2,2:0:0:0:
1,191,122095,2,1,B|-11:165|-11:165|32:131|32:131|227:168|227:168|241:189,1,307.999989509582,10|2,2:0|2:0,2:0:0:0:
416,163,122504,1,2,3:2:0:0:
416,163,122572,1,0,3:0:0:0:
416,163,122640,2,1,P|383:72|288:89,2,209.999992847443,2|0|8,3:2|3:0|2:0,2:0:0:0:
261,366,123459,6,1,P|248:317|269:270,1,104.999996423721,10|2,2:0|3:2,2:0:0:0:
373,236,123731,2,1,L|509:264,1,139.999995231628,2|0,3:2|2:0,2:0:0:0:
512,112,124004,1,2,3:2:0:0:
345,312,124186,5,8,2:0:0:0:
345,312,124277,2,1,P|377:280|372:235,1,93.333330154419,8|0,2:0|2:0,2:0:0:0:
419,148,124459,1,8,2:0:0:0:
381,84,124549,2,1,P|358:45|374:2,1,93.333330154419,4|0,1:2|2:0,2:0:0:0:
285,2,124731,6,1,P|374:54|473:28,1,210.000000858307,0|2,2:0|2:0,2:0:0:0:
169,115,125095,2,1,P|185:165|195:216,1,104.999996423721,2|2,3:2|2:0,2:0:0:0:
135,268,125368,1,10,2:0:0:0:
335,150,125504,6,1,P|252:87|190:3,1,209.999992847443,2|2,2:0|3:2,2:0:0:0:
78,132,125913,2,1,P|127:145|168:115,1,104.999996423721,2|0,2:0|2:0,2:0:0:0:
119,16,126186,1,2,3:2:0:0:
5,174,126322,1,2,2:0:0:0:
195,216,126459,1,10,2:0:0:0:
11,92,126595,6,1,P|50:149|72:215,1,139.999995231629,2|8,2:0|2:0,2:0:0:0:
192,384,126868,1,2,2:0:0:0:
192,384,126936,1,2,2:0:0:0:
192,384,127004,2,1,P|210:334|238:290,1,104.999996423721,2|2,3:2|2:0,2:0:0:0:
247,145,127277,1,2,3:2:0:0:
132,282,127413,1,2,2:0:0:0:
310,235,127549,2,1,P|354:262|385:304,1,104.999996423721,10|0,2:0|3:0,2:0:0:0:
385,304,127754,5,0,3:0:0:0:
385,304,127822,2,1,P|366:204|439:135,1,209.999992847443,10|0,3:2|2:0,2:0:0:0:
323,2,128095,2,1,B|302:24|302:24|342:75|342:75|463:51|463:51|512:87,1,279.999990463257,2|0,3:2|3:0,2:0:0:0:
512,246,128549,5,0,3:0:0:0:
512,246,128640,2,1,P|442:250|396:193,1,139.999995231629,10|0,2:0|2:0,2:0:0:0:
169,171,128913,1,2,3:2:0:0:
337,99,129049,1,0,2:0:0:0:
206,255,129186,6,1,P|119:344|0:384,2,251.999991416931,6|2|10,3:2|3:2|2:0,2:0:0:0:
268,119,130004,5,0,2:0:0:0:
59,211,130140,1,2,3:2:0:0:
59,211,130277,2,1,P|75:275|139:296,1,139.999995231628,2|0,2:0|2:0,2:0:0:0:
206,255,130549,2,1,P|222:224|254:213,1,69.9999976158142,2|0,3:2|2:0,2:0:0:0:
405,191,130731,1,0,2:0:0:0:
405,191,130822,2,1,P|395:280|314:320,1,186.666660308838,10|0,2:0|2:0,2:0:0:0:
275,384,131095,2,1,P|231:370|211:329,1,93.333330154419,2|0,2:0|2:0,2:0:0:0:
122,162,131277,5,0,2:0:0:0:
122,162,131368,1,2,3:2:0:0:
98,21,131640,6,1,B|98:63|121:45|121:84,1,69.9999976158143,0|0,3:0|2:0,2:0:0:0:
253,213,131913,2,1,B|215:192|219:220|186:201,1,69.9999976158143,8|0,2:0|3:0,2:0:0:0:
9,251,132186,2,1,B|45:229|18:218|52:199,1,69.9999976158143,0|10,3:0|2:0,2:0:0:0:
194,32,132459,6,1,B|278:56|278:56|294:48,1,104.999996423721,10|2,2:0|3:2,2:0:0:0:
352,110,132731,2,1,B|388:68|388:68|375:20,1,104.999996423721,10|8,2:0|2:0,2:0:0:0:
118,0,133004,5,8,2:0:0:0:
95,39,133095,5,8,2:0:0:0:
116,93,133186,5,8,2:0:0:0:
183,123,133277,5,8,2:0:0:0:
260,123,133368,5,8,2:0:0:0:
313,177,133459,5,8,2:0:0:0:
322,249,133549,6,1,B|349:285|374:308|374:308|246:186|69:190|69:190|102:195|113:214,1,466.666650772095,4|0,3:2|2:0,2:0:0:0:
46,260,134004,5,0,3:0:0:0:
46,259,134095,2,1,P|133:204|237:196,1,209.999992847443,10|0,2:0|2:0,2:0:0:0:
252,274,134368,2,1,P|221:292|201:320,1,69.9999976158143,2|0,3:2|2:0,2:0:0:0:
312,324,134504,2,1,P|302:347|300:373,1,52.4999982118607,2|0,2:0|2:0,2:0:0:0:
394,295,134640,2,1,B|477:235|524:135|524:135|498:185|511:216,1,291.666656732559,2|0,2:0|2:0,2:0:0:0:
512,216,134913,2,1,B|516:250|536:273|536:273|448:175|338:174,1,291.666656732559,2|0,3:2|2:0,2:0:0:0:
337,173,135186,6,1,P|324:150|300:139,1,52.4999982118607,10|0,2:0|2:0,2:0:0:0:
302,125,135322,2,1,P|285:105|279:79,1,52.4999982118607,0|0,3:0|2:0,2:0:0:0:
167,0,135459,2,1,P|197:42|201:93,1,104.999996423721,2|0,3:2|3:0,2:0:0:0:
152,149,135663,5,0,2:0:0:0:
152,149,135731,2,1,B|159:26|281:-54|396:-7|396:-7|352:-20|304:-1,1,437.499985098839,6|0,3:2|2:0,2:0:0:0:
471,35,136140,1,0,2:0:0:0:
471,35,136209,1,0,2:0:0:0:
471,35,136277,2,1,P|442:75|393:66,1,104.999996423721,10|0,2:0|2:0,2:0:0:0:
64,48,136549,6,1,B|51:36|31:32|31:32|311:87|311:87|328:177|430:189|430:189|379:182|360:137,1,583.333313465119,2|0,3:2|2:0,2:0:0:0:
244,149,137095,2,1,P|159:170|82:212,1,174.999994039536,2|0,3:2|2:0,2:0:0:0:
140,312,137368,6,1,P|152:280|176:255,1,69.9999976158143,10|0,2:0|2:0,2:0:0:0:
166,242,137504,2,1,P|170:207|162:173,1,69.9999976158143,2|0,2:0|2:0,2:0:0:0:
64,46,137640,2,1,P|43:113|3:171,1,139.999995231629,2|2,2:0|2:0,2:0:0:0:
3,170,137845,5,0,2:0:0:0:
3,170,137913,2,1,B|99:163|137:238|125:246|169:383|273:340,1,349.999988079071,6|0,3:2|2:0,2:0:0:0:
272,340,138322,1,0,3:2:0:0:
466,341,138459,2,1,B|450:306|450:306|307:264,1,186.666660308838,8|0,2:0|2:0,2:0:0:0:
162,240,138731,1,0,3:0:0:0:
162,240,138913,2,1,L|250:210,1,93.333330154419,8|0,2:0|3:0,2:0:0:0:
372,182,139186,1,0,3:0:0:0:
295,121,139277,6,1,B|260:102|260:102|304:186|307:264,1,209.999992847443,12|0,2:0|2:0,2:0:0:0:
364,328,139549,2,1,L|432:315,1,69.9999976158143,0|0,3:2|2:0,2:0:0:0:
510,299,139686,1,8,2:0:0:0:
372,182,139822,1,8,2:0:0:0:
488,104,139959,1,8,2:0:0:0:
464,2,140095,6,1,P|454:104|511:190,1,209.999992847443,4|0,3:2|2:0,2:0:0:0:
510,190,140368,2,1,P|519:213|502:194,1,69.9999976158143,2|0,3:2|2:0,2:0:0:0:
427,235,140549,6,1,P|351:185|318:99,1,186.666660308838,8|0,2:0|2:0,2:0:0:0:
320,89,140777,2,1,P|337:70|327:93,1,69.9999976158143,0|0,3:2|2:0,2:0:0:0:
258,11,140913,6,1,P|214:90|239:178,1,186.666660308838,8|0,2:0|2:0,2:0:0:0:
314,221,141186,1,0,1:0:0:0:
314,221,141277,2,1,P|324:187|348:163,1,69.9999976158142,8|0,2:0|3:0,2:0:0:0:
412,205,141459,2,1,P|402:239|378:263,1,69.9999976158142,0|8,3:0|2:0,2:0:0:0:
347,331,141640,5,8,2:0:0:0:
327,351,141731,5,0,3:0:0:0:
278,361,141822,5,0,1:0:0:0:
234,328,141913,5,8,2:0:0:0:
196,264,142004,5,8,2:0:0:0:
135,215,142095,5,8,2:0:0:0:
59,226,142186,5,8,2:0:0:0:
18,291,142277,6,1,L|27:324,7,34.9999988079071,6|2|2|2|2|2|2|2,3:2|2:0|2:0|2:0|2:0|2:0|2:0|3:2,2:0:0:0:
60,227,142822,2,1,L|75:176,1,52.4999982118607,10|2,2:0|2:0,2:0:0:0:
138,215,142959,2,1,L|176:179,1,52.4999982118607,2|2,2:0|2:0,2:0:0:0:
302,52,143095,6,1,L|251:36,3,52.4999982118607,2|2|2|2,3:2|2:0|2:0|2:0,2:0:0:0:
210,111,143368,2,1,L|163:60,2,69.9999976158142,2|0|0,2:0|2:0|2:0,2:0:0:0:
288,126,143640,2,1,L|303:193,1,69.9999976158142,2|0,3:2|2:0,2:0:0:0:
373,254,143822,5,0,2:0:0:0:
373,254,143913,2,1,L|169:304,1,209.999992847443,10|2,2:0|2:0,2:0:0:0:
169,303,144186,1,2,3:2:0:0:
303,194,144322,2,1,L|506:244,1,209.999992847443,10|2,2:0|2:0,2:0:0:0:
506,244,144595,1,2,2:0:0:0:
407,145,144731,2,1,L|373:9,1,139.999995231629,10|2,2:0|2:0,2:0:0:0:
373,9,145004,6,1,L|367:61,1,52.4999982118607,2|2,3:2|2:0,2:0:0:0:
287,54,145140,2,1,L|301:104,1,52.4999982118607,10|2,2:0|2:0,2:0:0:0:
262,141,145277,2,1,L|227:101,1,52.4999982118607,2|2,3:2|2:0,2:0:0:0:
211,141,145413,2,1,L|236:187,1,52.4999982118607,2|2,3:2|2:0,2:0:0:0:
336,243,145549,5,10,2:0:0:0:
154,284,145686,2,1,P|196:218|212:141,1,157.499994635582,10|2,2:0|2:0,2:0:0:0:
166,36,145959,2,1,P|149:85|111:120,1,104.999996423721,10|10,2:0|2:0,2:0:0:0:
15,128,146231,5,2,3:2:0:0:
15,128,146299,1,2,2:0:0:0:
15,128,146368,2,1,P|81:142|115:201,1,139.999995231629,10|10,2:0|2:0,2:0:0:0:
234,311,146640,2,1,L|249:361,1,52.4999982118607,6|2,3:2|2:0,2:0:0:0:
317,319,146777,2,1,P|407:369|504:337,1,209.999992847443,2|2,2:0|2:0,2:0:0:0:
510,332,147049,6,1,L|493:282,1,52.4999982118607,2|2,2:0|3:2,2:0:0:0:
431,288,147186,2,1,L|443:237,1,52.4999982118607,10|2,2:0|2:0,2:0:0:0:
368,194,147322,2,1,L|380:245,1,52.4999982118607,2|2,2:0|2:0,2:0:0:0:
291,201,147459,2,1,L|250:151,2,52.4999982118607,2|2|2,3:2|2:0|2:0,2:0:0:0:
274,88,147731,5,2,2:0:0:0:
274,88,147799,1,2,2:0:0:0:
274,88,147868,2,1,P|293:69|317:58,1,52.4999982118607,2|10,2:0|2:0,2:0:0:0:
365,0,148004,1,2,2:0:0:0:
365,0,148072,1,2,2:0:0:0:
365,0,148140,2,1,P|390:6|411:21,1,52.4999982118607,2|2,3:2|2:0,2:0:0:0:
504,4,148277,6,1,P|419:62|316:58,1,209.999992847443,10|2,2:0|2:0,2:0:0:0:
238,122,148549,2,1,P|189:32|91:2,1,209.999992847443,10|2,2:0|2:0,2:0:0:0:
77,11,148822,6,1,P|72:46|88:78,1,69.9999976158143,10|2,2:0|2:0,2:0:0:0:
2,84,148959,2,1,P|14:116|43:134,1,69.9999976158143,2|2,3:2|2:0,2:0:0:0:
107,199,149095,2,1,L|117:148,2,52.4999982118607,10|2|10,2:0|2:0|2:0,2:0:0:0:
242,129,149368,6,1,P|272:114|307:119,1,69.9999976158143,6|2,3:2|2:0,2:0:0:0:
321,156,149504,2,1,P|350:176|363:208,1,69.9999976158143,10|10,2:0|2:0,2:0:0:0:
432,265,149640,2,1,P|396:303|378:352,1,104.999996423721,10|10,2:0|2:0,2:0:0:0:
378,352,149845,1,2,2:0:0:0:
378,352,149913,6,1,B|294:331|332:309|254:292,1,139.999995231629,10|2,2:0|2:0,2:0:0:0:
247,283,150118,2,1,B|185:291|216:311|152:323,1,104.999996423721,2|2,1:2|2:0,2:0:0:0:
151,330,150322,2,1,P|140:343|126:354,1,34.9999988079071,2|2,3:2|2:0,2:0:0:0:
43,384,150459,2,1,P|52:284|143:240,2,209.999992847443,2|2|6,3:2|3:2|3:2,2:0:0:0:
28,292,159731,6,1,P|22:326|14:360,1,69.9999976158143,2|0,3:2|3:0,2:0:0:0:
86,384,160277,1,10,2:0:0:0:
101,250,160549,1,2,2:0:0:0:
101,250,161095,6,1,P|104:270|108:291,1,41.9999985694886,2|8,3:2|2:0,2:0:0:0:
272,229,161640,1,2,2:0:0:0:
201,178,161913,6,1,P|195:212|187:246,1,69.9999976158143,2|0,3:2|3:0,2:0:0:0:
229,310,162459,1,10,2:0:0:0:
339,154,162731,1,2,2:0:0:0:
339,154,163277,6,1,P|342:174|346:195,1,41.9999985694886,2|10,3:2|2:0,2:0:0:0:
302,268,163822,2,1,L|304:257,3,10.4999996423721,0|8|8|8,3:0|2:0|2:0|2:0,2:0:0:0:
363,312,164095,5,4,3:2:0:0:
234,141,166277,6,1,P|219:177|197:209,1,78.7499973177912,2|0,3:2|2:0,2:0:0:0:
274,246,166549,2,1,P|288:209|310:177,1,78.7499973177912,2|0,3:2|2:0,2:0:0:0:
285,123,166822,6,1,P|292:187|318:247,1,131.249995529652,2|0,3:2|2:0,2:0:0:0:
227,266,167095,2,1,P|219:201|193:141,1,131.249995529652,2|0,3:2|2:0,2:0:0:0:
356,145,167368,6,1,P|305:221|272:307,1,183.749993741513,2|0,3:2|2:0,2:0:0:0:
157,244,167640,2,1,P|208:168|241:82,1,183.749993741513,2|0,3:2|2:0,2:0:0:0:
399,175,167913,6,1,P|288:133|191:66,1,236.249991953373,2|0,3:2|2:0,2:0:0:0:
100,197,168186,2,1,P|230:246|345:325,1,279.999990463257,2|0,3:2|2:0,2:0:0:0:
345,325,169822,6,1,P|321:364|278:378,1,93.333330154419,8|8,2:0|2:0,2:0:0:0:
207,348,170095,2,1,P|191:330|170:321,2,46.6666650772095,2|8|8,3:2|2:0|2:0,2:0:0:0:
287,252,170368,1,8,2:0:0:0:
287,252,170459,2,1,P|275:271|273:295,1,46.6666650772095,8|8,2:0|2:0,2:0:0:0:
397,368,170640,6,9,L|389:333,1,34.9999988079071,8|8,2:0|2:0,2:0:0:0:
402,325,170777,2,9,L|410:291,1,34.9999988079071,8|8,2:0|2:0,2:0:0:0:
491,293,170913,1,8,2:0:0:0:
491,293,170981,1,8,2:0:0:0:
491,293,171049,2,9,L|480:241,1,52.4999982118607,8|8,2:0|2:0,2:0:0:0:
503,170,171186,6,9,L|513:118,1,52.4999982118607,8|8,2:0|2:0,2:0:0:0:
420,110,171322,2,9,L|431:58,1,52.4999982118607,8|8,2:0|2:0,2:0:0:0:
345,194,171459,1,8,2:0:0:0:
345,194,171527,1,8,2:0:0:0:
345,194,171595,2,9,L|397:184,1,52.4999982118607,8|8,2:0|2:0,2:0:0:0:
470,48,171731,5,8,2:0:0:0:
470,48,171799,1,8,2:0:0:0:
470,48,171868,2,9,P|435:47|409:25,1,69.9999976158143,8|8,2:0|2:0,2:0:0:0:
289,122,172004,1,8,2:0:0:0:
279,119,172072,1,8,2:0:0:0:
271,113,172140,2,9,P|258:80|270:47,1,69.9999976158143,8|8,2:0|2:0,2:0:0:0:
132,29,172277,6,1,L|127:5,1,23.3333325386047,4|0,3:2|2:0,2:0:0:0:
88,98,172822,6,1,B|112:119|112:119|326:55|326:55|344:71,1,279.999990463257,4|2,1:0|3:2,2:0:0:0:
404,24,173231,5,2,2:0:0:0:
206,6,173368,2,1,B|206:85|286:102|287:85|384:104|389:188,1,279.999990463257,10|0,2:0|2:0,2:0:0:0:
446,243,173777,5,2,3:2:0:0:
298,332,173913,2,1,P|342:200|434:95,1,279.999990463257,2|0,2:0|3:0,2:0:0:0:
506,67,174322,5,2,2:0:0:0:
370,262,174459,2,1,B|361:278|361:278|301:286|301:286|189:156|189:156|160:150,1,279.999990463257,10|2,2:0|2:0,2:0:0:0:
1,312,174868,1,2,3:2:0:0:
1,312,174936,1,0,3:0:0:0:
1,312,175004,2,1,P|98:318|142:229,2,209.999992847443,2|0|8,3:2|3:0|2:0,2:0:0:0:
228,30,175822,6,1,P|259:70|255:121,1,104.999996423721,10|2,2:0|3:2,2:0:0:0:
174,207,176095,2,1,P|102:177|26:155,1,157.499994635582,2|0,3:2|2:0,2:0:0:0:
26,155,176368,5,2,3:2:0:0:
162,95,176504,1,0,2:0:0:0:
239,302,176640,2,1,P|295:341|364:342,1,140.000000572205,8|8,2:0|2:0,2:0:0:0:
371,336,176913,2,1,P|388:287|433:263,1,104.999996423721,0|0,1:0|2:0,2:0:0:0:
512,99,177186,2,1,P|460:87|410:71,1,104.999996423721,4|2,1:0|2:0,2:0:0:0:
334,124,177459,5,2,3:2:0:0:
465,0,177595,1,2,2:0:0:0:
512,181,177731,1,10,2:0:0:0:
512,181,177868,2,1,P|433:185|357:205,1,157.499994635582,2|0,2:0|2:0,2:0:0:0:
351,211,178140,2,1,P|300:212|266:174,1,104.999996423721,2|2,3:2|2:0,2:0:0:0:
246,9,178413,5,0,2:0:0:0:
385,114,178549,1,2,3:2:0:0:
200,228,178686,1,2,2:0:0:0:
122,141,178822,1,10,2:0:0:0:
122,141,178959,2,1,P|194:111|270:90,1,157.499994635582,2|0,2:0|2:0,2:0:0:0:
344,43,179231,5,2,2:0:0:0:
344,43,179299,1,2,2:0:0:0:
344,43,179368,2,1,P|295:22|245:8,1,104.999996423721,2|2,3:2|2:0,2:0:0:0:
34,129,179640,2,1,P|30:180|62:220,1,104.999996423721,2|2,3:2|3:2,2:0:0:0:
138,273,179845,1,0,3:0:0:0:
138,273,179913,1,10,3:2:0:0:
322,238,180049,1,0,2:0:0:0:
113,356,180186,6,1,P|162:367|202:335,1,104.999996423721,10|0,2:0|2:0,2:0:0:0:
272,129,180459,2,1,P|248:194|236:263,1,140.000000572205,2|0,3:2|2:0,2:0:0:0:
237,264,180731,2,1,P|304:273|345:327,1,139.999995231628,0|0,3:0|3:0,2:0:0:0:
401,384,181004,5,10,2:0:0:0:
509,261,181140,1,0,3:0:0:0:
509,261,181209,1,0,3:0:0:0:
509,261,181277,2,1,P|434:246|398:179,1,157.499994635582,2|0,3:2|2:0,2:0:0:0:
502,26,181549,2,1,B|481:86|481:86|317:118|317:118|302:103,2,251.999991416931,6|2|10,3:2|3:2|2:0,2:0:0:0:
320,5,182368,5,0,2:0:0:0:
499,119,182504,1,2,3:2:0:0:
499,119,182640,2,1,P|439:82|372:62,1,139.999995231628,2|0,2:0|2:0,2:0:0:0:
302,103,182913,2,1,P|275:125|241:130,1,69.9999976158142,2|0,3:2|2:0,2:0:0:0:
190,190,183095,1,0,2:0:0:0:
190,190,183186,2,1,P|132:156|122:89,1,139.999995231628,10|0,2:0|2:0,2:0:0:0:
220,0,183459,2,1,P|219:33|196:65,1,69.9999976158142,2|0,2:0|2:0,2:0:0:0:
62,192,183640,5,0,2:0:0:0:
62,192,183731,1,2,3:2:0:0:
19,384,184004,6,1,L|0:280,1,104.999996423721,2|0,2:0|2:0,2:0:0:0:
75,267,184277,2,1,L|81:301,1,34.9999988079071,8|0,2:0|2:0,2:0:0:0:
171,361,184413,2,1,L|151:257,1,104.999996423721,0|0,3:0|3:0,2:0:0:0:
90,107,184686,5,8,2:0:0:0:
90,107,184822,2,1,L|68:38,1,69.9999976158142,10|0,2:0|2:0,2:0:0:0:
256,0,185004,1,0,2:0:0:0:
256,0,185095,2,1,L|256:80,1,69.9999976158142,10|0,2:0|2:0,2:0:0:0:
421,107,185277,1,0,2:0:0:0:
421,107,185368,2,1,L|441:40,1,52.4999982118607,10|0,2:0|2:0,2:0:0:0:
174,37,185504,6,0,P|162:86|190:128,1,104.999996423721,10|0,2:0|3:0,2:0:0:0:
368,299,185822,5,8,2:0:0:0:
368,299,185913,2,1,P|332:261|264:198,1,139.999995231628,4|0,3:2|2:0,2:0:0:0:
105,232,186186,2,1,P|156:220|258:189,1,139.999995231628,0|0,2:0|3:0,2:0:0:0:
296,38,186459,2,1,P|280:88|260:175,1,139.999995231628,8|0,2:0|2:0,2:0:0:0:
241,279,186731,1,2,2:0:0:0:
347,167,186913,5,0,2:0:0:0:
347,167,187004,2,1,L|452:128,1,107.333329677582,8|0,2:0|2:0,2:0:0:0:
241,279,187277,2,1,L|219:384,1,107.333329677582,2|0,2:0|3:0,2:0:0:0:
188,125,187549,2,1,L|100:52,1,107.333329677582,8|0,2:0|2:0,2:0:0:0:
300,47,187822,1,8,2:0:0:0:
356,301,188004,5,0,2:0:0:0:
356,300,188095,2,1,P|353:231|308:179,1,139.999995231628,4|0,3:2|2:0,2:0:0:0:
120,224,188368,2,1,P|181:255|248:241,1,139.999995231628,0|0,3:0|2:0,2:0:0:0:
300,47,188640,2,1,P|242:83|220:149,1,139.999995231628,8|0,2:0|2:0,2:0:0:0:
248,241,188913,5,2,2:0:0:0:
450,301,189095,1,0,3:0:0:0:
450,301,189186,2,1,L|470:367,1,46.6666650772095,10|0,2:0|2:0,2:0:0:0:
256,384,189368,1,0,2:0:0:0:
256,384,189459,2,1,L|256:314,1,46.6666650772095,10|0,2:0|2:0,2:0:0:0:
62,301,189640,1,0,2:0:0:0:
62,301,189731,2,1,L|46:351,1,52.4999982118607,2|0,3:2|2:0,2:0:0:0:
335,344,189868,6,0,P|365:303|350:255,1,104.999996423721,0|8,3:0|2:0,2:0:0:0:
210,135,190186,5,8,2:0:0:0:
210,135,190277,2,1,P|166:161|74:148,1,139.999995231628,4|0,3:2|2:0,2:0:0:0:
229,259,190549,2,1,P|274:284|317:363,1,139.999995231628,0|0,3:0|3:0,2:0:0:0:
327,181,190822,2,1,P|326:129|373:56,1,139.999995231628,8|0,2:0|3:0,2:0:0:0:
440,27,191095,1,2,2:0:0:0:
359,259,191277,5,0,2:0:0:0:
359,259,191368,2,1,P|411:239|465:225,1,111.999996185303,8|0,2:0|3:0,2:0:0:0:
270,74,191640,2,1,P|226:39|187:0,1,111.999996185303,2|0,2:0|3:0,2:0:0:0:
146,247,191913,2,1,P|135:301|117:355,1,111.999996185303,8|0,2:0|3:0,2:0:0:0:
192,384,192186,1,8,2:0:0:0:
79,134,192368,5,0,2:0:0:0:
79,134,192459,2,1,P|145:156|210:182,1,139.999995231628,4|0,3:2|2:0,2:0:0:0:
293,377,192731,2,1,P|279:308|269:239,1,139.999995231628,0|0,3:0|2:0,2:0:0:0:
399,69,193004,2,1,P|346:115|291:158,1,139.999995231628,8|0,2:0|2:0,2:0:0:0:
291,158,193277,5,2,2:0:0:0:
83,51,193459,1,0,3:0:0:0:
83,51,193549,2,1,L|64:-23,1,46.6666650772095,10|0,2:0|2:0,2:0:0:0:
255,0,193731,1,0,2:0:0:0:
255,0,193822,2,1,L|256:47,1,46.6666650772095,10|0,2:0|2:0,2:0:0:0:
429,51,194004,1,0,2:0:0:0:
429,51,194095,2,1,L|448:-23,1,46.6666650772095,2|0,3:2|2:0,2:0:0:0:
171,54,194277,6,0,P|174:88|198:112,1,69.9999976158142,0|8,2:0|2:0,2:0:0:0:
263,314,194549,5,0,2:0:0:0:
263,314,194640,2,1,P|330:329|351:272,1,139.999995231628,4|0,3:2|2:0,2:0:0:0:
146,137,194913,2,1,P|100:180|138:234,1,139.999995231628,0|0,3:0|3:0,2:0:0:0:
358,124,195186,2,1,P|342:62|278:68,1,139.999995231628,8|0,2:0|3:0,2:0:0:0:
190,294,195459,1,2,2:0:0:0:
210,94,195640,5,0,2:0:0:0:
210,94,195731,2,1,P|173:52|157:-1,1,111.999996185303,8|0,2:0|3:0,2:0:0:0:
190,294,196004,2,1,P|170:345|130:384,1,111.999996185303,2|0,2:0|3:0,2:0:0:0:
387,200,196277,2,1,P|442:193|495:206,1,111.999996185303,8|0,2:0|3:0,2:0:0:0:
326,88,196549,1,8,2:0:0:0:
77,226,196731,5,0,2:0:0:0:
77,226,196822,2,1,P|149:194|226:179,1,139.999995231628,4|0,3:2|2:0,2:0:0:0:
373,332,197095,2,1,P|310:285|258:226,1,139.999995231628,0|0,3:0|2:0,2:0:0:0:
315,22,197368,2,1,P|306:100|281:175,1,139.999995231628,8|0,2:0|2:0,2:0:0:0:
288,159,197640,5,2,2:0:0:0:
78,307,197822,1,0,3:0:0:0:
78,307,197913,2,1,L|92:351,1,46.6666650772095,10|0,2:0|2:0,2:0:0:0:
256,384,198095,1,0,2:0:0:0:
256,384,198186,2,1,L|256:337,1,46.6666650772095,10|0,2:0|2:0,2:0:0:0:
434,307,198368,1,0,2:0:0:0:
434,307,198459,2,1,L|419:351,1,46.6666650772095,2|0,3:2|2:0,2:0:0:0:
179,318,198640,6,1,P|189:285|216:264,1,69.9999976158142,0|8,2:0|2:0,2:0:0:0:
377,81,198913,5,0,2:0:0:0:
377,81,199004,2,1,P|331:105|304:187,1,139.999995231628,4|0,3:2|2:0,2:0:0:0:
99,142,199277,2,1,P|143:170|227:148,1,139.999995231628,0|0,3:0|3:0,2:0:0:0:
291,352,199549,2,1,P|293:300|236:233,1,139.999995231628,8|0,2:0|3:0,2:0:0:0:
253,83,199822,1,2,2:0:0:0:
127,350,200004,5,0,2:0:0:0:
127,350,200095,2,1,P|135:295|165:248,1,111.999996185303,8|0,2:0|3:0,2:0:0:0:
182,0,200368,2,1,P|226:33|252:82,1,111.999996185303,2|0,2:0|3:0,2:0:0:0:
460,219,200640,2,1,P|408:240|353:238,1,111.999996185303,8|0,2:0|3:0,2:0:0:0:
130,142,200913,5,8,2:0:0:0:
373,67,201095,1,0,2:0:0:0:
373,67,201186,1,4,3:2:0:0:
461,219,201322,6,1,P|465:201|472:185,2,34.9999988079071,0|0|0,1:0|1:0|3:0,2:0:0:0:
511,115,201595,1,8,2:0:0:0:
277,178,201731,1,8,2:0:0:0:
352,237,201868,5,0,3:0:0:0:
276,93,202004,1,8,2:0:0:0:
109,115,202140,1,0,3:0:0:0:
255,273,202277,6,1,P|240:325|228:374,1,104.999996423721,10|2,2:0|3:2,2:0:0:0:
35,162,202549,2,1,P|23:110|12:59,1,104.999996423721,10|10,2:0|2:0,2:0:0:0:
138,4,202822,5,2,3:2:0:0:
17,248,202959,1,0,3:0:0:0:
17,248,203027,1,0,3:0:0:0:
17,248,203095,2,1,B|32:269|32:269|26:295,1,52.4999982118607,8|0,2:0|2:0,2:0:0:0:
89,367,203231,6,1,B|59:372|59:372|15:330|15:330|157:202|157:202|185:97|185:97|90:17|90:17|127:200,1,699.999976158142,8|0,2:0|2:0,2:0:0:0:
