osu file format v14

[General]
AudioFilename: audio.ogg
AudioLeadIn: 0
PreviewTime: 70174
Countdown: 0
SampleSet: Soft
StackLeniency: 0.9
Mode: 0
LetterboxInBreaks: 0
WidescreenStoryboard: 1

[Editor]
Bookmarks: 9186,17913,26640,35368,44095,61549,70277,89913,107368,116095,133549,142277,151004,168459,172822
DistanceSpacing: 1.2
BeatDivisor: 4
GridSize: 32
TimelineZoom: 1.299999

[Metadata]
Title:Kinkyuu Namahousou
TitleUnicode:緊急生放送
Artist:NEE
ArtistUnicode:NEE
Creator:Ryuusei Aika
Version:Voice's Normal
Source:
Tags:VoiceCore Stormiverse TtmnZk elvin l1ght_u light_u -Hitomi LimeTwist Emergency Live Broadcast Japanese Exotic Indie Rock J-Rock JRock SEKAI くぅ 夕日 かほ 大樹 KinKyu Namahoso Kinkyū namahōsō
BeatmapID:3825235
BeatmapSetID:1817367

[Difficulty]
HPDrainRate:3
CircleSize:3.5
OverallDifficulty:4
ApproachRate:5
SliderMultiplier:1.19999990463257
SliderTickRate:1

[Events]
//Background and Video events
0,0,"bg.jpg",0,0
//Break Periods
2,107568,114895
2,151203,158531
//Storyboard Layer 0 (Background)
//Storyboard Layer 1 (Fail)
//Storyboard Layer 2 (Pass)
//Storyboard Layer 3 (Foreground)
//Storyboard Layer 4 (Overlay)
//Storyboard Sound Samples

[TimingPoints]
459,545.454545454546,4,2,1,40,1,0
9186,-100,4,2,1,60,0,0
9731,-90.9090909090909,4,2,1,60,0,0
17913,-90.9090909090909,4,2,1,40,0,0
19277,-100,4,2,1,40,0,0
26640,-90.9090909090909,4,2,1,50,0,0
33186,-90.9090909090909,4,2,1,60,0,0
44368,-90.9090909090909,4,2,1,50,0,0
52822,-90.9090909090909,4,2,1,60,0,0
62095,-100,4,2,1,40,0,0
70277,-83.3333333333333,4,2,3,70,0,1
70413,-83.3333333333333,4,2,1,70,0,1
79004,-83.3333333333333,4,2,3,70,0,1
79140,-83.3333333333333,4,2,1,70,0,1
87731,-83.3333333333333,4,2,1,70,0,0
89913,-83.3333333333333,4,2,1,50,0,0
91277,-100,4,2,1,50,0,0
98640,-90.9090909090909,4,2,1,50,0,0
107368,-90.9090909090909,4,2,1,60,0,0
116095,-90.9090909090909,4,2,3,70,0,1
116231,-90.9090909090909,4,2,1,70,0,1
116640,-83.3333333333333,4,2,1,70,0,1
124822,-83.3333333333333,4,2,3,70,0,1
124958,-83.3333333333333,4,2,1,70,0,1
133549,-83.3333333333333,4,2,1,70,0,0
151003,-83.3333333333333,4,2,1,60,0,0
159731,-100,4,2,1,40,0,0
166277,-100,4,2,1,30,0,0
166549,-100,4,2,1,35,0,0
166822,-100,4,2,1,40,0,0
167094,-100,4,2,1,45,0,0
167368,-100,4,2,1,55,0,0
167640,-100,4,2,1,60,0,0
167913,-100,4,2,1,65,0,0
168185,-100,4,2,1,70,0,0
169822,-100,4,2,1,30,0,0
170095,-100,4,2,1,50,0,0
170367,-100,4,2,1,60,0,0
170640,-100,4,2,1,65,0,0
172822,-83.3333333333333,4,2,3,70,0,1
172959,-83.3333333333333,4,2,1,70,0,1
177186,-83.3333333333333,4,2,3,70,0,1
177322,-83.3333333333333,4,2,1,70,0,1
185913,-90.9090909090909,4,2,1,70,0,0

[Colours]
Combo1 : 159,80,0
Combo2 : 0,128,64
Combo3 : 0,80,159
Combo4 : 159,0,0

[HitObjects]
56,121,9186,5,4,3:2:0:0:
5,181,9459,1,0,3:0:0:0:
43,249,9731,2,0,P|93:233|173:224,1,131.999989509583,8|8,2:0|2:0,2:0:0:0:
239,367,10822,2,0,P|277:372|328:384,1,65.9999947547913,8|8,2:0|2:0,2:0:0:0:
366,327,11368,1,4,3:2:0:0:
337,253,11640,1,0,3:0:0:0:
259,236,11913,2,0,P|275:182|291:102,1,131.999989509583,8|8,2:0|2:0,2:0:0:0:
159,17,13004,2,0,P|157:60|177:92,1,65.9999947547913,8|8,2:0|2:0,2:0:0:0:
243,100,13549,5,4,3:2:0:0:
300,45,13822,1,0,3:0:0:0:
361,95,14095,2,0,P|416:106|500:115,1,131.999989509583,8|8,2:0|2:0,2:0:0:0:
463,270,15186,2,0,P|428:274|381:283,1,65.9999947547913,8|8,2:0|2:0,2:0:0:0:
358,348,15731,1,4,3:2:0:0:
285,316,16004,1,4,3:2:0:0:
211,344,16277,2,0,P|240:281|226:208,1,131.999989509583,8|8,2:0|2:0,2:0:0:0:
91,149,17368,2,0,P|29:173|21:181,2,65.9999947547913,8|0|4,2:0|3:0|3:2,2:0:0:0:
91,149,19277,6,0,P|42:149|3:120,3,89.9999928474427,2|2|2|0,2:0|2:0|2:0|2:0,2:0:0:0:
133,43,21186,2,0,P|163:23|221:28,1,89.9999928474427,2|0,2:0|2:0,2:0:0:0:
225,174,22277,1,2,2:0:0:0:
225,174,23640,2,0,P|235:119|258:89,3,89.9999928474427,2|0|2|0,2:0|2:0|2:0|2:0,2:0:0:0:
400,56,25549,2,0,P|411:18|418:-5,2,59.9999952316285,0|0|2,3:0|3:0|3:2,2:0:0:0:
386,114,26368,1,10,2:0:0:0:
386,114,26640,6,0,P|444:64|511:84,1,131.999989509583,4|10,3:2|2:0,2:0:0:0:
460,143,27459,1,2,2:0:0:0:
510,203,27731,1,2,2:0:0:0:
510,203,28004,2,0,P|472:221|453:280,1,98.999992132187,2|2,3:2|3:2,2:0:0:0:
500,380,28822,2,0,P|442:330|381:343,1,131.999989509583,2|10,3:2|2:0,2:0:0:0:
319,369,29640,1,2,2:0:0:0:
319,369,29913,2,0,P|258:376|173:390,1,131.999989509583,2|10,3:2|2:0,2:0:0:0:
150,233,31004,6,0,P|137:190|192:117,1,131.999989509583,0|10,3:0|2:0,2:0:0:0:
246,167,31822,1,2,2:0:0:0:
301,110,32095,1,2,2:0:0:0:
301,110,32368,2,0,L|406:128,1,98.999992132187,2|2,3:2|3:2,2:0:0:0:
432,12,33186,2,0,L|512:-3,1,65.9999947547913,0|0,3:0|2:0,2:0:0:0:
509,78,33731,2,0,B|518:150|461:122|482:219,2,131.999989509583,6|4|12,3:2|3:2|2:0,2:0:0:0:
356,33,35368,5,4,3:2:0:0:
288,73,35640,1,0,3:0:0:0:
303,150,35913,2,0,P|221:140|163:137,1,131.999989509583,8|8,2:0|2:0,2:0:0:0:
16,105,37004,2,0,P|14:68|23:41,1,65.9999947547913,8|8,2:0|2:0,2:0:0:0:
95,9,37549,1,4,3:2:0:0:
156,59,37822,1,4,3:2:0:0:
172,137,38095,2,0,P|141:199|73:199,1,131.999989509583,8|8,2:0|2:0,2:0:0:0:
4,341,39186,2,0,P|45:315|71:312,1,65.9999947547913,8|8,2:0|2:0,2:0:0:0:
112,373,39731,5,4,3:2:0:0:
184,341,40004,1,0,3:0:0:0:
257,370,40277,2,0,P|288:322|273:227,1,131.999989509583,8|8,2:0|2:0,2:0:0:0:
155,158,41368,2,0,P|192:190|215:194,1,65.9999947547913,8|8,2:0|2:0,2:0:0:0:
283,172,41913,1,4,3:2:0:0:
344,121,42186,1,4,3:2:0:0:
399,177,42459,2,0,B|374:221|374:221|386:278,1,98.999992132187,12|0,2:0|3:0,2:0:0:0:
502,276,43277,2,0,P|483:245|440:233,2,65.9999947547913,8|8|8,2:0|2:0|2:0,2:0:0:0:
381,378,44368,5,2,3:2:0:0:
389,300,44640,2,0,L|300:311,1,65.9999947547913,10|2,2:0|2:0,2:0:0:0:
270,158,45459,1,2,3:2:0:0:
238,230,45731,2,0,L|156:220,1,65.9999947547913,10|2,2:0|2:0,2:0:0:0:
148,378,46549,1,2,3:2:0:0:
82,333,46822,2,0,L|15:348,1,65.9999947547913,10|2,2:0|2:0,2:0:0:0:
25,268,47368,2,0,P|61:215|59:135,1,131.999989509583,2|10,3:2|2:0,2:0:0:0:
0,0,48459,5,2,3:2:0:0:
54,56,48731,2,0,P|80:65|127:60,1,65.9999947547913,2|10,3:2|2:0,2:0:0:0:
114,221,49549,1,2,2:0:0:0:
195,214,49822,2,0,P|218:201|246:154,1,65.9999947547913,2|10,3:2|2:0,2:0:0:0:
324,305,50640,1,4,3:1:0:0:
349,230,50913,2,0,P|357:204|346:155,2,65.9999947547913,10|10|0,3:2|2:0|3:0,2:0:0:0:
404,287,51731,2,0,P|420:345|505:363,1,131.999989509583,10|10,3:2|2:0,2:0:0:0:
505,212,52822,6,0,P|496:156|484:77,1,131.999989509583,4|10,3:2|2:0,2:0:0:0:
405,81,53640,1,2,2:0:0:0:
405,81,53913,2,0,P|391:125|381:157,2,65.9999947547913,2|2|10,2:0|3:2|2:0,2:0:0:0:
412,3,54731,2,0,P|364:44|290:24,1,131.999989509583,2|2,2:0|1:2,2:0:0:0:
225,5,55549,1,10,2:0:0:0:
316,134,56095,1,2,2:0:0:0:
316,134,56368,2,0,L|229:155,1,65.9999947547913,2|10,3:2|2:0,2:0:0:0:
183,189,56913,6,0,P|177:139|122:77,1,131.999989509583,2|2,2:0|3:2,2:0:0:0:
80,144,57731,2,0,P|27:142|-6:89,2,98.999992132187,10|2|0,2:0|2:0|3:0,2:0:0:0:
125,78,58822,1,10,2:0:0:0:
125,78,59095,2,0,P|159:62|194:50,1,65.9999947547913,2|2,2:0|3:2,2:0:0:0:
266,189,59913,2,0,P|253:242|249:276,1,65.9999947547913,10|2,2:0|1:2,2:0:0:0:
182,293,60459,1,10,2:0:0:0:
119,246,60731,1,8,2:0:0:0:
52,290,61004,1,0,3:0:0:0:
52,290,62095,6,0,P|50:344|-5:384,2,119.999990463257,10|2|10,2:0|2:0|2:0,2:0:0:0:
3,180,63731,2,0,L|130:159,1,119.999990463257,2|10,3:2|2:0,2:0:0:0:
214,236,64822,2,0,L|341:251,1,119.999990463257,2|10,2:0|2:0,2:0:0:0:
451,227,65913,1,4,3:2:0:0:
377,329,66459,2,0,B|253:334|339:373|204:376,1,179.999985694885,8|2,2:0|3:2,2:0:0:0:
168,330,67549,2,0,P|140:322|97:322,1,59.9999952316285,10|2,2:0|3:2,2:0:0:0:
63,359,68095,2,0,P|34:377|1:377,1,59.9999952316285,2|4,3:2|3:2,2:0:0:0:
109,229,69186,1,8,2:0:0:0:
109,229,70277,6,0,P|112:179|131:151,1,71.9999942779542,4|2,1:0|3:2,2:0:0:0:
148,78,70822,2,0,P|90:68|40:55,2,107.999991416931,10|2|2,2:0|3:2|3:2,2:0:0:0:
231,54,71913,1,10,2:0:0:0:
201,224,72459,1,0,3:0:0:0:
201,224,72731,2,0,P|252:202|291:212,1,71.9999942779542,2|10,3:2|2:0,2:0:0:0:
332,260,73277,2,0,P|329:195|389:142,1,143.999988555908,2|2,3:2|3:2,2:0:0:0:
468,128,74095,1,10,2:0:0:0:
507,296,74640,6,0,L|490:385,1,71.9999942779542,2|2,3:2|3:2,2:0:0:0:
417,324,75186,2,0,P|370:310|300:373,1,143.999988555908,10|2,2:0|2:0,2:0:0:0:
241,303,76004,1,0,3:0:0:0:
179,363,76277,2,0,L|29:383,1,143.999988555908,10|2,2:0|3:2,2:0:0:0:
92,218,77368,1,8,2:0:0:0:
169,180,77640,2,0,P|178:122|186:102,2,71.9999942779542,10|2|2,2:0|3:2|3:2,2:0:0:0:
253,199,78459,1,8,2:0:0:0:
298,272,78731,1,0,1:0:0:0:
298,272,79004,6,0,P|273:312|264:356,1,71.9999942779542,4|2,1:0|3:2,2:0:0:0:
352,342,79549,2,0,P|389:362|470:332,2,107.999991416931,10|2|2,2:0|3:2|3:2,2:0:0:0:
408,276,80640,1,10,2:0:0:0:
506,134,81186,2,0,L|485:57,1,71.9999942779542,2|2,3:2|3:2,2:0:0:0:
413,18,81731,1,10,2:0:0:0:
381,98,82004,1,10,2:0:0:0:
351,179,82277,2,0,P|274:167|185:154,1,143.999988555908,2|10,3:2|2:0,2:0:0:0:
61,248,83368,6,0,P|106:186|107:159,1,71.9999942779542,6|2,3:2|3:2,2:0:0:0:
27,153,83913,2,0,L|10:-1,1,143.999988555908,10|2,2:0|2:0,2:0:0:0:
75,67,84731,1,2,3:2:0:0:
75,67,85004,2,0,P|125:52|171:50,1,71.9999942779542,10|2,2:0|2:0,2:0:0:0:
222,11,85549,2,0,B|297:24|254:78|353:92,1,143.999988555908,2|8,3:2|2:0,2:0:0:0:
510,88,86640,1,10,2:0:0:0:
448,26,86913,1,10,2:0:0:0:
377,76,87186,2,0,B|302:88|345:142|246:156,1,143.999988555908,8|8,2:0|2:0,2:0:0:0:
261,153,89913,5,4,3:2:0:0:
261,153,91277,2,0,P|306:119|345:121,3,89.9999928474427,2|2|2|2,3:2|3:2|3:2|3:2,2:0:0:0:
477,174,93186,2,0,P|506:217|508:254,2,89.9999928474427,0|10|2,3:0|2:0|3:2,2:0:0:0:
417,177,94277,1,4,3:2:0:0:
417,177,95640,2,0,P|374:217|327:209,3,89.9999928474427,2|2|2|2,3:2|3:2|3:2|3:2,2:0:0:0:
225,307,97549,2,0,P|212:274|193:243,2,59.9999952316285,2|8|8,3:2|2:0|2:0,2:0:0:0:
213,366,98368,1,4,3:2:0:0:
213,366,98640,6,0,P|136:336|81:340,1,131.999989509583,4|10,3:2|2:0,2:0:0:0:
20,380,99459,1,2,2:0:0:0:
118,256,100004,2,0,P|118:217|95:176,1,65.9999947547913,2|10,3:2|2:0,2:0:0:0:
31,169,100549,2,0,B|10:110|10:110|60:53,1,131.999989509583,2|2,2:0|3:2,2:0:0:0:
133,42,101368,1,10,2:0:0:0:
217,176,101913,1,0,3:0:0:0:
217,176,102186,2,0,L|289:157,1,65.9999947547913,0|8,3:0|2:0,2:0:0:0:
345,111,102731,6,0,P|314:145|346:236,1,131.999989509583,2|2,3:2|3:2,2:0:0:0:
397,263,103549,1,10,2:0:0:0:
491,136,104095,2,0,L|480:65,1,65.9999947547913,2|2,2:0|3:2,2:0:0:0:
413,28,104640,2,0,P|344:52|271:50,1,131.999989509583,10|2,2:0|3:2,2:0:0:0:
132,11,105731,1,2,3:2:0:0:
104,166,106277,1,0,1:0:0:0:
256,209,106822,1,12,2:0:0:0:
270,131,107095,1,8,2:0:0:0:
285,52,107368,5,4,3:2:0:0:
339,28,116095,6,0,P|297:34|272:51,1,65.9999967689514,4|2,1:0|3:2,2:0:0:0:
301,131,116640,2,0,P|282:184|277:242,2,107.999991416931,10|2|2,2:0|3:2|3:2,2:0:0:0:
387,132,117731,1,10,2:0:0:0:
459,288,118277,1,0,3:0:0:0:
459,288,118549,2,0,L|380:302,1,71.9999942779542,2|10,3:2|2:0,2:0:0:0:
328,363,119095,2,0,B|273:315|273:315|203:336,1,143.999988555908,2|2,3:2|3:2,2:0:0:0:
122,363,119913,1,10,2:0:0:0:
92,192,120459,6,0,P|84:234|75:281,1,71.9999942779542,2|2,3:2|3:2,2:0:0:0:
47,344,121004,2,0,P|7:316|8:212,1,143.999988555908,10|2,2:0|2:0,2:0:0:0:
20,143,121822,1,0,3:0:0:0:
92,192,122095,2,0,L|242:173,1,143.999988555908,10|2,2:0|3:2,2:0:0:0:
402,130,123186,1,8,2:0:0:0:
342,67,123459,2,0,P|328:31|313:0,2,71.9999942779542,10|2|2,2:0|3:2|3:2,2:0:0:0:
258,90,124277,1,8,2:0:0:0:
234,173,124549,1,0,1:0:0:0:
234,173,124822,6,0,L|147:157,1,71.9999942779542,4|2,1:0|3:2,2:0:0:0:
78,143,125368,2,0,B|86:191|86:191|82:198|82:198|94:257,2,107.999991416931,10|2|2,2:0|3:2|3:2,2:0:0:0:
63,57,126459,1,10,2:0:0:0:
233,86,127004,2,0,P|236:42|281:11,1,71.9999942779542,2|2,3:2|3:2,2:0:0:0:
339,18,127549,1,10,2:0:0:0:
392,85,127822,1,10,2:0:0:0:
351,161,128095,2,0,P|312:236|366:297,1,143.999988555908,2|10,3:2|2:0,2:0:0:0:
441,367,129186,6,0,P|451:309|460:277,1,71.9999942779542,6|2,3:2|3:2,2:0:0:0:
505,226,129731,2,0,L|488:72,1,143.999988555908,10|2,2:0|2:0,2:0:0:0:
421,28,130549,1,2,3:2:0:0:
421,28,130822,2,0,P|389:73|298:67,1,143.999988555908,10|2,2:0|3:2,2:0:0:0:
146,140,131913,1,8,2:0:0:0:
293,228,132459,2,0,L|307:303,1,71.9999942779542,10|10,2:0|2:0,2:0:0:0:
261,373,133004,2,0,P|212:351|181:351,1,71.9999942779542,8|8,2:0|2:0,2:0:0:0:
108,364,133549,6,0,B|0:403|-60:207|110:118|159:204|159:204|179:241|222:237,1,431.999965667725,4|10,3:2|2:0,2:0:0:0:
231,151,135459,1,2,3:2:0:0:
255,70,135731,2,0,P|322:55|407:53,1,143.999988555908,6|10,3:2|2:0,2:0:0:0:
443,125,136549,2,0,P|361:149|210:148,1,215.999982833863,2|10,3:2|2:0,2:0:0:0:
92,49,137913,5,6,3:2:0:0:
92,49,138186,2,0,P|46:26|2:40,1,71.9999942779542,0|8,2:0|2:0,2:0:0:0:
35,114,138731,2,0,B|25:158|25:158|116:234|116:234|104:293,1,215.999982833863,0|0,3:0|3:2,2:0:0:0:
250,378,140095,2,0,P|214:324|219:280,2,107.999991416931,4|0|8,3:2|3:0|2:0,2:0:0:0:
302,309,141186,2,0,P|384:315|432:247,1,143.999988555908,0|0,1:0|3:0,2:0:0:0:
402,103,142277,6,0,P|413:56|406:29,1,71.9999942779542,6|2,3:2|2:0,2:0:0:0:
327,66,142822,2,0,P|313:25|287:4,1,71.9999942779542,10|2,2:0|3:2,2:0:0:0:
242,77,143368,2,0,L|163:83,2,71.9999942779542,2|2|10,2:0|3:2|2:0,2:0:0:0:
335,222,144459,1,2,3:2:0:0:
335,222,144731,2,0,B|396:215|368:256|446:248,2,107.999991416931,10|10|10,2:0|2:0|2:0,2:0:0:0:
295,299,145822,1,2,3:2:0:0:
295,299,146095,2,0,P|248:313|216:335,1,71.9999942779542,10|10,2:0|2:0,2:0:0:0:
153,281,146640,6,0,P|118:270|74:276,2,71.9999942779542,6|2|10,3:2|2:0|2:0,2:0:0:0:
279,163,147731,2,0,P|268:52|256:-2,1,143.999988555908,2|10,2:0|2:0,2:0:0:0:
175,9,148549,1,10,2:0:0:0:
100,53,148822,1,10,2:0:0:0:
100,53,149095,2,0,P|60:104|81:173,1,107.999991416931,10|10,2:0|2:0,2:0:0:0:
131,254,149913,2,0,B|311:241|180:151|404:123,1,287.999977111817,10|6,2:0|3:2,2:0:0:0:
37,247,159731,6,0,P|99:223|157:220,1,119.999990463257,2|10,3:2|2:0,2:0:0:0:
206,244,160549,1,2,2:0:0:0:
260,351,161095,1,2,3:2:0:0:
260,351,161368,2,0,P|312:375|377:365,1,119.999990463257,8|2,2:0|3:2,2:0:0:0:
453,278,162459,1,10,2:0:0:0:
453,278,162731,2,0,L|440:186,2,89.9999928474427,2|2|10,2:0|2:0|2:0,2:0:0:0:
333,276,164095,1,4,3:2:0:0:
333,276,166277,6,0,P|282:262|261:261,1,59.9999952316285,2|2,3:2|3:2,2:0:0:0:
234,216,166822,2,0,P|182:229|164:239,1,59.9999952316285,2|2,3:2|3:2,2:0:0:0:
118,214,167368,2,0,P|80:251|69:268,1,59.9999952316285,2|2,3:2|3:2,2:0:0:0:
17,270,167913,2,0,P|3:321|1:342,1,59.9999952316285,2|2,3:2|3:2,2:0:0:0:
2,327,169822,5,8,2:0:0:0:
2,327,170095,2,0,P|46:329|65:339,1,59.9999952316285,2|8,3:2|2:0,2:0:0:0:
114,311,170640,2,0,P|169:348|228:331,2,119.999990463257,8|8|8,2:0|2:0|2:0,2:0:0:0:
93,192,172277,1,4,3:2:0:0:
187,83,172822,6,0,L|286:74,1,71.9999942779542,4|2,1:0|3:2,2:0:0:0:
338,42,173368,2,0,B|290:96|290:96|311:165,1,143.999988555908,10|2,2:0|2:0,2:0:0:0:
385,114,174186,1,0,3:0:0:0:
457,64,174459,2,0,B|478:133|478:133|430:187,1,143.999988555908,10|2,2:0|3:2,2:0:0:0:
315,315,175549,1,8,2:0:0:0:
228,313,175822,2,0,P|213:359|206:397,2,71.9999942779542,10|2|2,2:0|3:2|3:2,2:0:0:0:
170,247,176640,1,8,2:0:0:0:
175,160,176913,1,0,1:0:0:0:
175,160,177186,6,0,P|220:125|186:35,1,143.999988555908,4|10,1:0|2:0,2:0:0:0:
35,14,178277,2,0,P|-10:49|24:139,1,143.999988555908,2|10,2:0|2:0,2:0:0:0:
91,127,179095,1,8,2:0:0:0:
91,127,179368,2,0,P|98:189|101:211,1,71.9999942779542,2|2,3:2|3:2,2:0:0:0:
51,270,179913,2,0,P|45:318|35:359,2,71.9999942779542,10|10|2,2:0|2:0|3:2,2:0:0:0:
188,374,181004,1,10,2:0:0:0:
320,263,181549,6,0,L|245:273,1,71.9999942779542,6|2,3:2|3:2,2:0:0:0:
181,217,182095,2,0,P|189:159|233:130,2,107.999991416931,10|2|2,2:0|3:2|3:2,2:0:0:0:
248,272,183186,2,0,P|343:281|403:296,1,143.999988555908,10|2,2:0|3:2,2:0:0:0:
503,161,184277,1,8,2:0:0:0:
347,84,184822,2,0,P|334:46|335:0,1,71.9999942779542,10|10,2:0|2:0,2:0:0:0:
246,14,185368,1,10,2:0:0:0:
185,76,185640,1,0,3:0:0:0:
191,162,185913,6,0,P|253:150|339:136,1,131.999989509583,4|8,3:2|2:0,2:0:0:0:
422,260,187004,2,0,P|428:325|374:366,1,131.999989509583,8|8,2:0|2:0,2:0:0:0:
306,340,187822,1,8,2:0:0:0:
306,340,188095,2,0,L|312:258,2,65.9999947547913,4|0|8,3:2|3:0|2:0,2:0:0:0:
149,359,189186,2,0,P|97:347|85:348,1,65.9999947547913,10|10,2:0|2:0,2:0:0:0:
12,380,189731,1,2,3:2:0:0:
111,257,190277,6,0,P|108:155|97:104,1,131.999989509583,4|8,3:2|2:0,2:0:0:0:
5,1,191368,2,0,P|53:41|129:33,1,131.999989509583,8|8,2:0|2:0,2:0:0:0:
194,13,192186,1,8,2:0:0:0:
194,13,192459,2,0,L|200:87,2,65.9999947547913,4|0|8,3:2|3:0|2:0,2:0:0:0:
318,111,193549,2,0,P|323:166|305:191,1,65.9999947547913,10|10,2:0|2:0,2:0:0:0:
256,222,194095,1,2,3:2:0:0:
129,124,194640,6,0,B|94:162|94:162|120:252,1,131.999989509583,4|8,3:2|2:0,2:0:0:0:
258,308,195731,2,0,P|308:282|388:284,1,131.999989509583,8|8,2:0|2:0,2:0:0:0:
446,329,196549,1,8,2:0:0:0:
446,329,196822,2,0,P|421:378|404:386,2,65.9999947547913,4|0|8,3:2|3:0|2:0,2:0:0:0:
461,171,197913,2,0,L|449:98,1,65.9999947547913,10|10,2:0|2:0,2:0:0:0:
488,36,198459,1,2,3:2:0:0:
345,103,199004,6,0,P|320:54|233:58,1,131.999989509583,4|8,3:2|2:0,2:0:0:0:
186,192,200095,2,0,P|201:287|204:339,1,131.999989509583,8|8,2:0|2:0,2:0:0:0:
125,316,200913,1,8,2:0:0:0:
125,316,201186,2,0,P|72:317|42:341,2,65.9999947547913,4|0|8,3:2|3:0|2:0,2:0:0:0:
255,226,202277,1,10,2:0:0:0:
330,200,202549,1,10,2:0:0:0:
387,254,202822,2,0,P|380:309|373:364,1,98.999992132187,2|8,3:2|2:0,2:0:0:0:
