osu file format v14

[General]
AudioFilename: audio.ogg
AudioLeadIn: 0
PreviewTime: 70174
Countdown: 0
SampleSet: Soft
StackLeniency: 1
Mode: 0
LetterboxInBreaks: 0
WidescreenStoryboard: 0

[Editor]
DistanceSpacing: 0.5
BeatDivisor: 4
GridSize: 32
TimelineZoom: 4.099998

[Metadata]
Title:Kinkyuu Namahousou
TitleUnicode:緊急生放送
Artist:NEE
ArtistUnicode:NEE
Creator:Ryuusei Aika
Version:Resonance
Source:
Tags:VoiceCore Stormiverse TtmnZk elvin l1ght_u light_u -Hitomi LimeTwist Emergency Live Broadcast Japanese Exotic Indie Rock J-Rock JRock SEKAI くぅ 夕日 かほ 大樹 KinKyu Namahoso Kinkyū namahōsō
BeatmapID:3728549
BeatmapSetID:1817367

[Difficulty]
HPDrainRate:5
CircleSize:4
OverallDifficulty:8.6
ApproachRate:9.4
SliderMultiplier:3.59999990463257
SliderTickRate:1

[Events]
//Background and Video events
0,0,"bg.jpg",0,0
//Break Periods
//Storyboard Layer 0 (Background)
//Storyboard Layer 1 (Fail)
//Storyboard Layer 2 (Pass)
//Storyboard Layer 3 (Foreground)
//Storyboard Layer 4 (Overlay)
//Storyboard Sound Samples

[TimingPoints]
459,545.454545454546,4,2,1,40,1,0
7277,-250,4,2,1,40,0,0
7549,-250,4,2,1,60,0,0
8095,-133.333333333333,4,2,1,60,0,0
8640,-114.942528735632,4,2,1,60,0,0
8913,-74.0740740740741,4,2,1,60,0,0
17913,-83.3333333333333,4,2,1,40,0,0
18459,-114.942528735632,4,2,1,40,0,0
24459,-100,4,2,1,40,0,0
25549,-95.2380952380952,4,2,1,40,0,0
26640,-83.3333333333333,4,2,1,50,0,0
27186,-90.9090909090909,4,2,1,50,0,0
33185,-90.9090909090909,4,2,1,60,0,0
33731,-83.3333333333333,4,2,1,60,0,0
35640,-74.0740740740741,4,2,1,60,0,0
43277,-100,4,2,1,60,0,0
44095,-90.9090909090909,4,2,1,50,0,0
52822,-90.9090909090909,4,2,1,60,0,0
61549,-100,4,2,1,40,0,0
68368,-90.9090909090909,4,2,1,40,0,0
68640,-83.3333333333333,4,2,1,40,0,0
68913,-74.0740740740741,4,2,1,40,0,0
69731,-133.333333333333,4,2,1,40,0,0
70277,-66.6666666666667,4,2,3,70,0,1
70413,-66.6666666666667,4,2,1,70,0,1
79004,-66.6666666666667,4,2,3,70,0,1
79277,-66.6666666666667,4,2,1,70,0,1
87731,-133.333333333333,4,2,1,70,0,0
89913,-100,4,2,1,50,0,0
97549,-90.9090909090909,4,2,1,50,0,0
98640,-95.2380952380952,4,2,1,50,0,0
107368,-83.3333333333333,4,2,1,60,0,0
107640,-66.6666666666667,4,2,1,60,0,0
107913,-74.0740740740741,4,2,1,60,0,0
109277,-66.6666666666667,4,2,1,60,0,0
110095,-74.0740740740741,4,2,1,60,0,0
111459,-66.6666666666667,4,2,1,60,0,0
112004,-74.0740740740741,4,2,1,60,0,0
114186,-31.5457413249211,4,2,1,100,0,1
114254,-31.5457413249211,4,2,1,100,0,0
114322,-31.5457413249211,4,2,1,100,0,1
114390,-31.5457413249211,4,2,1,100,0,0
114459,-31.5457413249211,4,2,1,100,0,1
114527,-31.5457413249211,4,2,1,100,0,0
114595,-31.5457413249211,4,2,1,100,0,1
114663,-31.5457413249211,4,2,1,100,0,0
114731,-31.5457413249211,4,2,1,100,0,1
114799,-31.5457413249211,4,2,1,100,0,0
114868,-31.5457413249211,4,2,1,100,0,1
114936,-31.5457413249211,4,2,1,100,0,0
115004,-31.5457413249211,4,2,1,100,0,1
115072,-31.5457413249211,4,2,1,100,0,0
115140,-31.5457413249211,4,2,1,100,0,1
115209,-31.5457413249211,4,2,1,100,0,0
115277,-31.5457413249211,4,2,1,100,0,1
115345,-31.5457413249211,4,2,1,100,0,0
115413,-31.5457413249211,4,2,1,100,0,1
115549,-44.4444444444445,4,2,1,100,0,1
116027,-44.4444444444445,4,2,1,100,0,0
116095,-66.6666666666667,4,2,3,70,0,1
116231,-66.6666666666667,4,2,1,70,0,1
124822,-66.6666666666667,4,2,3,70,0,1
125095,-66.6666666666667,4,2,1,70,0,1
133549,-71.4285714285714,4,2,1,70,0,0
142277,-71.4285714285714,4,2,1,70,0,1
150731,-62.5,4,2,1,70,0,1
151004,-62.5,4,2,1,60,0,0
151277,-62.5,4,2,1,40,0,0
151822,-200,4,2,1,40,0,0
159663,-200,4,2,0,5,0,0
159731,-166.666666666667,4,2,1,40,0,0
166277,-133.333333333333,4,2,1,30,0,0
166549,-117.647058823529,4,2,1,35,0,0
166822,-105.263157894737,4,2,1,40,0,0
167095,-95.2380952380951,4,2,1,45,0,0
167368,-86.9565217391304,4,2,1,55,0,0
167640,-80,4,2,1,60,0,0
167913,-74.0740740740741,4,2,1,65,0,0
168186,-66.6666666666667,4,2,1,70,0,0
169686,-133.333333333333,4,2,1,70,0,0
169822,-133.333333333333,4,2,1,30,0,0
170095,-133.333333333333,4,2,1,50,0,0
170368,-133.333333333333,4,2,1,60,0,0
170640,-133.333333333333,4,2,1,65,0,0
172277,-400,4,2,1,65,0,0
172822,-62.5,4,2,3,70,0,1
172959,-62.5,4,2,1,70,0,1
177186,-62.5,4,2,3,70,0,1
177459,-62.5,4,2,1,70,0,1
185845,-62.5,4,2,1,70,0,0
185913,-57.1428571428571,4,2,1,70,0,1
190209,-57.1428571428571,4,2,1,70,0,0
190277,-57.1428571428571,4,2,1,70,0,1
194572,-57.1428571428571,4,2,1,70,0,0
194640,-55.5555555555556,4,2,1,70,0,1
198936,-55.5555555555556,4,2,1,70,0,0
199004,-55.5555555555556,4,2,1,70,0,1
203163,-55.5555555555556,4,2,1,70,0,0
203231,-74.0740740740741,4,2,1,70,0,1
203913,-74.0740740740741,4,2,0,5,0,0

[Colours]
Combo1 : 159,80,0
Combo2 : 0,128,64
Combo3 : 0,80,159
Combo4 : 159,0,0

[HitObjects]
0,0,459,5,0,2:0:0:0:
30,99,731,1,0,2:0:0:0:
92,32,1004,1,0,2:0:0:0:
111,57,1277,1,0,2:0:0:0:
199,10,1549,5,0,2:0:0:0:
161,122,1822,1,0,2:0:0:0:
255,65,2095,1,0,2:0:0:0:
261,93,2368,1,0,2:0:0:0:
311,2,2640,5,0,2:0:0:0:
383,95,2913,1,0,2:0:0:0:
412,12,3186,1,0,2:0:0:0:
430,35,3459,1,0,2:0:0:0:
512,0,3731,5,0,2:0:0:0:
512,170,4004,1,0,2:0:0:0:
473,100,4277,1,0,2:0:0:0:
455,123,4549,1,0,2:0:0:0:
256,45,4822,5,0,2:0:0:0:
329,65,5095,1,0,2:0:0:0:
382,118,5368,1,0,2:0:0:0:
402,192,5640,1,0,2:0:0:0:
382,265,5913,1,0,2:0:0:0:
329,318,6186,1,0,2:0:0:0:
256,338,6459,1,0,2:0:0:0:
182,318,6731,1,0,2:0:0:0:
129,265,7004,1,0,2:0:0:0:
109,191,7277,2,0,P|105:177|120:143,1,35.9999990463257,0|0,2:0|2:0,2:0:0:0:
129,118,7549,1,0,2:0:0:0:
185,65,7822,6,0,L|196:80,1,11.9999996821086,8|0,2:0|2:0,2:0:0:0:
117,23,7959,2,0,L|109:13,1,11.9999996821086,8|0,2:0|2:0,2:0:0:0:
155,37,8095,6,0,L|252:26,1,89.9999976158145,0|0,3:0|2:0,2:0:0:0:
408,59,8368,2,0,B|389:86|389:86|331:94,1,89.9999976158145,0|0,2:0|2:0,2:0:0:0:
256,104,8640,2,0,L|242:169,1,52.1999986171723,8|0,2:0|2:0,2:0:0:0:
326,18,8822,1,0,3:0:0:0:
279,80,8913,2,0,B|310:200|310:200|364:229,1,161.999995708466,12|2,2:0|2:0,2:0:0:0:
456,268,9186,6,0,B|420:182|363:187|329:189|353:235,1,161.999995708466,4|0,3:2|2:0,2:0:0:0:
368,292,9459,2,0,P|306:342|226:354,1,161.999995708466,0|0,3:0|2:0,2:0:0:0:
151,298,9731,2,0,P|140:259|145:219,1,80.9999978542328,8|0,2:0|2:0,2:0:0:0:
160,195,9913,1,0,3:0:0:0:
18,165,10186,5,0,3:0:0:0:
18,165,10277,2,0,B|83:118|68:41|68:41|21:70,1,161.999995708466,8|0,2:0|3:0,2:0:0:0:
38,63,10549,2,0,P|85:123|160:108,1,161.999995708466,0|0,3:0|3:0,2:0:0:0:
259,66,10822,6,0,P|295:47|335:43,1,80.9999978542328,8|0,2:0|2:0,2:0:0:0:
360,51,11004,1,0,3:0:0:0:
418,115,11095,2,0,L|440:37,1,80.9999978542328,8|0,2:0|2:0,2:0:0:0:
433,13,11277,1,8,2:0:0:0:
433,13,11368,6,0,B|447:146|447:146|503:239,1,242.999993562698,4|0,3:2|3:0,2:0:0:0:
218,316,11822,1,0,2:0:0:0:
182,323,11913,2,0,L|204:245,1,80.9999978542328,8|0,2:0|2:0,2:0:0:0:
213,216,12095,2,0,B|220:249|220:249|322:285|409:361,1,242.999993562698,0|0,3:0|3:0,2:0:0:0:
467,384,12459,5,8,2:0:0:0:
347,350,12640,1,0,3:0:0:0:
333,317,12731,1,0,3:0:0:0:
220,376,12913,1,0,3:0:0:0:
255,369,13004,1,8,2:0:0:0:
337,279,13186,1,0,3:0:0:0:
300,209,13277,1,8,2:0:0:0:
161,116,13459,1,8,2:0:0:0:
157,129,13549,6,0,P|222:176|301:192,1,161.999995708466,4|0,3:2|2:0,2:0:0:0:
111,54,13822,2,0,B|51:161|51:161|84:183,1,161.999995708466,0|0,3:0|2:0,2:0:0:0:
170,233,14095,1,8,2:0:0:0:
237,127,14186,2,0,P|245:90|219:60,2,80.9999978542328,0|0|0,2:0|3:0|3:0,2:0:0:0:
342,48,14549,1,0,3:0:0:0:
372,61,14640,6,0,B|405:74|405:74|464:145|433:204,1,161.999995708466,8|0,2:0|3:0,2:0:0:0:
342,235,14913,2,0,P|391:209|396:286,1,161.999995708466,0|0,3:0|3:0,2:0:0:0:
244,333,15186,2,0,B|224:219|224:219|259:190,1,161.999995708466,8|0,2:0|3:0,2:0:0:0:
322,147,15459,1,8,2:0:0:0:
354,373,15640,1,8,2:0:0:0:
291,322,15731,6,0,B|263:313|263:313|169:355|169:355|138:348,1,161.999995708466,4|0,3:2|2:0,2:0:0:0:
72,323,16004,2,0,P|125:265|119:187,1,161.999995708466,4|0,3:2|2:0,2:0:0:0:
113,88,16277,2,0,P|89:120|83:160,1,80.9999978542328,8|0,2:0|2:0,2:0:0:0:
91,186,16459,1,0,3:0:0:0:
47,28,16731,5,0,3:0:0:0:
47,28,16822,2,0,B|75:54|75:54|223:15,1,161.999995708466,8|0,2:0|3:0,2:0:0:0:
289,18,17095,2,0,P|212:37|170:104,1,161.999995708466,0|8,3:0|2:0,2:0:0:0:
269,208,17368,1,8,2:0:0:0:
120,276,17549,1,8,2:0:0:0:
149,263,17640,2,0,B|143:214|176:235|165:174,2,80.9999978542328,0|0|0,3:0|2:0|2:0,2:0:0:0:
206,156,17913,6,0,B|182:111|98:129|139:200|196:189|196:189|229:205|298:211|270:360,1,359.999990463257,4|0,3:2|2:0,2:0:0:0:
246,373,18459,6,0,P|218:348|231:304,3,78.2999979257585,2|0|2|0,2:0|2:0|2:0|2:0,2:0:0:0:
345,360,19004,2,0,P|364:348|377:289,1,78.2999979257585,2|0,2:0|2:0,2:0:0:0:
443,354,19277,2,0,P|387:238|386:205,1,156.599995851517,2|2,2:0|2:0,2:0:0:0:
465,130,19686,2,0,P|425:122|376:139,1,78.2999979257585,2|2,2:0|2:0,2:0:0:0:
465,130,19959,1,0,2:0:0:0:
324,72,20095,6,0,B|348:81|348:81|464:282,1,234.899993777276,2|0,2:0|2:0,2:0:0:0:
374,226,20640,2,0,L|313:172,3,78.2999979257585,2|0|2|0,2:0|2:0|2:0|2:0,2:0:0:0:
282,146,21186,2,0,P|281:182|213:217,1,104.399997234345,2|0,2:0|2:0,2:0:0:0:
318,136,21459,2,0,L|225:112,1,78.2999979257585,0|0,2:0|2:0,2:0:0:0:
53,77,21731,2,0,L|140:56,1,78.2999979257585,2|0,2:0|2:0,2:0:0:0:
117,52,22004,2,0,B|98:78|98:78|154:209,1,156.599995851517,2|2,2:0|2:0,2:0:0:0:
60,180,22413,6,0,L|68:258,1,78.2999979257585,0|2,2:0|2:0,2:0:0:0:
179,311,22686,1,2,2:0:0:0:
207,280,22822,2,0,P|171:269|139:310,3,78.2999979257585,2|0|2|0,2:0|2:0|2:0|2:0,2:0:0:0:
224,312,23368,2,0,L|284:375,1,78.2999979257585,2|0,2:0|2:0,2:0:0:0:
420,235,23640,2,0,B|383:252|383:252|364:379,1,156.599995851517,2|2,2:0|2:0,2:0:0:0:
457,351,24049,2,0,P|421:308|426:284,1,78.2999979257585,0|2,2:0|2:0,2:0:0:0:
491,249,24322,1,0,2:0:0:0:
416,111,24459,6,0,P|440:169|349:344,1,269.999992847443,2|0,2:0|2:0,2:0:0:0:
292,253,25004,2,0,P|315:212|310:159,1,89.9999976158143,2|0,2:0|2:0,2:0:0:0:
200,224,25277,2,0,P|169:167|181:125,1,89.9999976158143,2|0,2:0|2:0,2:0:0:0:
292,13,25549,6,0,L|258:128,1,94.499997496605,0|0,3:0|2:0,2:0:0:0:
85,21,25822,2,0,L|116:130,1,94.499997496605,0|0,3:0|2:0,2:0:0:0:
267,191,26095,2,0,L|200:272,1,94.499997496605,2|0,3:2|2:0,2:0:0:0:
44,223,26368,1,10,2:0:0:0:
44,223,26436,1,8,2:0:0:0:
44,223,26504,1,8,2:0:0:0:
44,223,26572,1,8,2:0:0:0:
44,223,26640,6,0,P|73:229|339:375,1,323.999991416931,4|0,3:2|2:0,2:0:0:0:
407,367,27186,2,0,L|310:384,1,98.9999973773957,10|2,2:0|2:0,2:0:0:0:
481,384,27459,2,0,P|461:333|515:306,1,98.9999973773957,2|2,2:0|2:0,2:0:0:0:
481,384,27731,5,2,2:0:0:0:
400,282,27868,1,2,2:0:0:0:
488,228,28004,2,0,L|474:131,1,98.9999973773957,2|0,3:2|2:0,2:0:0:0:
390,21,28277,1,10,2:0:0:0:
463,11,28413,2,0,B|439:-1|439:-1|324:50|388:176,1,197.999994754791,2|2,3:2|2:0,2:0:0:0:
384,148,28754,1,0,2:0:0:0:
384,148,28822,6,0,P|325:154|277:205,1,98.9999973773957,2|0,3:2|2:0,2:0:0:0:
230,0,29095,2,0,P|278:34|294:102,1,98.9999973773957,2|2,2:0|3:2,2:0:0:0:
157,201,29368,1,10,2:0:0:0:
157,201,29504,1,0,2:0:0:0:
157,201,29640,1,2,2:0:0:0:
157,201,29777,1,2,2:0:0:0:
104,302,29913,6,0,B|133:276|133:276|149:84,1,197.999994754791,2|2,3:2|2:0,2:0:0:0:
132,43,30322,1,2,3:2:0:0:
30,199,30459,1,10,2:0:0:0:
33,279,30595,2,0,L|68:167,2,98.9999973773957,2|0|0,2:0|2:0|2:0,2:0:0:0:
64,88,31004,6,0,B|-1:65|17:37|37:-15|55:114|16:193|232:171,1,296.999992132187,0|2,3:0|3:2,2:0:0:0:
260,298,31549,2,0,P|248:257|293:194,1,98.9999973773957,10|2,2:0|2:0,2:0:0:0:
351,123,31822,1,2,2:0:0:0:
426,156,31959,1,2,2:0:0:0:
349,242,32095,2,0,L|331:145,1,98.9999973773957,2|2,2:0|2:0,2:0:0:0:
378,335,32368,6,0,B|427:176|427:176|408:150,1,197.999994754791,2|10,3:2|2:0,2:0:0:0:
271,69,32777,1,2,3:2:0:0:
439,86,32913,1,2,2:0:0:0:
382,32,33049,2,0,B|352:16|352:16|284:87,1,98.9999973773957,2|0,2:0|3:0,2:0:0:0:
503,299,33459,1,0,2:0:0:0:
493,215,33595,1,0,3:0:0:0:
491,195,33731,6,0,L|287:303,1,215.999994277954,6|0,3:2|1:0,2:0:0:0:
272,308,34140,1,0,1:0:0:0:
274,295,34209,1,0,1:0:0:0:
275,282,34277,2,0,B|281:200|37:193|179:154,1,215.999994277954,4|0,3:2|2:0,2:0:0:0:
234,175,34686,2,0,L|194:233,1,53.9999985694886,0|0,2:0|2:0,2:0:0:0:
148,321,34822,1,12,2:0:0:0:
107,255,34959,2,0,L|166:239,1,53.9999985694886,0|0,3:0|2:0,2:0:0:0:
194,230,35095,6,0,B|90:88|90:88|90:57|64:24,1,215.999994277954,8|4,2:0|3:2,2:0:0:0:
40,187,35549,1,0,2:0:0:0:
40,173,35640,2,0,B|145:134|145:134|177:63,1,161.999995708466,0|0,3:0|2:0,2:0:0:0:
228,28,35913,2,0,P|267:33|310:59,1,80.9999978542328,8|0,2:0|2:0,2:0:0:0:
319,81,36095,1,0,3:0:0:0:
418,0,36368,1,0,3:0:0:0:
418,0,36459,6,0,P|404:28|481:156,1,161.999995708466,8|0,2:0|3:0,2:0:0:0:
465,153,36731,2,0,B|478:186|478:186|328:163,1,161.999995708466,0|0,3:0|3:0,2:0:0:0:
283,124,37004,2,0,L|321:249,1,80.9999978542328,8|0,2:0|2:0,2:0:0:0:
348,361,37186,1,0,3:0:0:0:
349,255,37277,2,0,L|278:218,1,80.9999978542328,8|0,2:0|2:0,2:0:0:0:
382,254,37459,1,8,2:0:0:0:
382,254,37549,6,0,B|367:286|367:286|260:301|163:361,1,242.999993562698,4|4,3:2|3:2,2:0:0:0:
172,355,37913,1,0,2:0:0:0:
83,167,38095,2,0,L|140:282,1,80.9999978542328,8|0,2:0|2:0,2:0:0:0:
45,261,38277,2,0,B|131:227|160:125|97:56,1,242.999993562698,0|0,3:0|3:0,2:0:0:0:
87,44,38595,6,0,P|80:63|93:77,1,40.4999989271164,0|8,2:0|2:0,2:0:0:0:
208,117,38822,1,0,3:0:0:0:
221,129,38913,2,0,L|252:16,1,80.9999978542328,0|0,3:0|2:0,2:0:0:0:
222,143,39095,1,0,3:0:0:0:
295,143,39186,2,0,L|216:160,1,80.9999978542328,8|0,2:0|2:0,2:0:0:0:
205,179,39368,1,0,3:0:0:0:
141,214,39459,2,0,B|146:238|146:238|288:345,1,161.999995708466,8|8,2:0|2:0,2:0:0:0:
329,364,39731,6,0,B|368:378|368:378|465:272|369:189,1,242.999993562698,4|0,3:2|3:0,2:0:0:0:
381,200,40095,1,0,2:0:0:0:
433,348,40277,2,0,L|495:291,1,80.9999978542328,8|0,2:0|2:0,2:0:0:0:
512,277,40459,1,0,3:0:0:0:
300,240,40731,5,0,3:0:0:0:
268,238,40822,2,0,B|320:218|320:218|416:274,1,161.999995708466,8|0,2:0|3:0,2:0:0:0:
385,204,41095,2,0,P|347:131|354:40,1,161.999995708466,0|0,3:0|3:0,2:0:0:0:
463,11,41368,2,0,L|422:110,1,80.9999978542328,8|0,2:0|2:0,2:0:0:0:
420,116,41549,1,0,3:0:0:0:
211,118,41640,2,0,L|299:84,1,80.9999978542328,8|0,2:0|2:0,2:0:0:0:
349,27,41822,1,8,2:0:0:0:
349,27,41913,6,0,P|339:72|224:211,1,161.999995708466,4|0,3:2|2:0,2:0:0:0:
202,3,42186,2,0,B|218:21|218:21|195:164,1,161.999995708466,4|0,3:2|2:0,2:0:0:0:
143,241,42459,2,0,P|75:218|108:142,1,161.999995708466,12|0,2:0|3:0,2:0:0:0:
165,125,42731,5,0,2:0:0:0:
197,234,42868,5,0,3:0:0:0:
127,264,43004,5,0,3:0:0:0:
59,237,43140,1,8,2:0:0:0:
59,237,43209,1,8,2:0:0:0:
59,237,43277,2,0,L|-16:296,1,89.9999976158143,8|8,2:0|2:0,2:0:0:0:
79,330,43549,5,8,2:0:0:0:
168,260,43686,1,8,2:0:0:0:
301,244,43822,1,8,2:0:0:0:
420,269,43959,1,8,2:0:0:0:
432,286,44095,6,0,P|341:307|275:350,1,148.499996066094,4|0,3:2|2:0,2:0:0:0:
287,353,44368,2,0,B|226:196|226:196|238:133,1,197.999994754791,2|10,3:2|2:0,2:0:0:0:
403,8,44913,1,2,2:0:0:0:
422,46,45049,2,0,L|362:140,1,98.9999973773957,2|2,2:0|2:0,2:0:0:0:
199,55,45459,6,0,P|206:108|353:194,1,197.999994754791,2|10,3:2|2:0,2:0:0:0:
382,149,45868,1,0,3:0:0:0:
289,204,46004,1,2,2:0:0:0:
215,185,46140,2,0,B|186:181|186:181|99:225,1,98.9999973773957,2|2,2:0|3:2,2:0:0:0:
118,221,46413,5,2,2:0:0:0:
24,227,46549,2,0,L|74:356,1,131.999996503194,2|2,3:2|2:0,2:0:0:0:
103,331,46822,2,0,P|139:303|120:256,2,98.9999973773957,10|2|2,2:0|2:0|2:0,2:0:0:0:
49,267,47231,1,2,2:0:0:0:
79,358,47368,2,0,L|186:335,1,98.9999973773957,2|0,3:2|2:0,2:0:0:0:
268,373,47640,6,0,B|401:359|401:359|365:337,1,148.499996066094,2|0,3:2|2:0,2:0:0:0:
381,349,47913,1,10,2:0:0:0:
292,298,48049,2,0,L|360:221,1,98.9999973773957,2|2,3:2|2:0,2:0:0:0:
441,303,48322,1,2,2:0:0:0:
441,303,48459,6,0,L|461:177,1,98.9999973773957,2|0,3:2|2:0,2:0:0:0:
388,91,48731,2,0,B|369:84|369:84|455:203,1,148.499996066094,2|0,3:2|2:0,2:0:0:0:
452,198,49004,1,10,2:0:0:0:
452,55,49140,2,0,P|425:88|330:92,1,98.9999973773957,2|2,2:0|2:0,2:0:0:0:
270,26,49413,1,2,2:0:0:0:
270,26,49549,2,0,P|250:69|267:116,1,98.9999973773957,2|0,2:0|2:0,2:0:0:0:
312,227,49822,6,0,B|192:175|192:175|182:151,1,148.499996066094,2|0,3:2|2:0,2:0:0:0:
183,150,50095,1,10,2:0:0:0:
281,128,50231,2,0,P|274:154|328:357,1,197.999994754791,2|0,3:2|2:0,2:0:0:0:
346,342,50640,1,4,3:1:0:0:
301,283,50777,5,2,3:2:0:0:
373,343,50913,1,10,3:2:0:0:
282,297,51049,1,2,3:2:0:0:
203,351,51186,1,10,2:0:0:0:
220,214,51322,2,0,P|261:159|318:244,1,197.999994754791,0|0,3:0|3:0,2:0:0:0:
218,229,51731,6,0,L|117:262,1,98.9999973773957,10|8,3:2|2:0,2:0:0:0:
43,315,52004,2,0,P|24:264|111:264,1,131.999996503194,2|0,1:2|3:0,2:0:0:0:
116,236,52277,1,10,2:0:0:0:
5,172,52459,5,0,3:0:0:0:
15,139,52549,5,2,3:2:0:0:
106,146,52731,5,0,3:0:0:0:
81,183,52822,6,0,P|131:72|63:14,1,197.999994754791,4|2,3:2|3:2,2:0:0:0:
16,20,53231,1,0,2:0:0:0:
94,48,53368,2,0,P|147:69|211:23,1,98.9999973773957,10|2,2:0|2:0,2:0:0:0:
297,14,53640,2,0,P|256:56|280:101,1,98.9999973773957,2|2,2:0|2:0,2:0:0:0:
384,57,53913,6,0,B|409:216|409:216|379:238,1,197.999994754791,2|2,2:0|3:2,2:0:0:0:
364,132,54322,1,2,2:0:0:0:
452,116,54459,2,0,P|434:147|471:351,1,197.999994754791,10|2,2:0|2:0,2:0:0:0:
476,351,54868,2,0,P|488:296|458:286,1,98.9999973773957,0|2,2:0|3:2,2:0:0:0:
389,335,55140,5,2,2:0:0:0:
308,290,55277,1,2,1:2:0:0:
234,324,55413,1,2,2:0:0:0:
314,279,55549,1,10,2:0:0:0:
306,184,55686,1,2,2:0:0:0:
213,148,55822,1,2,2:0:0:0:
154,255,55959,2,0,P|203:251|244:226,1,98.9999973773957,2|2,2:0|2:0,2:0:0:0:
233,203,56368,5,2,3:2:0:0:
192,139,56504,1,0,2:0:0:0:
239,73,56640,1,10,2:0:0:0:
172,125,56777,1,2,3:2:0:0:
100,100,56913,1,2,2:0:0:0:
81,27,57049,2,0,L|72:140,1,98.9999973773957,0|0,2:0|3:0,2:0:0:0:
203,384,57459,6,0,B|121:363|102:281|102:281|142:214,1,197.999994754791,2|10,3:2|2:0,2:0:0:0:
65,200,57868,2,0,L|157:235,1,98.9999973773957,2|2,2:0|2:0,2:0:0:0:
245,216,58140,1,2,2:0:0:0:
86,349,58413,2,0,P|49:363|18:314,2,98.9999973773957,2|0|2,2:0|3:0|2:0,2:0:0:0:
52,328,58822,6,0,L|160:313,1,98.9999973773957,10|0,2:0|3:0,2:0:0:0:
350,295,59095,2,0,L|245:326,1,98.9999973773957,2|2,2:0|2:0,2:0:0:0:
281,337,59368,2,0,P|257:192|307:117,1,197.999994754791,2|0,3:2|2:0,2:0:0:0:
380,42,59777,1,2,3:2:0:0:
380,42,59913,2,0,L|344:154,1,98.9999973773957,10|2,2:0|1:2,2:0:0:0:
194,89,60186,2,0,L|288:55,1,98.9999973773957,2|2,1:2|1:2,2:0:0:0:
297,63,60459,6,0,P|161:35|86:60,1,197.999994754791,10|8,2:0|2:0,2:0:0:0:
74,259,60868,1,0,2:0:0:0:
49,107,61004,6,0,L|122:189,1,65.9999982515971,0|0,3:0|2:0,2:0:0:0:
92,175,61186,5,8,2:0:0:0:
110,177,61277,6,0,L|11:306,1,131.999996503194,8|0,2:0|1:0,2:0:0:0:
0,350,61549,6,0,B|128:268|128:268|163:290,1,179.999995231629,4|2,3:2|2:0,2:0:0:0:
337,384,62095,2,0,L|280:66,1,299.999992052714,10|0,2:0|2:0,2:0:0:0:
279,72,62640,2,0,P|224:129|272:228,1,179.999995231629,2|0,2:0|3:0,2:0:0:0:
337,305,63049,1,2,2:0:0:0:
274,364,63186,2,0,L|298:263,1,89.9999976158143,8|2,2:0|2:0,2:0:0:0:
407,375,63595,1,0,2:0:0:0:
407,375,63731,6,0,B|498:224|425:181|381:172|416:291,1,269.999992847443,2|0,3:2|2:0,2:0:0:0:
414,300,64277,2,0,B|430:132|430:132|463:114,1,179.999995231629,10|0,2:0|2:0,2:0:0:0:
511,72,64686,1,2,2:0:0:0:
485,115,64822,2,0,B|451:132|451:132|380:127|282:196,1,179.999995231629,2|2,2:0|3:2,2:0:0:0:
317,173,65231,1,0,2:0:0:0:
204,52,65368,2,0,P|283:68|242:132,1,179.999995231629,10|0,2:0|3:0,2:0:0:0:
126,188,65777,1,0,2:0:0:0:
184,34,65913,6,0,L|224:254,1,179.999995231629,4|0,3:2|3:0,2:0:0:0:
216,211,66322,1,0,2:0:0:0:
216,211,66459,2,0,L|142:279,1,89.9999976158143,8|0,2:0|2:0,2:0:0:0:
54,118,66731,2,0,L|89:199,1,89.9999976158143,2|0,2:0|2:0,2:0:0:0:
136,285,67004,5,2,2:0:0:0:
347,157,67277,1,2,3:2:0:0:
184,353,67549,1,10,2:0:0:0:
452,277,67822,1,2,3:2:0:0:
478,207,67959,1,10,2:0:0:0:
470,132,68095,6,0,L|340:158,1,89.9999976158143,2|0,3:2|2:0,2:0:0:0:
175,74,68368,2,0,P|209:106|291:132,1,98.9999973773957,4|0,3:2|2:0,2:0:0:0:
376,318,68640,2,0,P|433:265|406:184,1,107.999997138977,0|0,3:0|2:0,2:0:0:0:
457,58,68913,2,0,P|471:46|497:41,1,40.4999989271164,0|8,3:0|2:0,2:0:0:0:
402,0,69049,1,8,2:0:0:0:
402,0,69118,1,8,2:0:0:0:
402,0,69186,6,0,P|377:34|383:74,1,60.7499983906746,8|0,2:0|2:0,2:0:0:0:
337,37,69731,2,0,P|339:136|314:167,1,134.999996423722,0|0,2:0|2:0,2:0:0:0:
106,288,70186,1,0,2:0:0:0:
67,230,70277,6,0,P|144:193|340:200,1,269.999992847443,4|2,1:0|3:2,2:0:0:0:
485,325,70686,1,0,2:0:0:0:
234,146,70822,2,0,P|315:174|305:248,1,134.999996423721,10|2,2:0|2:0,2:0:0:0:
169,350,71095,1,0,2:0:0:0:
397,268,71231,2,0,B|374:305|374:305|146:373,1,269.999992847443,2|0,3:2|2:0,2:0:0:0:
446,136,71640,6,0,L|478:268,1,134.999996423721,2|0,3:2|2:0,2:0:0:0:
290,86,71913,2,0,L|394:0,1,134.999996423721,10|0,2:0|2:0,2:0:0:0:
345,194,72186,2,0,P|213:209|187:110,1,202.499994635582,2|0,2:0|2:0,2:0:0:0:
206,143,72459,6,0,P|252:152|390:365,1,269.999992847443,0|2,3:0|3:2,2:0:0:0:
220,379,72868,1,0,2:0:0:0:
326,215,73004,2,0,P|288:256|176:297,1,134.999996423721,10|0,2:0|2:0,2:0:0:0:
361,364,73277,2,0,B|328:289|167:253|167:253|119:289,1,269.999992847443,2|0,3:2|2:0,2:0:0:0:
33,370,73686,1,0,2:0:0:0:
73,205,73822,6,0,L|123:344,1,134.999996423721,2|0,3:2|2:0,2:0:0:0:
23,40,74095,2,0,L|-8:217,1,134.999996423721,10|0,2:0|2:0,2:0:0:0:
63,24,74368,2,0,P|99:83|188:55,1,134.999996423721,2|0,2:0|2:0,2:0:0:0:
158,83,74640,6,0,P|353:77|470:233,1,404.999989271164,2|2,3:2|2:0,2:0:0:0:
469,135,75186,2,0,P|245:180|184:354,1,404.999989271164,10|2,2:0|3:2,2:0:0:0:
317,384,75731,6,0,B|447:126|447:126|383:77,1,337.499991059303,2|0,2:0|2:0,2:0:0:0:
367,72,76140,1,2,2:0:0:0:
251,259,76277,2,0,B|317:243|317:243|418:152|418:152|390:59|390:59|381:133,1,337.499991059303,10|0,2:0|2:0,2:0:0:0:
413,164,76686,2,0,L|435:95,1,67.4999982118607,2|0,2:0|2:0,2:0:0:0:
433,59,76822,6,0,P|517:150|480:308,1,269.999992847443,2|0,3:2|3:0,2:0:0:0:
386,303,77231,1,0,2:0:0:0:
312,201,77368,2,0,B|317:225|317:225|441:317,1,134.999996423721,8|0,2:0|2:0,2:0:0:0:
221,242,77640,2,0,P|156:278|156:369,1,134.999996423721,10|2,2:0|3:2,2:0:0:0:
158,350,77845,1,0,3:0:0:0:
179,357,77913,6,0,P|194:267|119:208,1,134.999996423721,2|0,3:2|2:0,2:0:0:0:
80,143,78186,2,0,P|91:224|11:234,1,179.999995231628,2|8,3:2|2:0,2:0:0:0:
7,135,78459,2,0,B|28:48|28:48|134:31,1,180.000002098084,8|0,2:0|2:0,2:0:0:0:
149,159,78731,2,0,L|-8:15,1,202.499994635582,0|0,1:0|2:0,2:0:0:0:
36,3,79004,5,4,1:0:0:0:
147,50,79140,1,2,2:0:0:0:
251,116,79277,1,2,3:2:0:0:
332,206,79413,1,2,2:0:0:0:
390,312,79549,2,0,P|405:345|417:390,1,67.4999982118607,10|0,2:0|2:0,2:0:0:0:
401,376,79686,2,0,P|429:263|521:246,1,202.499994635582,2|0,2:0|2:0,2:0:0:0:
462,290,79959,6,0,P|471:211|383:261,1,202.499994635582,2|0,3:2|2:0,2:0:0:0:
408,285,80231,1,0,2:0:0:0:
293,326,80368,1,2,3:2:0:0:
172,330,80504,1,2,2:0:0:0:
58,289,80640,2,0,P|28:270|15:234,1,67.4999982118607,10|0,2:0|2:0,2:0:0:0:
21,174,80777,2,0,B|2:213|2:213|148:303,1,202.500002360344,0|8,2:0|2:0,2:0:0:0:
138,297,81049,6,0,P|166:244|108:149,1,134.999996423721,0|2,2:0|3:2,2:0:0:0:
40,40,81322,2,0,P|37:53|87:89,1,67.4999982118607,2|0,2:0|2:0,2:0:0:0:
100,98,81459,1,2,3:2:0:0:
201,134,81595,1,2,2:0:0:0:
308,145,81731,6,0,L|374:-7,1,134.999996423721,10|0,2:0|2:0,2:0:0:0:
341,12,81936,1,2,2:0:0:0:
341,12,82004,2,0,P|361:98|443:147,1,134.999996423721,10|0,2:0|2:0,2:0:0:0:
448,120,82209,1,2,2:0:0:0:
448,120,82277,2,0,P|447:179|307:200,1,179.999995231628,2|8,3:2|2:0,2:0:0:0:
278,210,82549,6,0,P|271:232|304:264,1,67.4999982118607,0|0,3:0|2:0,2:0:0:0:
508,262,82731,5,0,3:0:0:0:
478,332,82822,6,0,L|351:390,1,134.999996423721,10|0,2:0|2:0,2:0:0:0:
389,224,83095,2,0,B|335:354|335:354|267:382,1,202.499994635582,2|0,3:2|2:0,2:0:0:0:
219,331,83368,6,0,P|179:245|29:300,1,269.999992847443,6|2,3:2|3:2,2:0:0:0:
46,372,83777,1,2,2:0:0:0:
3,204,83913,1,10,2:0:0:0:
196,298,84186,1,2,2:0:0:0:
117,243,84322,5,2,3:2:0:0:
145,308,84459,6,0,P|166:226|106:129,1,179.999995231628,2|0,2:0|2:0,2:0:0:0:
57,113,84731,5,2,3:2:0:0:
173,20,84913,5,0,2:0:0:0:
193,94,85004,6,0,P|302:87|331:150,1,179.999995231628,10|0,2:0|2:0,2:0:0:0:
344,219,85277,6,0,L|389:68,1,134.999996423721,2|2,2:0|2:0,2:0:0:0:
363,61,85549,6,0,P|356:71|429:293,1,179.999995231628,2|2,3:2|2:0,2:0:0:0:
494,310,85913,5,2,2:0:0:0:
274,269,86095,5,10,2:0:0:0:
101,361,86277,5,2,2:0:0:0:
77,348,86459,5,2,2:0:0:0:
74,367,86640,6,0,P|23:297|42:199,1,134.999996423721,10|2,2:0|3:2,2:0:0:0:
181,357,86913,2,0,L|215:181,1,134.999996423721,10|8,2:0|2:0,2:0:0:0:
197,210,87118,1,8,2:0:0:0:
197,210,87186,2,0,P|176:238|117:227,1,67.4999982118607,8|0,2:0|2:0,2:0:0:0:
92,219,87322,2,0,B|75:257|75:257|195:406,1,202.499994635582,0|0,2:0|2:0,2:0:0:0:
200,375,87595,1,2,3:2:0:0:
241,296,87731,6,0,B|205:123|300:226|248:0,1,269.999992847443,8|0,2:0|3:0,2:0:0:0:
231,20,88549,1,8,2:0:0:0:
216,15,88822,1,0,3:0:0:0:
189,25,89095,5,0,3:0:0:0:
163,56,89231,1,0,3:0:0:0:
135,171,89368,6,0,P|116:156|107:122,1,33.7499991059304,8|0,2:0|2:0,2:0:0:0:
104,119,89504,1,0,3:0:0:0:
226,106,89640,2,0,L|216:157,1,33.7499991059304,8|2,2:0|2:0,2:0:0:0:
237,140,89777,2,0,P|253:157|256:190,1,33.7499991059304,2|2,2:0|2:0,2:0:0:0:
231,178,89913,6,0,B|178:317|178:317|201:373,1,179.999995231629,4|2,3:2|3:2,2:0:0:0:
356,366,90322,1,2,3:2:0:0:
323,341,90459,2,0,P|351:306|409:317,3,89.9999976158143,10|0|8|8,2:0|2:0|2:0|2:0,2:0:0:0:
256,376,91004,2,0,B|195:300|245:240|245:240|268:278,1,179.999995231629,0|2,2:0|3:2,2:0:0:0:
333,353,91413,2,0,L|345:309,2,44.9999988079071,2|0|2,2:0|2:0|2:0,2:0:0:0:
341,299,91686,2,0,B|404:190|404:190|361:126,1,179.999995231629,2|0,3:2|2:0,2:0:0:0:
300,48,92095,5,2,3:2:0:0:
294,82,92231,2,0,P|304:88|477:138,1,179.999995231629,0|2,2:0|3:2,2:0:0:0:
459,57,92640,2,0,P|512:60|502:89,3,89.9999976158143,2|0|8|8,2:0|2:0|2:0|2:0,2:0:0:0:
455,136,93118,1,8,2:0:0:0:
455,136,93186,2,0,P|374:184|278:176,1,179.999995231629,0|2,3:0|2:0,2:0:0:0:
220,198,93595,2,0,P|259:172|328:180,1,89.9999976158143,10|2,2:0|2:0,2:0:0:0:
210,269,93868,5,0,2:0:0:0:
148,187,94004,1,2,3:2:0:0:
194,278,94140,1,0,2:0:0:0:
136,381,94277,2,0,L|96:265,2,89.9999976158143,4|0|10,3:2|2:0|2:0,2:0:0:0:
208,368,94686,1,10,2:0:0:0:
77,332,94822,5,10,2:0:0:0:
77,332,94959,1,10,2:0:0:0:
77,332,95095,1,10,2:0:0:0:
54,365,95231,1,10,2:0:0:0:
10,289,95368,2,0,B|5:268|5:268|33:177,1,89.9999976158143,10|0,2:0|2:0,2:0:0:0:
71,51,95640,1,2,3:2:0:0:
79,151,95777,2,0,P|93:110|63:81,1,89.9999976158143,0|10,2:0|2:0,2:0:0:0:
10,130,96049,6,0,L|217:117,1,179.999995231629,2|2,3:2|2:0,2:0:0:0:
350,82,96459,1,2,3:2:0:0:
317,221,96595,2,0,B|362:168|362:168|352:79|309:57,1,179.999995231629,10|2,2:0|3:2,2:0:0:0:
266,20,97004,2,0,B|236:36|236:36|294:92,1,89.9999976158143,10|2,2:0|2:0,2:0:0:0:
358,92,97277,1,2,3:2:0:0:
323,195,97413,1,0,2:0:0:0:
247,253,97549,6,0,P|369:242|454:269,1,197.999994754791,2|8,3:2|2:0,2:0:0:0:
440,262,97890,1,8,2:0:0:0:
440,262,97959,2,0,L|452:212,1,49.4999986886978,8|8,2:0|2:0,2:0:0:0:
423,178,98095,6,0,B|431:163|431:163|506:150|528:211,1,131.999996503194,8|0,2:0|2:0,2:0:0:0:
505,322,98368,5,4,3:2:0:0:
364,373,98549,5,0,2:0:0:0:
375,337,98640,6,0,B|305:373|235:359|235:359|210:303,1,188.99999499321,4|2,3:2|3:2,2:0:0:0:
244,254,99049,1,2,3:2:0:0:
199,165,99186,1,10,2:0:0:0:
260,91,99322,1,2,2:0:0:0:
184,24,99459,1,2,2:0:0:0:
194,49,99595,2,0,B|342:96|342:96|385:63,1,188.99999499321,2|0,2:0|2:0,2:0:0:0:
416,18,100004,5,2,3:2:0:0:
351,50,100140,1,2,2:0:0:0:
295,130,100277,1,10,2:0:0:0:
206,90,100413,1,2,2:0:0:0:
107,83,100549,1,2,2:0:0:0:
76,97,100686,2,0,B|28:126|21:162|21:162|67:211|60:265,1,188.99999499321,2|0,2:0|2:0,2:0:0:0:
13,298,101027,6,0,L|28:227,1,47.2499987483025,0|2,2:0|3:2,2:0:0:0:
91,223,101231,1,2,2:0:0:0:
217,329,101368,1,10,2:0:0:0:
126,292,101504,1,2,2:0:0:0:
205,344,101640,1,2,2:0:0:0:
211,253,101777,1,0,2:0:0:0:
277,285,101913,6,0,B|331:233|331:233|342:194,2,94.499997496605,0|0|0,3:0|2:0|3:0,2:0:0:0:
258,143,102322,2,0,L|326:245,1,94.499997496605,0|8,2:0|2:0,2:0:0:0:
393,285,102595,2,0,L|239:353,1,141.749996244907,2|0,2:0|2:0,2:0:0:0:
242,350,102868,2,0,P|220:367|213:389,1,47.2499987483025,2|0,2:0|2:0,2:0:0:0:
475,317,103277,6,0,B|504:278|504:278|490:226,1,94.499997496605,2|2,3:2|2:0,2:0:0:0:
385,167,103549,2,0,L|376:270,1,94.499997496605,10|2,2:0|2:0,2:0:0:0:
423,187,103822,2,0,P|403:141|414:92,1,94.499997496605,2|2,2:0|2:0,2:0:0:0:
482,26,104095,2,0,B|493:38|493:38|413:84,2,94.499997496605,2|0|2,2:0|2:0|3:2,2:0:0:0:
506,66,104504,2,0,L|304:115,1,188.99999499321,2|0,2:0|2:0,2:0:0:0:
212,72,104913,2,0,P|249:130|265:187,1,125.99999666214,2|0,3:2|2:0,2:0:0:0:
264,184,105186,5,2,3:2:0:0:
92,305,105390,1,2,2:0:0:0:
88,62,105595,1,2,3:2:0:0:
116,69,105731,2,0,P|139:106|145:173,1,94.499997496605,2|0,3:2|2:0,2:0:0:0:
102,219,105936,1,0,2:0:0:0:
102,219,106004,6,0,P|113:269|134:278,1,62.99999833107,8|0,2:0|2:0,2:0:0:0:
187,314,106186,5,0,2:0:0:0:
192,351,106277,6,0,L|169:389,1,31.499999165535,0|0,1:0|2:0,2:0:0:0:
234,356,106368,6,0,P|231:372|258:379,1,31.499999165535,0|0,1:0|2:0,2:0:0:0:
274,333,106459,6,0,L|329:345,1,31.499999165535,0|0,1:0|2:0,2:0:0:0:
327,343,106549,5,0,1:0:0:0:
360,311,106640,5,0,1:0:0:0:
433,313,106731,5,0,1:0:0:0:
502,274,106822,5,12,2:0:0:0:
394,163,107004,5,0,3:0:0:0:
467,127,107095,6,0,P|467:184|427:238,1,125.99999666214,8|0,2:0|2:0,2:0:0:0:
401,252,107368,6,0,L|378:211,1,35.9999990463257,4|0,3:2|2:0,2:0:0:0:
287,5,107640,6,0,P|198:92|144:43,1,202.499994635582,0|0,3:0|2:0,2:0:0:0:
128,137,107913,6,0,L|85:281,1,121.499996781349,2|8,2:0|2:0,2:0:0:0:
124,290,108186,2,0,L|75:152,1,121.499996781349,2|2,2:0|3:2,2:0:0:0:
54,162,108459,6,0,P|16:203|35:367,1,202.499994635582,2|0,2:0|2:0,2:0:0:0:
30,352,108731,2,0,P|111:313|118:203,1,202.499994635582,10|0,2:0|2:0,2:0:0:0:
49,220,109004,2,0,P|84:294|225:298,1,202.499994635582,10|0,2:0|2:0,2:0:0:0:
310,384,109277,6,0,P|310:180|348:120,1,269.999992847443,2|4,3:2|3:2,2:0:0:0:
0,63,109822,6,0,P|145:81|177:120,1,202.499994635582,2|0,3:2|2:0,2:0:0:0:
227,60,110095,6,0,L|375:47,1,121.499996781349,2|10,2:0|2:0,2:0:0:0:
367,77,110368,2,0,L|260:-6,1,121.499996781349,2|2,2:0|3:2,2:0:0:0:
310,14,110640,6,0,B|395:162|395:162|360:210,1,202.499994635582,2|0,2:0|2:0,2:0:0:0:
361,182,110913,2,0,P|346:271|430:346,1,202.499994635582,10|0,2:0|2:0,2:0:0:0:
499,307,111186,2,0,B|362:223|362:223|314:234,1,202.499994635582,12|0,2:0|2:0,2:0:0:0:
242,287,111459,6,0,P|317:209|463:250,1,269.999992847443,0|4,3:0|3:2,2:0:0:0:
128,348,112004,6,0,B|101:370|101:370|47:200,1,202.499994635582,2|0,3:2|2:0,2:0:0:0:
69,189,112277,2,0,L|43:271,1,60.7499983906746,10|10,2:0|2:0,2:0:0:0:
25,83,112481,1,2,3:2:0:0:
25,83,112549,2,0,P|112:80|153:201,1,182.249995172024,2|0,3:2|2:0,2:0:0:0:
163,168,112822,5,2,3:2:0:0:
108,102,112959,1,10,2:0:0:0:
190,154,113095,1,2,2:0:0:0:
228,4,113277,5,8,2:0:0:0:
204,25,113368,6,0,L|240:111,1,80.9999978542328,8|0,2:0|2:0,2:0:0:0:
270,166,113549,5,0,3:0:0:0:
285,202,113640,6,0,P|270:242|238:270,1,80.9999978542328,0|0,3:0|2:0,2:0:0:0:
154,348,113822,5,8,2:0:0:0:
136,364,113913,6,0,L|128:298,1,40.4999989271164,4|0,3:2|2:0,2:0:0:0:
76,236,114095,5,0,2:0:0:0:
96,191,114186,6,2,L|84:187|73:183|68:182|78:180|88:178|97:176|97:173|97:168|97:162|96:158|96:152|96:147|95:142|95:138|94:134|93:129|92:125|91:122|91:117|90:113|89:110|88:107|87:103|85:100|85:98|88:95|99:86|107:80|105:80|91:83|78:86|77:83|75:80|74:78|73:76|72:74|70:72|69:70|67:68|65:66|64:64|62:63|60:61|59:60|58:59|56:58|55:57|53:56|51:55|49:54|48:53|46:52|44:52|42:51|41:50|40:50|38:50|37:49|35:49|33:49|31:49|30:49|28:49|26:49|24:50|21:51|18:52|15:53|19:65|23:77|24:80|17:75|8:65|2:61|1:62|-2:65|-4:68|-7:71|-9:74|-10:76|-12:80|-14:83|-16:87|-17:91|-18:94|-20:98|-21:103|-22:107|-23:110|-24:115|-24:120|-24:124|-24:128|-24:133|-24:134|-12:137|-5:138|3:140|1:141|-9:143|-16:146|-24:148|-24:151|-23:156|-22:159|-21:164|-20:169|-18:174|-17:177|-16:182|-14:186|-12:191|-10:194|-8:199|-6:203|-3:207|0:210|3:214|6:218|8:221|13:217|22:212|30:208|33:206|28:213|24:221|17:230|18:232|22:235|25:238|29:241|33:243|37:246|41:249|44:252|49:254|53:256|58:258|61:260|66:262|70:263|74:265|79:267|84:268|87:269|90:262|93:254|98:245|99:242|99:250|100:258|100:272|102:272|107:273|111:273|116:274|120:274|124:274|129:274|134:274|139:274|142:273|147:273|152:272|156:272|160:271|165:270|169:269|177:267|180:266|187:276|193:287|195:291|194:276|193:261|201:258|208:255|216:251|223:247|229:242|236:238|241:234|247:228|253:224|257:219|259:217|254:209|248:201|242:193|251:197|258:202|269:207|271:204|274:198|278:193|281:188|284:183|286:177|289:173|289:168|291:163|292:158|293:155|293:150|293:146|293:142|292:139|291:136|290:132|299:122|306:111|308:109|299:114|288:119|282:122|281:121|278:120|275:119|272:118|269:118|265:118|261:118|257:118|254:119|250:120|246:122|241:124|238:125|234:127|229:130|225:133|222:137|218:141|214:144|211:146|217:154|223:161|229:170|227:169|217:164|206:159|203:158|200:161|197:166|194:172|192:176|190:182|188:187|186:192|185:198|184:204|183:209|183:216|183:222|183:227|184:233|195:234|207:234|213:235|206:239|197:242|187:247|188:250|190:256|191:261|194:266|197:272|201:276|204:282|207:287|212:291|216:295|221:300|225:304|230:307|234:310|240:305|247:298|256:291|254:294|250:307|246:318|252:322|256:324|262:327|269:329|274:332|280:334|286:336|291:337|297:339|304:340|309:340|315:341|321:342|322:353|324:364|326:371|328:364|331:357|336:343|338:343|342:343|348:343|354:342|358:341|364:340|369:340|373:339|379:338|384:336|388:334|391:333|393:332|396:330|398:329|401:328|404:327|405:325|408:324|410:323|411:322|409:315|405:304|401:295|403:297|413:306|422:314|425:312|427:310|430:308|432:307|435:304|437:302|439:300|441:297|444:295|446:292|449:290|451:287|454:284|455:281|458:278|460:275|463:273|465:269|468:266|470:262|471:259|474:256|475:254|482:256|490:258|498:260|504:261|495:254|488:247|483:241|485:238|487:234|488:230|490:226|491:222|493:218|495:214|497:210|498:206|499:202|501:197|502:193|503:190|504:185|504:181|504:176|505:173|505:169|505:165|510:164|519:162|526:160|534:158|526:157|518:155|510:153|505:151|505:148|505:144|504:142|504:138|503:134|502:131|500:127|499:125|497:122|495:119|492:116|490:114|488:111|486:109|483:108|480:106|477:105|473:104|471:103|467:102|463:102|459:102|455:102|452:95|448:88|441:76|441:79|441:88|441:96|440:106|438:107|437:107|434:108|432:109|429:110|427:111|425:112|422:114|421:115|418:117|416:119|414:121|411:122|409:124|406:125|405:128|403:130|400:132|398:135|395:137|393:140|391:142|389:144|387:147|385:150|383:153|381:156|391:166|402:176|402:176|388:173|381:170|373:168|372:172|371:175|369:178|368:182|366:186|365:189|363:192|362:196|361:201|360:205|359:208|358:212|358:217|357:221|357:225|357:229|357:234|357:238|357:242|357:245|353:247|344:251|336:255|331:257|345:258|353:258|360:259|360:260|361:263|361:266,1,2567.69993197918,2|8,3:2|2:0,2:1:0:0:
397,270,115481,1,0,2:0:0:0:
405,261,115549,6,0,L|460:290,2,50.6249986588955,8|0|0,2:0|2:0|2:0,2:0:0:0:
374,173,115686,2,0,P|346:188|316:188,2,50.6249986588955,0|0|0,2:0|2:0|2:0,2:0:0:0:
433,132,115822,6,0,L|470:183,1,50.6249986588955,8|0,2:0|2:0,2:0:0:0:
446,124,115890,6,0,P|475:131|514:115,1,50.6249986588955,0|0,2:0|2:0,2:0:0:0:
442,107,115959,6,0,P|456:80|453:43,1,50.6249986588955,0|0,2:0|2:0,2:0:0:0:
427,73,116027,6,0,P|415:51|380:65,1,50.6249986588955,0|0,2:0|2:0,2:0:0:0:
407,88,116095,6,0,B|267:184|267:184|225:165,1,202.499994635582,4|0,1:0|2:0,2:0:0:0:
208,122,116368,2,0,L|154:290,1,134.999996423721,2|0,3:2|2:0,2:0:0:0:
268,41,116640,1,10,2:0:0:0:
114,98,116777,2,0,P|122:180|190:163,1,134.999996423721,2|0,2:0|2:0,2:0:0:0:
250,156,117049,1,2,3:2:0:0:
22,176,117186,6,0,L|291:328,2,269.999992847443,0|2|10,2:0|3:2|2:0,2:0:0:0:
142,338,117868,1,2,2:0:0:0:
204,384,118004,2,0,B|221:278|221:278|253:268,1,134.999996423721,2|0,2:0|2:0,2:0:0:0:
400,349,118277,6,0,P|312:342|329:291,1,134.999996423721,0|0,3:0|2:0,2:0:0:0:
412,130,118549,2,0,L|298:202,1,134.999996423721,2|0,3:2|2:0,2:0:0:0:
502,173,118822,2,0,B|440:168|440:168|327:200|304:96,1,202.499994635582,10|0,2:0|2:0,2:0:0:0:
305,100,119095,2,0,P|404:81|357:118,1,269.999992847443,2|0,3:2|2:0,2:0:0:0:
345,255,119504,1,0,2:0:0:0:
458,103,119640,6,0,L|154:193,1,269.999992847443,2|10,3:2|2:0,2:0:0:0:
183,368,120049,1,0,2:0:0:0:
309,232,120186,1,2,2:0:0:0:
281,127,120322,1,0,2:0:0:0:
243,302,120459,6,0,B|104:75|104:75|162:16,1,337.499991059303,2|0,3:2|2:0,2:0:0:0:
179,15,120868,1,2,2:0:0:0:
121,277,121004,2,0,B|99:189|99:189|135:24|135:24|176:102,1,337.499991059303,10|0,2:0|2:0,2:0:0:0:
204,162,121413,1,2,3:2:0:0:
0,257,121549,6,0,P|165:247|302:341,1,337.499991059303,2|0,2:0|2:0,2:0:0:0:
289,382,121959,2,0,P|317:365|332:335,1,67.4999982118607,2|0,2:0|2:0,2:0:0:0:
85,281,122095,2,0,B|244:341|339:215|339:215|299:182,1,337.499991059303,10|0,2:0|2:0,2:0:0:0:
227,205,122504,2,0,L|242:101,1,67.4999982118607,2|0,2:0|2:0,2:0:0:0:
265,54,122640,6,0,P|266:118|437:294,1,269.999992847443,2|0,3:2|3:0,2:0:0:0:
470,170,123049,1,0,2:0:0:0:
466,242,123186,2,0,L|515:367,1,134.999996423721,8|0,2:0|2:0,2:0:0:0:
391,377,123459,2,0,P|352:334|370:260,1,134.999996423721,10|2,2:0|3:2,2:0:0:0:
474,49,123731,6,0,P|504:157|397:200,1,202.499994635582,2|0,3:2|2:0,2:0:0:0:
415,205,124004,2,0,B|357:72|357:72|409:39,1,179.999995231628,2|8,3:2|2:0,2:0:0:0:
404,122,124277,2,0,P|330:167|256:124,1,179.999995231628,8|8,2:0|2:0,2:0:0:0:
235,54,124549,1,4,1:2:0:0:
78,191,124686,6,0,B|165:139|165:139|58:88,1,202.499994635582,0|0,2:0|2:0,2:0:0:0:
58,89,124959,1,2,2:0:0:0:
158,156,125095,1,2,3:2:0:0:
279,152,125231,1,2,2:0:0:0:
356,246,125368,2,0,L|433:229,1,67.4999982118607,10|0,2:0|2:0,2:0:0:0:
459,183,125504,2,0,P|370:168|352:281,1,202.499994635582,2|0,2:0|2:0,2:0:0:0:
357,264,125777,2,0,L|334:336,1,67.4999982118607,2|0,3:2|2:0,2:0:0:0:
332,346,125913,5,2,2:0:0:0:
444,301,126049,1,0,2:0:0:0:
346,379,126186,1,2,3:2:0:0:
248,307,126322,1,2,2:0:0:0:
133,350,126459,2,0,P|166:327|169:284,1,67.4999982118607,10|0,2:0|2:0,2:0:0:0:
152,230,126595,2,0,P|93:294|101:366,1,134.999996423721,0|8,2:0|2:0,2:0:0:0:
27,166,126913,5,8,2:0:0:0:
20,140,127004,5,2,3:2:0:0:
92,59,127140,1,2,2:0:0:0:
196,28,127277,1,2,3:2:0:0:
303,35,127413,1,2,2:0:0:0:
196,49,127549,6,0,L|53:89,1,134.999996423721,10|0,2:0|2:0,2:0:0:0:
97,96,127754,1,2,2:0:0:0:
97,96,127822,2,0,L|226:224,1,134.999996423721,10|0,2:0|2:0,2:0:0:0:
209,209,128027,1,2,2:0:0:0:
209,209,128095,2,0,P|220:274|120:336,1,179.999995231628,2|8,3:2|2:0,2:0:0:0:
88,281,128368,2,0,P|164:280|261:377,1,179.999995231628,0|0,3:0|3:0,2:0:0:0:
311,380,128640,5,10,2:0:0:0:
383,299,128777,1,0,2:0:0:0:
472,359,128913,1,2,3:2:0:0:
298,289,129049,1,0,2:0:0:0:
397,168,129186,6,0,L|475:301,1,134.999996423721,6|0,3:2|2:0,2:0:0:0:
308,249,129459,2,0,P|231:206|225:36,2,269.999992847443,2|10|0,3:2|2:0|2:0,2:0:0:0:
458,214,130140,1,2,3:2:0:0:
286,128,130277,6,0,P|236:197|244:271,1,134.999996423721,2|2,2:0|2:0,2:0:0:0:
61,76,130549,2,0,P|138:74|194:117,1,134.999996423721,2|2,3:2|2:0,2:0:0:0:
192,316,130822,1,10,2:0:0:0:
107,267,130959,1,0,2:0:0:0:
77,97,131095,1,2,2:0:0:0:
139,189,131231,2,0,P|160:243|106:341,1,134.999996423721,2|2,2:0|3:2,2:0:0:0:
53,376,131504,1,0,2:0:0:0:
32,267,131640,6,2,P|0:261|32:240,2,67.4999982118607,0|0|0,3:0|2:0|2:0,2:1:0:0:
156,292,131913,2,2,P|191:296|185:260,2,67.4999982118607,8|0|0,2:0|2:0|3:0,2:1:0:0:
286,358,132186,2,2,B|311:333|311:333|356:332,1,67.4999982118607,0|0,3:0|2:0,2:1:0:0:
201,384,132368,5,10,2:0:0:0:
272,374,132459,5,10,2:0:0:0:
285,269,132595,1,2,3:2:0:0:
317,176,132731,1,10,2:0:0:0:
414,128,132868,1,8,2:0:0:0:
484,29,133004,5,8,2:0:0:0:
425,83,133095,5,8,2:0:0:0:
345,102,133186,5,8,2:0:0:0:
272,133,133277,6,0,L|241:179,1,44.9999988079071,8|0,2:0|2:0,2:0:0:0:
226,202,133368,6,0,P|206:224|195:262,1,44.9999988079071,8|0,2:0|2:0,2:0:0:0:
221,284,133459,6,0,P|245:287|250:331,1,44.9999988079071,8|0,2:0|2:0,2:0:0:0:
258,349,133549,6,0,P|186:320|81:310,1,167.99999554952,4|0,3:2|2:0,2:0:0:0:
77,318,133822,2,0,P|42:262|144:239,1,188.99999499321,2|2,3:2|2:0,2:0:0:0:
147,256,134095,2,0,P|207:186|186:96,1,167.999990422567,10|2,2:0|2:0,2:0:0:0:
160,54,134368,1,2,3:2:0:0:
40,166,134504,2,0,P|213:86|293:232,1,377.99998998642,2|2,2:0|3:2,2:0:0:0:
204,381,135049,1,0,2:0:0:0:
336,298,135186,5,10,2:0:0:0:
174,346,135322,1,0,3:0:0:0:
119,220,135459,1,2,3:2:0:0:
233,277,135595,1,0,3:0:0:0:
261,370,135731,6,0,B|213:139|213:139|245:113|240:56,1,314.99999165535,6|0,3:2|2:0,2:0:0:0:
372,15,136140,1,0,2:0:0:0:
262,0,136277,2,0,B|314:63|314:63|237:111,1,125.99999666214,10|0,2:0|2:0,2:0:0:0:
262,0,136549,2,0,B|223:42|223:42|352:262,2,251.99999332428,2|2|2,3:2|2:0|3:2,2:0:0:0:
91,66,137231,1,0,2:0:0:0:
154,217,137368,5,10,2:0:0:0:
95,96,137504,1,2,2:0:0:0:
193,86,137640,2,0,B|258:78|258:78|317:114,1,125.99999666214,2|2,2:0|2:0,2:0:0:0:
154,185,137913,6,0,P|173:108|41:0,1,251.99999332428,6|0,3:2|2:0,2:0:0:0:
59,157,138322,1,0,3:2:0:0:
2,87,138459,2,0,P|85:126|7:202,1,167.99999554952,8|0,2:0|2:0,2:0:0:0:
36,230,138731,2,0,P|37:272|140:247,1,167.99999554952,0|0,3:0|2:0,2:0:0:0:
176,209,139004,6,0,L|363:365,1,167.99999554952,0|0,3:0|2:0,2:0:0:0:
280,136,139277,2,0,B|237:126|237:126|296:298,1,167.99999554952,12|0,2:0|2:0,2:0:0:0:
321,310,139549,1,0,3:2:0:0:
442,332,139731,6,0,P|394:245|419:127,1,209.9999944369,0|8,2:0|2:0,2:0:0:0:
421,101,140004,2,0,P|448:125|427:152,1,41.99999888738,0|0,2:0|2:0,2:0:0:0:
436,152,140095,6,0,B|464:338|464:338|538:364,1,251.99999332428,4|2,3:2|3:2,2:0:0:0:
486,238,140504,1,8,2:0:0:0:
350,188,140640,2,0,P|307:113|333:50,1,125.99999666214,8|0,2:0|3:2,2:0:0:0:
112,32,140913,5,8,2:0:0:0:
187,152,141049,1,0,3:0:0:0:
231,258,141186,5,0,1:0:0:0:
192,289,141277,5,8,2:0:0:0:
134,274,141368,5,0,3:0:0:0:
126,258,141459,6,0,L|59:353,1,83.99999777476,0|8,3:0|2:0,2:0:0:0:
33,150,141640,5,8,2:0:0:0:
29,130,141731,5,0,3:0:0:0:
75,185,141822,5,0,1:0:0:0:
53,231,141913,6,0,P|51:278|100:329,1,83.99999777476,8|8,2:0|2:0,2:0:0:0:
268,327,142186,5,8,2:0:0:0:
305,330,142277,6,0,P|342:264|325:198,1,125.99999666214,6|2,3:2|2:0,2:0:0:0:
318,194,142481,1,2,2:0:0:0:
318,194,142549,2,0,P|298:209|293:260,2,62.99999833107,2|2|2,2:0|2:0|2:0,2:0:0:0:
435,269,142822,5,10,2:0:0:0:
435,269,142890,2,0,L|448:184,2,62.99999833107,2|2|2,2:0|2:0|2:0,2:0:0:0:
435,176,143095,2,0,P|407:156|409:91,1,62.99999833107,2|2,3:2|2:0,2:0:0:0:
465,160,143231,2,0,P|509:145|484:92,1,62.99999833107,2|2,2:0|2:0,2:0:0:0:
495,93,143368,5,2,2:0:0:0:
471,86,143436,1,2,2:0:0:0:
450,84,143504,2,0,L|463:11,1,62.99999833107,2|2,2:0|2:0,2:0:0:0:
384,24,143640,5,2,3:2:0:0:
366,39,143709,1,2,2:0:0:0:
341,49,143777,2,0,P|311:51|272:36,1,62.99999833107,2|2,2:0|2:0,2:0:0:0:
210,10,143913,6,0,B|239:29|239:29|248:173,1,125.99999666214,10|2,2:0|2:0,2:0:0:0:
233,139,144118,1,2,2:0:0:0:
214,144,144186,2,0,L|171:74,1,62.99999833107,2|2,3:2|2:0,2:0:0:0:
138,34,144322,2,0,L|98:129,1,62.99999833107,10|2,2:0|2:0,2:0:0:0:
116,130,144459,5,2,3:2:0:0:
114,143,144527,1,2,2:0:0:0:
109,153,144595,2,0,P|79:170|26:168,1,62.99999833107,2|2,2:0|2:0,2:0:0:0:
28,166,144731,6,0,P|120:181|129:231,1,125.99999666214,10|2,2:0|2:0,2:0:0:0:
132,228,144936,1,2,2:0:0:0:
133,241,145004,2,0,P|112:263|72:269,1,62.99999833107,2|2,3:2|2:0,2:0:0:0:
57,275,145140,2,0,L|143:320,1,62.99999833107,10|2,2:0|2:0,2:0:0:0:
167,324,145277,5,2,3:2:0:0:
149,338,145345,2,0,L|58:348,2,62.99999833107,2|2|2,2:0|3:2|2:0,2:0:0:0:
175,339,145549,2,0,P|229:377|300:369,1,125.99999666214,10|10,2:0|2:0,2:0:0:0:
302,369,145754,2,0,B|409:368|409:368|425:338,1,125.99999666214,2|2,2:0|2:0,2:0:0:0:
428,333,145959,6,0,P|455:303|418:246,1,83.99999777476,10|0,2:0|2:0,2:0:0:0:
447,263,146095,2,0,L|397:116,1,125.99999666214,10|2,2:0|3:2,2:0:0:0:
390,137,146299,1,2,2:0:0:0:
372,141,146368,1,10,2:0:0:0:
361,154,146436,2,0,L|309:243,2,94.499997496605,2|2|6,2:0|2:0|3:2,2:0:0:0:
382,124,146709,6,0,L|367:55,2,62.99999833107,2|2|10,2:0|2:0|2:0,2:0:0:0:
311,114,146913,2,0,B|270:88|270:88|202:-4,1,157.499995827675,2|0,2:0|2:0,2:0:0:0:
205,0,147118,2,0,P|230:0|231:24,1,31.499999165535,2|0,3:2|2:0,2:0:0:0:
232,3,147186,2,0,P|198:55|59:78,1,188.99999499321,10|2,2:0|2:0,2:0:0:0:
61,65,147459,5,2,3:2:0:0:
86,69,147527,1,2,2:0:0:0:
103,88,147595,2,0,P|118:113|128:164,1,62.99999833107,2|2,2:0|2:0,2:0:0:0:
122,178,147731,1,2,2:0:0:0:
107,198,147799,2,0,P|86:211|73:214,1,31.499999165535,2|0,2:0|2:0,2:0:0:0:
71,199,147868,1,2,2:0:0:0:
52,239,147936,5,10,2:0:0:0:
32,232,148004,1,2,2:0:0:0:
25,262,148072,1,2,2:0:0:0:
10,268,148140,1,2,3:2:0:0:
18,287,148209,1,2,2:0:0:0:
32,301,148277,6,0,P|108:335|158:308,1,125.99999666214,10|2,2:0|2:0,2:0:0:0:
184,266,148481,1,2,2:0:0:0:
178,277,148549,2,0,P|181:327|250:353,1,125.99999666214,10|2,2:0|1:2,2:0:0:0:
316,328,148754,1,2,2:0:0:0:
316,328,148822,6,0,L|336:253,1,62.99999833107,10|2,2:0|2:0,2:0:0:0:
337,246,148959,1,2,3:2:0:0:
328,230,149027,2,0,P|312:199|308:151,2,62.99999833107,2|10|2,2:0|2:0|2:0,2:0:0:0:
346,238,149231,2,0,P|375:259|410:266,1,62.99999833107,10|2,2:0|2:0,2:0:0:0:
441,256,149368,5,6,3:2:0:0:
455,242,149436,1,2,2:0:0:0:
443,230,149504,1,10,2:0:0:0:
454,214,149572,1,10,2:0:0:0:
454,202,149640,2,0,L|424:57,1,125.99999666214,10|10,2:0|2:0,2:0:0:0:
428,78,149845,1,2,2:0:0:0:
428,78,149913,6,0,L|380:28,1,62.99999833107,10|2,2:0|2:0,2:0:0:0:
264,31,150049,2,0,L|203:83,1,62.99999833107,2|2,2:0|1:2,2:0:0:0:
291,135,150186,2,0,L|363:120,1,62.99999833107,2|2,1:2|2:0,2:0:0:0:
256,67,150322,2,0,L|285:141,1,62.99999833107,2|2,3:2|2:0,2:0:0:0:
333,203,150459,6,0,P|288:179|208:195,1,125.99999666214,2|10,3:2|2:0,2:0:0:0:
155,229,150663,1,2,2:0:0:0:
165,218,150731,6,0,P|273:216|271:344,1,215.999994277954,2|2,3:2|2:0,2:0:0:0:
256,363,151004,5,6,3:2:0:0:
158,339,151277,1,2,2:0:0:0:
93,299,151549,1,2,2:0:0:0:
74,278,151822,2,0,P|45:195|47:128,1,134.999996423721,2|2,2:0|2:0,2:0:0:0:
49,139,152368,1,2,2:0:0:0:
121,22,152913,5,2,2:0:0:0:
121,22,153049,1,2,2:0:0:0:
122,0,153186,1,2,2:0:0:0:
50,62,153459,1,2,2:0:0:0:
181,93,153731,1,2,2:0:0:0:
230,266,154004,2,0,P|252:131|284:81,1,179.999995231629,2|2,2:0|2:0,2:0:0:0:
292,121,155095,6,0,P|310:105|302:72,1,44.9999988079071,2|2,2:0|2:0,2:0:0:0:
284,70,155368,2,0,P|277:86|309:187,2,89.9999976158142,2|2|2,2:0|2:0|2:0,2:0:0:0:
293,170,156186,1,2,2:0:0:0:
245,98,156459,1,2,2:0:0:0:
272,22,156731,2,0,L|384:50,1,89.9999976158142,2|0,2:0|2:0,2:0:0:0:
468,107,157277,6,0,B|440:36|440:36|447:8,2,89.9999976158142,2|2|2,2:0|2:0|2:0,2:0:0:0:
479,99,157959,2,0,L|471:158,1,44.9999988079071,0|0,2:0|2:0,2:0:0:0:
452,328,158368,1,2,2:0:0:0:
412,221,158640,1,2,2:0:0:0:
442,244,158913,2,0,P|434:275|361:258,1,89.9999976158142,2|0,2:0|2:0,2:0:0:0:
256,236,159459,2,0,P|255:263|288:309,1,67.4999982118607,2|0,2:0|2:0,2:0:0:0:
273,298,159731,6,0,P|334:259|336:215,1,107.999997138977,2|2,3:2|2:0,2:0:0:0:
213,160,160186,5,0,3:0:0:0:
213,160,160277,6,0,L|230:93,1,35.9999990463256,10|0,2:0|2:0,2:0:0:0:
197,47,160549,2,0,P|197:81|250:82,1,71.9999980926513,2|0,2:0|2:0,2:0:0:0:
243,88,160822,2,0,L|109:111,1,107.999997138977,2|2,2:0|3:2,2:0:0:0:
314,79,161368,1,8,2:0:0:0:
149,121,161640,6,0,L|187:175,1,53.9999985694884,2|2,2:0|2:0,2:0:0:0:
180,143,161913,2,0,P|203:203|156:261,1,107.999997138977,2|0,3:2|2:0,2:0:0:0:
67,328,162368,5,0,3:0:0:0:
58,300,162459,5,10,2:0:0:0:
153,319,162731,6,0,L|324:363,1,161.999995708465,2|2,2:0|2:0,2:0:0:0:
327,364,163277,2,0,P|358:327|318:248,1,107.999997138977,2|10,3:2|2:0,2:0:0:0:
314,107,163822,2,0,L|327:178,1,53.9999985694884,0|8,3:0|2:0,2:0:0:0:
314,174,164004,6,0,P|293:159|297:136,1,35.9999990463256,0|4,2:0|3:2,2:0:0:0:
301,143,165186,1,2,2:0:0:0:
375,184,165459,1,2,2:0:0:0:
419,270,165731,1,2,2:0:0:0:
452,373,166004,2,0,P|472:350|468:317,1,53.9999985694884,2|0,2:0|2:0,2:0:0:0:
441,252,166277,6,0,L|338:291,1,101.249997317791,2|0,3:2|2:0,2:0:0:0:
333,309,166549,6,0,L|293:173,1,114.749996960164,2|0,3:2|2:0,2:0:0:0:
319,158,166822,6,0,L|225:266,1,128.249996602535,2|0,3:2|2:0,2:0:0:0:
191,290,167095,6,0,L|170:128,1,141.749996244908,2|0,3:2|2:0,2:0:0:0:
224,96,167368,6,0,L|74:196,1,155.24999588728,2|0,3:2|2:0,2:0:0:0:
13,206,167640,6,0,L|67:45,1,168.749995529652,2|0,3:2|2:0,2:0:0:0:
150,17,167913,6,0,L|323:122,1,182.249995172024,2|0,3:2|2:0,2:0:0:0:
406,172,168186,6,0,L|512:0,1,202.499994635582,2|0,3:2|2:0,2:0:0:0:
0,384,169822,2,0,P|33:370|37:313,1,67.4999982118609,0|8,2:0|2:0,2:0:0:0:
80,343,170095,5,2,3:2:0:0:
88,320,170186,5,8,2:0:0:0:
84,288,170277,5,8,2:0:0:0:
92,251,170368,5,8,2:0:0:0:
86,205,170459,5,8,2:0:0:0:
96,153,170549,5,8,2:0:0:0:
86,83,170640,5,8,2:0:0:0:
119,66,170709,1,8,2:0:0:0:
146,90,170777,5,8,2:0:0:0:
166,59,170845,1,8,2:0:0:0:
180,93,170913,5,8,2:0:0:0:
190,57,170981,1,8,2:0:0:0:
224,71,171049,5,8,2:0:0:0:
260,62,171118,1,8,2:0:0:0:
274,96,171186,5,8,2:0:0:0:
301,71,171254,1,8,2:0:0:0:
296,108,171322,5,8,2:0:0:0:
332,100,171390,1,8,2:0:0:0:
312,131,171459,5,8,2:0:0:0:
345,145,171527,1,8,2:0:0:0:
324,175,171595,5,8,2:0:0:0:
346,204,171663,1,8,2:0:0:0:
314,223,171731,5,8,2:0:0:0:
330,255,171799,1,8,2:0:0:0:
319,290,171868,5,8,2:0:0:0:
347,313,171936,1,8,2:0:0:0:
310,321,172004,5,8,2:0:0:0:
333,362,172072,1,8,2:0:0:0:
287,372,172140,1,8,2:0:0:0:
239,370,172209,1,8,2:0:0:0:
221,326,172277,6,2,B|214:296|238:297|231:257,1,67.4999982118607,4|0,3:2|2:0,2:0:0:0:
245,184,172822,6,0,B|235:300|116:360|7:306|7:306|40:254,1,359.999990463257,4|0,1:0|2:0,2:0:0:0:
51,265,173231,2,0,L|69:343,1,71.9999980926514,2|0,2:0|2:0,2:0:0:0:
248,273,173368,6,0,B|196:301|196:301|-20:172|-20:172|81:117,1,359.999990463257,10|0,2:0|2:0,2:0:0:0:
48,151,173777,2,0,P|83:150|108:126,1,71.9999980926514,2|0,3:2|2:0,2:0:0:0:
155,303,173913,6,0,B|85:202|139:48|139:48|209:52|241:142,1,359.999990463257,2|0,2:0|2:0,2:0:0:0:
234,126,174322,2,0,L|193:212,1,71.9999980926514,2|0,2:0|2:0,2:0:0:0:
87,232,174459,6,0,P|281:167|329:335,1,359.999990463257,10|0,2:0|2:0,2:0:0:0:
333,343,174868,2,0,P|298:298|316:263,1,71.9999980926514,2|0,2:0|2:0,2:0:0:0:
396,104,175004,6,0,B|379:121|379:121|355:403,1,287.999992370606,2|0,3:2|3:0,2:0:0:0:
436,339,175413,1,0,2:0:0:0:
331,172,175549,2,0,P|352:206|454:244,1,143.999996185303,8|0,2:0|2:0,2:0:0:0:
268,63,175822,2,0,P|251:103|143:119,1,143.999996185303,10|2,2:0|3:2,2:0:0:0:
141,111,176027,1,2,2:0:0:0:
141,111,176095,6,0,B|124:181|124:181|173:240,1,143.999996185303,2|10,3:2|2:0,2:0:0:0:
416,45,176368,2,0,B|354:141|354:141|321:154,1,143.999996185303,2|0,3:2|2:0,2:0:0:0:
109,209,176640,6,0,L|296:250,1,191.999994913737,8|8,2:0|2:0,2:0:0:0:
296,250,176913,2,0,P|323:288|319:344,1,71.9999980926514,0|0,1:0|2:0,2:0:0:0:
317,345,177049,1,0,2:0:0:0:
182,365,177186,5,4,1:0:0:0:
67,291,177322,1,2,2:0:0:0:
35,160,177459,1,2,3:2:0:0:
107,44,177595,1,2,2:0:0:0:
242,18,177731,2,0,L|274:99,1,71.9999980926514,10|0,2:0|2:0,2:0:0:0:
363,94,177868,2,0,P|272:41|152:55,1,215.999994277954,2|0,2:0|2:0,2:0:0:0:
154,55,178140,1,2,3:2:0:0:
123,189,178277,5,2,2:0:0:0:
83,57,178413,1,0,2:0:0:0:
90,193,178549,1,2,3:2:0:0:
208,261,178686,1,2,2:0:0:0:
345,253,178822,2,0,L|375:171,1,71.9999980926514,10|0,2:0|2:0,2:0:0:0:
433,154,178959,2,0,B|450:193|450:193|219:221,1,215.999994277954,0|0,2:0|2:0,2:0:0:0:
283,203,179231,2,0,L|307:270,1,71.9999980926514,0|0,2:0|2:0,2:0:0:0:
318,292,179368,5,2,3:2:0:0:
196,250,179504,1,2,2:0:0:0:
303,323,179640,1,2,3:2:0:0:
400,238,179777,1,2,2:0:0:0:
358,99,179913,2,0,P|332:134|254:135,1,71.9999980926514,10|0,2:0|2:0,2:0:0:0:
235,139,180049,1,0,2:0:0:0:
342,67,180186,2,0,P|329:34|276:30,1,71.9999980926514,10|0,2:0|2:0,2:0:0:0:
225,9,180322,1,0,2:0:0:0:
150,96,180459,6,0,P|281:127|295:230,1,191.999994913737,2|8,3:2|2:0,2:0:0:0:
353,221,180731,2,0,P|302:222|179:301,1,191.999994913737,0|0,3:0|3:0,2:0:0:0:
146,363,181004,1,10,2:0:0:0:
64,297,181140,1,2,2:0:0:0:
64,297,181209,1,2,2:0:0:0:
64,297,181277,2,0,B|101:264|101:264|26:120,1,191.999994913737,2|0,3:2|2:0,2:0:0:0:
74,101,181549,6,0,P|113:195|241:215,1,191.999994913737,6|0,3:2|2:0,2:0:0:0:
234,198,181822,2,0,P|283:253|295:337,1,143.999996185303,2|2,3:2|2:0,2:0:0:0:
386,53,182095,2,0,B|446:77|446:77|506:161|469:307,1,287.999992370606,10|0,2:0|2:0,2:0:0:0:
398,201,182504,1,2,3:2:0:0:
238,374,182640,5,2,2:0:0:0:
364,273,182777,1,2,2:0:0:0:
329,115,182913,1,2,3:2:0:0:
276,267,183049,1,2,2:0:0:0:
117,292,183186,2,0,L|271:286,1,143.999996185303,10|0,2:0|2:0,2:0:0:0:
252,267,183390,1,2,2:0:0:0:
252,267,183459,2,0,P|190:216|210:109,1,143.999996185303,2|2,2:0|2:0,2:0:0:0:
198,131,183663,1,2,2:0:0:0:
198,131,183731,2,0,P|228:171|199:211,1,71.9999980926514,2|0,3:2|2:0,2:0:0:0:
170,236,183868,1,0,2:0:0:0:
59,164,184004,6,0,L|303:124,1,215.999994277954,2|0,2:0|2:0,2:0:0:0:
349,133,184277,2,0,P|404:169|372:212,1,71.9999980926514,8|0,2:0|2:0,2:0:0:0:
394,236,184413,2,0,P|311:149|353:-4,1,287.999992370606,0|8,3:0|2:0,2:0:0:0:
476,22,184822,5,10,2:0:0:0:
322,57,184959,1,2,3:2:0:0:
298,212,185095,1,10,2:0:0:0:
362,341,185231,1,2,3:2:0:0:
256,223,185368,1,10,2:0:0:0:
337,73,185504,6,0,P|285:122|223:116,1,107.999997138977,10|8,2:0|2:0,2:0:0:0:
267,110,185674,6,0,P|262:145|331:156,1,107.999997138977,8|8,2:0|2:0,2:0:0:0:
457,120,185913,6,0,B|194:223|194:223|153:210,2,314.99999165535,4|0|8,3:2|2:0|2:0,2:0:0:0:
351,187,186595,5,2,2:0:0:0:
176,139,186731,1,2,2:0:0:0:
27,253,186868,1,2,2:0:0:0:
30,178,187004,6,0,B|78:146|78:146|351:253,2,314.99999165535,8|2|8,2:0|2:0|2:0,2:0:0:0:
192,219,187686,5,2,2:0:0:0:
366,150,187822,1,10,2:0:0:0:
494,283,187959,1,2,2:0:0:0:
474,213,188095,6,0,B|279:153|279:153|133:178,2,314.99999165535,4|0|8,3:2|3:0|2:0,2:0:0:0:
304,264,188777,5,2,3:2:0:0:
198,108,188913,1,2,2:0:0:0:
24,173,189049,1,2,2:0:0:0:
35,78,189186,6,0,B|67:98|67:98|86:216,1,157.499995827675,10|2,2:0|3:2,2:0:0:0:
203,356,189459,2,0,L|240:165,1,157.499995827675,10|10,2:0|2:0,2:0:0:0:
440,48,189731,6,0,B|357:120|357:120|218:111,1,209.9999944369,2|0,3:2|2:0,2:0:0:0:
273,40,190004,2,0,B|293:21|293:21|348:292,1,209.9999944369,8|0,2:0|2:0,2:0:0:0:
332,285,190277,6,0,B|402:2|402:2|364:12,2,314.99999165535,4|0|8,3:2|3:0|2:0,2:0:0:0:
391,360,190959,5,2,2:0:0:0:
264,220,191095,1,2,2:0:0:0:
240,34,191231,1,2,2:0:0:0:
305,69,191368,6,0,B|271:321|271:321|199:349,2,314.99999165535,8|2|8,2:0|2:0|2:0,2:0:0:0:
196,162,192049,5,2,2:0:0:0:
303,315,192186,1,10,2:0:0:0:
484,362,192322,1,2,2:0:0:0:
405,384,192459,6,0,B|251:353|251:353|169:190,2,314.99999165535,4|0|8,3:2|3:0|2:0,2:0:0:0:
273,238,193140,5,2,3:2:0:0:
90,274,193277,1,2,2:0:0:0:
21,98,193413,1,2,2:0:0:0:
88,154,193549,6,0,B|185:200|185:200|251:194,1,157.499995827675,10|2,2:0|3:2,2:0:0:0:
433,90,193822,2,0,B|369:76|369:76|287:136,1,157.499995827675,10|10,2:0|2:0,2:0:0:0:
216,285,194095,6,0,B|187:134|187:134|262:65,1,209.9999944369,2|0,3:2|2:0,2:0:0:0:
306,113,194368,2,0,B|383:181|383:181|362:338,1,209.9999944369,8|0,2:0|2:0,2:0:0:0:
294,255,194640,6,0,B|103:111|103:111|113:65,1,269.999992847443,4|0,3:2|2:0,2:0:0:0:
143,53,194913,2,0,P|217:200|150:305,1,269.999992847443,0|0,3:0|2:0,2:0:0:0:
144,308,195186,6,0,L|120:259,1,53.9999985694885,8|0,2:0|2:0,2:0:0:0:
60,131,195322,1,2,2:0:0:0:
208,265,195459,1,2,2:0:0:0:
364,151,195595,1,2,2:0:0:0:
432,339,195731,6,0,B|384:305|384:305|374:187|466:141,1,215.999994277954,8|0,2:0|3:0,2:0:0:0:
496,130,195959,5,2,2:0:0:0:
496,130,196004,6,0,P|391:270|279:234,1,269.999992847443,2|0,2:0|2:0,2:0:0:0:
287,279,196277,6,0,P|266:259|256:223,1,53.9999985694885,8|0,2:0|2:0,2:0:0:0:
252,102,196413,1,2,2:0:0:0:
388,243,196549,1,10,2:0:0:0:
229,131,196686,1,2,2:0:0:0:
114,302,196822,6,0,P|157:181|284:166,1,269.999992847443,4|0,3:2|2:0,2:0:0:0:
317,155,197095,2,0,B|327:199|327:199|229:373|229:373|199:328,1,269.999992847443,0|0,3:0|2:0,2:0:0:0:
229,325,197368,6,0,L|143:356,1,53.9999985694885,8|0,2:0|2:0,2:0:0:0:
51,384,197504,1,2,3:2:0:0:
11,186,197640,1,2,2:0:0:0:
130,24,197777,1,2,2:0:0:0:
83,226,197913,6,0,B|51:97|51:97|71:57,1,161.999995708466,10|2,2:0|3:2,2:0:0:0:
332,248,198186,2,0,B|374:234|374:234|396:87,1,161.999995708466,10|10,2:0|2:0,2:0:0:0:
116,298,198459,1,2,3:2:0:0:
256,60,198640,5,0,2:0:0:0:
201,105,198731,6,0,P|176:208|236:317,1,215.999994277954,8|0,2:0|2:0,2:0:0:0:
295,293,199004,6,0,B|286:221|330:166|330:166|395:128|366:25,1,269.999992847443,4|0,3:2|2:0,2:0:0:0:
405,7,199277,2,0,P|295:178|223:163,1,269.999992847443,0|0,3:0|2:0,2:0:0:0:
233,161,199549,6,0,P|198:183|180:234,1,53.9999985694885,8|0,2:0|2:0,2:0:0:0:
138,317,199686,1,2,2:0:0:0:
329,384,199822,1,2,2:0:0:0:
470,243,199959,1,2,2:0:0:0:
304,355,200095,6,0,B|135:336|135:336|92:270,1,215.999994277954,8|0,2:0|3:0,2:0:0:0:
122,287,200322,5,2,2:0:0:0:
136,292,200368,6,0,B|216:171|180:83|180:83|134:60,1,269.999992847443,2|0,2:0|2:0,2:0:0:0:
104,46,200640,6,0,L|196:31,1,53.9999985694885,8|0,2:0|2:0,2:0:0:0:
291,18,200777,1,2,2:0:0:0:
193,194,200913,1,10,2:0:0:0:
303,362,201049,1,2,2:0:0:0:
131,255,201186,6,0,P|76:243|0:310,1,161.999995708466,4|0,3:2|1:0,2:0:0:0:
7,324,201390,1,0,3:0:0:0:
14,342,201459,1,0,3:0:0:0:
203,307,201595,1,8,2:0:0:0:
113,122,201731,2,0,B|68:189|68:189|89:276,1,161.999995708466,8|0,2:0|3:0,2:0:0:0:
272,384,202004,2,0,B|317:317|317:317|297:237,1,161.999995708466,8|0,2:0|3:0,2:0:0:0:
290,207,202209,1,0,3:0:0:0:
282,176,202277,5,10,2:0:0:0:
88,197,202413,1,2,3:2:0:0:
227,61,202549,1,10,2:0:0:0:
369,192,202686,1,10,2:0:0:0:
183,131,202822,1,2,3:2:0:0:
134,358,202959,1,0,3:0:0:0:
134,358,203027,1,0,3:0:0:0:
134,358,203095,2,0,L|118:264,1,80.9999978542328,8|0,2:0|2:0,2:0:0:0:
201,293,203231,6,2,B|138:92|489:97|676:404|442:384,1,607.499983906746,8|0,2:0|2:0,2:0:0:0:
