osu file format v14

[General]
AudioFilename: audio.mp3
AudioLeadIn: 0
PreviewTime: 61403
Countdown: 0
SampleSet: Soft
StackLeniency: 0.7
Mode: 0
LetterboxInBreaks: 0
WidescreenStoryboard: 0

[Editor]
Bookmarks: 181,6989,20606,34223,47840,61457,73158,81883,88691,156775,177202
DistanceSpacing: 1
BeatDivisor: 4
GridSize: 4
TimelineZoom: 2.5

[Metadata]
Title:Fukakumei Zenya
TitleUnicode:不革命前夜
Artist:NEE
ArtistUnicode:NEE
Creator:Ryuusei Aika
Version:Conspiratorial Extra
Source:
Tags:JINRUI くぅ たい焼き Kuu Taiyaki Japanese pop jpop j-pop indie rock jrock j-rock collab collaboration -white sweets wanpachi calliecube lotragon superbox
BeatmapID:2997658
BeatmapSetID:1421723

[Difficulty]
HPDrainRate:6
CircleSize:4
OverallDifficulty:8.3
ApproachRate:9.3
SliderMultiplier:2
SliderTickRate:1

[Events]
//Background and Video events
0,0,"BG.jpg",0,0
//Break Periods
2,177401,183455
//Storyboard Layer 0 (Background)
//Storyboard Layer 1 (Fail)
//Storyboard Layer 2 (Pass)
//Storyboard Layer 3 (Foreground)
//Storyboard Layer 4 (Overlay)
//Storyboard Sound Samples

[TimingPoints]
180,425.531914893617,4,2,1,60,1,0
392,-200,4,2,1,60,0,0
5924,-133.333333333333,4,2,1,60,0,0
6988,-133.333333333333,4,2,1,70,0,0
14116,-111.111111111111,4,2,1,70,0,0
20605,-66.6666666666667,4,2,1,90,0,0
21669,-100,4,2,1,90,0,0
21882,-86.9565217391304,4,2,1,90,0,0
22094,-76.9230769230769,4,2,1,90,0,0
22307,-66.6666666666667,4,2,1,90,0,0
25073,-100,4,2,1,90,0,0
25286,-86.9565217391304,4,2,1,90,0,0
25499,-76.9230769230769,4,2,1,90,0,0
26775,-50,4,2,1,90,0,0
27626,-66.6666666666667,4,2,1,90,0,0
28477,-100,4,2,1,90,0,0
28690,-86.9565217391304,4,2,1,90,0,0
28903,-76.9230769230769,4,2,1,90,0,0
29328,-66.6666666666667,4,2,1,90,0,0
31882,-100,4,2,1,90,0,0
32094,-86.9565217391304,4,2,1,90,0,0
32307,-76.9230769230769,4,2,1,90,0,0
32733,-66.6666666666667,4,2,1,90,0,0
33584,-50,4,2,1,90,0,0
34222,-83.3333333333333,4,2,1,70,0,0
41031,-74.0740740740741,4,2,1,70,0,0
47839,-71.4285714285714,4,2,1,70,0,0
48265,-100,4,2,1,70,0,0
49328,-71.4285714285714,4,2,1,70,0,0
49967,-100,4,2,1,70,0,0
51243,-71.4285714285714,4,2,1,70,0,0
51669,-100,4,2,1,70,0,0
52733,-71.4285714285714,4,2,1,70,0,0
53371,-100,4,2,1,70,0,0
54648,-66.6666666666667,4,2,1,70,0,0
55499,-83.3333333333333,4,2,1,70,0,0
56137,-66.6666666666667,4,2,1,70,0,0
56988,-83.3333333333333,4,2,1,70,0,0
58265,-100,4,2,1,70,0,0
59754,-100,4,2,1,90,0,0
60605,-100,4,2,1,70,0,0
61456,-58.8235294117647,4,2,1,90,0,0
64009,-71.4285714285714,4,2,1,90,0,0
64860,-50,4,2,1,90,0,0
66562,-58.8235294117647,4,2,1,90,0,0
67414,-71.4285714285714,4,2,1,90,0,0
71882,-71.4285714285714,4,2,1,90,0,0
73371,-50,4,2,1,90,0,0
75073,-58.8235294117647,4,2,1,90,0,0
77626,-71.4285714285714,4,2,1,90,0,0
78477,-58.8235294117647,4,2,1,90,0,0
80180,-50,4,2,1,90,0,0
81031,-45.4545454545455,4,2,1,90,0,0
81882,-62.5,4,2,1,90,0,0
85286,-83.3333333333333,4,2,1,90,0,0
87130,-71.4285714285714,4,2,1,90,0,0
87838,-71.4285714285714,4,2,1,70,0,0
88690,-66.6666666666667,4,2,1,90,0,0
89754,-100,4,2,1,90,0,0
89967,-86.9565217391304,4,2,1,90,0,0
90179,-76.9230769230769,4,2,1,90,0,0
90392,-66.6666666666667,4,2,1,90,0,0
93158,-100,4,2,1,90,0,0
93371,-86.9565217391304,4,2,1,90,0,0
93584,-76.9230769230769,4,2,1,90,0,0
94860,-50,4,2,1,90,0,0
95711,-66.6666666666667,4,2,1,90,0,0
96562,-100,4,2,1,90,0,0
96775,-86.9565217391304,4,2,1,90,0,0
96988,-76.9230769230769,4,2,1,90,0,0
97413,-66.6666666666667,4,2,1,90,0,0
99967,-100,4,2,1,90,0,0
100179,-86.9565217391304,4,2,1,90,0,0
100392,-76.9230769230769,4,2,1,90,0,0
100818,-66.6666666666667,4,2,1,90,0,0
101456,-66.6666666666667,4,2,1,75,0,0
101669,-100,4,2,1,75,0,0
102307,-83.3333333333333,4,2,1,70,0,0
107839,-100,4,2,1,70,0,0
109116,-133.333333333333,4,2,1,60,0,0
112520,-100,4,2,1,60,0,0
114222,-83.3333333333333,4,2,1,75,0,0
115924,-71.4285714285714,4,2,1,70,0,0
116350,-100,4,2,1,70,0,0
117413,-71.4285714285714,4,2,1,70,0,0
117839,-83.3333333333333,4,2,1,70,0,0
118052,-100,4,2,1,70,0,0
119328,-71.4285714285714,4,2,1,70,0,0
119541,-83.3333333333333,4,2,1,70,0,0
119754,-100,4,2,1,70,0,0
119967,-125,4,2,1,70,0,0
120180,-100,4,2,1,70,0,0
121031,-71.4285714285714,4,2,1,70,0,0
121456,-100,4,2,1,70,0,0
122733,-125,4,2,1,70,0,0
123584,-166.666666666666,4,2,1,70,0,0
124222,-125,4,2,1,70,0,0
125073,-166.666666666666,4,2,1,70,0,0
127839,-100,4,2,1,90,0,0
128052,-83.3333333333333,4,2,1,90,0,0
128265,-71.4285714285714,4,2,1,90,0,0
128477,-62.5,4,2,1,90,0,0
128690,-55.5555555555556,4,2,1,90,0,0
129541,-58.8235294117647,4,2,1,90,0,0
131456,-71.4285714285714,4,2,1,90,0,0
132945,-50,4,2,1,90,0,0
134648,-71.4285714285714,4,2,1,90,0,0
135924,-100,4,2,1,90,0,0
136350,-71.4285714285714,4,2,1,90,0,0
137839,-83.3333333333333,4,2,1,90,0,0
139967,-71.4285714285714,4,2,1,90,0,0
141456,-66.6666666666667,4,2,1,90,0,0
143158,-58.8235294117647,4,2,1,90,0,0
145073,-71.4285714285714,4,2,1,90,0,0
146562,-58.8235294117647,4,2,1,90,0,0
148265,-50,4,2,1,90,0,0
149116,-45.4545454545455,4,2,1,90,0,0
149967,-71.4285714285714,4,2,1,90,0,0
156775,-50,4,2,1,75,0,0
157094,-100,4,2,1,75,0,0
158265,-50,4,2,1,75,0,0
162733,-133.333333333333,4,2,1,75,0,0
163158,-100,4,2,1,75,0,0
163584,-66.6666666666667,4,2,1,70,0,0
170392,-100,4,2,1,80,0,0
171243,-66.6666666666667,4,2,1,80,0,0
172094,-100,4,2,1,80,0,0
172945,-66.6666666666667,4,2,1,80,0,0
173797,-100,4,2,1,80,0,0
174648,-66.6666666666667,4,2,1,80,0,0
175499,-100,4,2,1,80,0,0
176350,-66.6666666666667,4,2,1,80,0,0
177626,-66.6666666666667,4,2,1,50,0,0
183584,-66.6666666666667,4,2,1,70,0,0
184860,-133.333333333333,4,2,1,70,0,0
186137,-66.6666666666667,4,2,1,70,0,0
186562,-133.333333333333,4,2,1,70,0,0
187414,-66.6666666666667,4,2,1,70,0,0
188265,-133.333333333333,4,2,1,70,0,0
189967,-133.333333333333,4,2,1,60,0,0
190818,-66.6666666666667,4,2,1,75,0,0
197626,-66.6666666666667,4,2,1,80,0,0
199328,-62.5,4,2,1,80,0,0
201031,-58.8235294117647,4,2,1,90,0,0
202733,-55.5555555555556,4,2,1,90,0,0
204435,-50,4,2,1,100,0,0
205339,-50,4,2,2,15,0,0
205392,-50,4,2,1,20,0,0
205445,-50,4,2,2,25,0,0
205498,-50,4,2,1,30,0,0
205552,-50,4,2,2,35,0,0
205605,-50,4,2,1,40,0,0
205658,-50,4,2,2,45,0,0
205711,-50,4,2,1,50,0,0
205765,-50,4,2,2,55,0,0
205818,-50,4,2,1,60,0,0
205871,-50,4,2,2,70,0,0
205924,-50,4,2,1,80,0,0
205977,-50,4,2,2,90,0,0
206031,-50,4,2,1,30,0,0
206137,-133.333333333333,4,2,1,60,0,0
216350,-270.27027027027,4,2,1,60,0,0
218052,-100,4,2,1,90,0,0
218903,-66.6666666666667,4,2,1,90,0,0
219328,-100,4,2,1,90,0,0
219754,-66.6666666666667,4,2,1,90,0,0
223158,-50,4,2,1,90,0,0
233371,-66.6666666666667,4,2,1,80,0,0
240392,-133.333333333333,4,2,1,80,0,0
246988,-100,4,2,1,65,0,0
258903,-100,4,2,1,100,0,0
260180,-333.333333333333,4,2,1,100,0,0
260499,-333.333333333333,4,2,2,90,0,0
260605,-333.333333333333,4,2,1,80,0,0
260711,-333.333333333333,4,2,2,70,0,0
260818,-333.333333333333,4,2,1,60,0,0
260924,-333.333333333333,4,2,2,50,0,0
261031,-333.333333333333,4,2,1,40,0,0
261137,-333.333333333333,4,2,2,30,0,0
261243,-333.333333333333,4,2,1,20,0,0
261350,-333.333333333333,4,2,2,10,0,0
261456,-333.333333333333,4,2,1,5,0,0

[Colours]
Combo1 : 192,96,0
Combo2 : 128,128,64
Combo3 : 128,64,64
Combo4 : 64,128,128

[HitObjects]
188,68,392,6,0,L|185:126,1,50,0|4,2:0|0:3,0:0:0:0:
288,61,1031,2,0,L|283:144,1,75,4|0,0:3|2:0,0:0:0:0:
388,96,1562,1,0,2:0:0:0:
388,96,1669,2,0,L|386:125,1,25,8|8,0:0|0:0,0:0:0:0:
192,72,2094,6,0,L|189:130,1,50,0|4,2:0|0:3,0:0:0:0:
292,65,2733,2,0,L|287:148,1,75,4|0,0:3|2:0,0:0:0:0:
392,100,3264,1,0,2:0:0:0:
392,100,3371,2,0,L|390:129,1,25,10|8,2:0|2:0,0:0:0:0:
381,284,3584,5,4,0:3:0:0:
286,263,3797,6,0,L|289:321,1,50,0|4,2:0|0:3,0:0:0:0:
186,256,4436,2,0,L|191:339,1,75,4|0,0:3|2:0,0:0:0:0:
86,291,4967,1,8,2:0:0:0:
86,291,5074,2,0,L|88:320,1,25,8|8,2:0|2:0,0:0:0:0:
377,280,5499,5,8,2:0:0:0:
418,266,5605,1,8,2:0:0:0:
461,281,5711,1,8,3:2:0:0:
502,268,5817,1,8,2:0:0:0:
498,246,5924,6,0,L|506:223,4,18.7500007152558,8|8|8|8|8,2:3|2:3|2:3|2:3|3:0,0:0:0:0:
423,355,6243,5,8,2:3:0:0:
423,355,6350,1,8,2:3:0:0:
423,355,6456,1,8,2:3:0:0:
458,374,6562,2,0,L|506:381,3,37.5000014305115,4|4|4|4,3:0|2:3|2:3|2:3,0:0:0:0:
381,370,6988,5,4,0:3:0:0:
197,329,7307,2,0,L|333:312,1,112.500004291535,0|2,2:0|2:0,0:0:0:0:
181,350,7839,1,4,0:3:0:0:
477,249,8158,2,0,L|341:232,1,112.500004291535,0|10,2:0|2:0,0:0:0:0:
386,266,8690,1,4,0:3:0:0:
207,142,9009,2,0,L|301:130,1,75.0000028610231,0|0,2:0|2:0,0:0:0:0:
301,151,9328,1,2,2:0:0:0:
180,120,9541,1,4,0:3:0:0:
110,221,9860,2,0,L|-2:197,1,112.500004291535,2|10,2:0|2:0,0:0:0:0:
129,244,10392,5,4,0:3:0:0:
122,19,10711,2,0,L|84:138,1,112.500004291535,0|2,2:0|2:0,0:0:0:0:
152,0,11243,1,4,0:3:0:0:
220,220,11562,2,0,L|182:101,1,112.500004291535,0|10,2:0|2:0,0:0:0:0:
163,145,12094,1,4,0:3:0:0:
294,27,12414,2,0,L|260:132,1,75.0000028610231,0|0,2:0|2:0,0:0:0:0:
286,125,12733,1,2,2:0:0:0:
273,0,12945,1,4,0:3:0:0:
401,108,13265,2,0,L|531:83,1,112.500004291535,2|10,2:0|2:0,0:0:0:0:
381,134,13797,5,4,0:3:0:0:
452,353,14116,2,0,P|455:286|428:226,1,134.999995880127,0|2,2:0|2:0,0:0:0:0:
430,381,14648,1,4,0:3:0:0:
341,206,14967,2,0,P|337:260|288:331,1,134.999995880127,0|10,2:0|2:0,0:0:0:0:
304,342,15392,1,0,0:0:0:0:
318,352,15499,5,4,0:3:0:0:
176,215,15818,2,0,P|220:210|255:183,1,89.9999972534181,0|0,2:0|2:0,0:0:0:0:
259,152,16137,1,2,2:0:0:0:
161,249,16350,1,4,0:3:0:0:
100,52,16669,2,0,P|151:79|237:75,1,134.999995880127,2|10,2:0|2:0,0:0:0:0:
69,62,17201,5,4,0:3:0:0:
17,278,17520,2,0,B|33:248|33:248|22:130,1,134.999995880127,0|10,2:0|2:0,0:0:0:0:
29,307,18052,1,4,0:3:0:0:
188,223,18371,2,0,B|213:245|213:245|239:344,1,134.999995880127,0|10,2:0|2:0,0:0:0:0:
219,369,18797,1,8,2:0:0:0:
176,303,18903,5,8,2:1:0:0:
224,291,19009,1,8,2:1:0:0:
274,293,19115,1,8,2:1:0:0:
321,307,19222,1,8,0:1:0:0:
357,327,19328,5,8,0:3:0:0:
390,348,19435,2,0,L|403:381,2,22.4999993133545,8|8|10,2:0|2:0|2:0,0:0:0:0:
436,282,19648,1,10,2:0:0:0:
465,293,19754,6,0,L|494:333,1,44.999998626709,2|2,2:0|2:0,0:0:0:0:
491,211,20073,1,2,2:0:0:0:
457,96,20286,2,0,L|497:129,1,44.999998626709,2|2,2:0|2:0,0:0:0:0:
390,43,20605,5,4,0:3:0:0:
195,128,20818,2,2,L|343:108,1,150.000005722046,2|0,2:0|1:0,0:1:0:0:
124,165,21137,2,0,P|133:197|117:248,1,75.0000028610231,2|0,2:0|0:0,0:0:0:0:
60,287,21350,1,2,2:0:0:0:
0,238,21456,1,4,0:3:0:0:
27,218,21562,1,2,2:0:0:0:
27,218,21669,6,0,L|38:266,1,50,0|0,2:0|2:0,0:0:0:0:
204,323,21882,2,0,L|218:258,1,57.5000010967255,0|0,1:0|0:0,0:0:0:0:
413,321,22094,2,0,L|427:385,1,64.9999970245363,2|0,2:0|0:0,0:0:0:0:
310,334,22307,5,4,0:3:0:0:
263,147,22520,2,2,P|289:217|349:261,1,150.000005722046,2|0,2:0|1:0,0:1:0:0:
190,187,22839,2,0,P|153:188|121:207,1,75.0000028610231,2|0,2:0|0:0,0:0:0:0:
102,281,23052,1,2,2:0:0:0:
218,76,23265,5,2,2:0:0:0:
288,123,23371,5,2,2:0:0:0:
345,61,23477,5,2,2:0:0:0:
267,143,23584,6,0,L|193:155,1,75.0000028610231,0|0,1:0|0:0,0:0:0:0:
331,187,23797,1,2,2:0:0:0:
41,384,24009,5,4,0:3:0:0:
123,190,24222,2,2,L|108:339,1,150.000005722046,2|0,2:0|1:0,0:1:0:0:
56,147,24541,2,0,P|48:110|57:74,1,75.0000028610231,2|0,2:0|0:0,0:0:0:0:
118,27,24754,1,2,2:0:0:0:
189,55,24860,1,4,0:3:0:0:
207,24,24967,1,2,2:0:0:0:
207,24,25073,6,0,L|217:87,1,50,0|0,2:0|2:0,0:0:0:0:
408,149,25286,2,0,L|417:92,1,57.5000010967255,0|0,1:0|0:0,0:0:0:0:
174,143,25499,2,0,L|161:221,1,64.9999970245363,2|0,2:0|2:0,0:0:0:0:
303,116,25711,5,4,0:3:0:0:
395,293,25924,2,2,P|367:222|289:184,1,129.999994049073,2|0,2:0|1:0,0:1:0:0:
462,350,26243,2,0,P|475:313|477:271,1,64.9999970245363,2|0,2:0|0:0,0:0:0:0:
457,208,26456,1,2,2:0:0:0:
137,351,26669,5,2,3:2:0:0:
12,260,26775,2,0,P|59:249|97:278,1,100,2|0,1:0|2:0,0:0:0:0:
218,366,26988,2,2,P|303:287|180:283,1,300,0|8,1:0|2:0,0:1:0:0:
141,347,27414,5,4,0:3:0:0:
372,208,27626,2,0,L|397:355,1,150.000005722046,2|0,2:1|1:0,0:0:0:0:
300,174,27945,2,0,P|313:136|310:96,1,75.0000028610231,2|0,2:0|0:0,0:0:0:0:
281,31,28158,1,2,2:0:0:0:
210,1,28265,1,4,0:3:0:0:
200,31,28371,1,2,2:0:0:0:
200,31,28477,6,0,L|249:22,1,50,0|0,2:0|2:0,0:0:0:0:
296,178,28690,2,0,L|229:165,1,57.5000010967255,0|0,1:0|0:0,0:0:0:0:
298,344,28903,2,0,L|364:331,1,64.9999970245363,2|0,2:0|0:0,0:0:0:0:
362,242,29116,5,4,0:3:0:0:
175,220,29328,2,0,P|123:273|51:290,1,150.000005722046,2|0,2:1|1:0,0:0:0:0:
235,171,29648,2,0,P|207:138|195:94,1,75.0000028610231,2|0,2:0|0:0,0:0:0:0:
196,35,29860,1,2,2:0:0:0:
483,104,30073,5,2,2:0:0:0:
512,35,30179,1,2,2:0:0:0:
433,222,30392,2,0,L|418:130,1,75.0000028610231,0|0,1:0|2:0,0:0:0:0:
483,280,30605,1,2,2:0:0:0:
374,90,30818,5,4,0:3:0:0:
162,114,31031,2,0,L|332:133,1,150.000005722046,2|0,2:1|1:0,0:0:0:0:
104,63,31350,2,0,P|71:80|50:111,1,75.0000028610231,2|0,2:0|0:0,0:0:0:0:
73,183,31562,1,2,2:0:0:0:
25,242,31669,1,4,0:3:0:0:
8,215,31775,1,2,2:0:0:0:
8,215,31882,6,0,L|57:209,1,50,0|0,2:0|2:0,0:0:0:0:
215,124,32094,2,0,L|158:118,1,57.5000010967255,0|0,1:0|0:0,0:0:0:0:
332,27,32307,2,0,L|399:18,1,64.9999970245363,2|0,2:0|0:0,0:0:0:0:
299,108,32520,5,4,0:3:0:0:
296,325,32733,2,0,P|264:257|269:183,1,150.000005722046,2|0,2:1|1:0,0:0:0:0:
213,348,33052,2,0,P|174:372|137:376,1,75.0000028610231,2|0,2:0|0:0,0:0:0:0:
69,363,33265,1,2,2:0:0:0:
347,169,33477,1,0,0:0:0:0:
492,250,33584,6,0,P|449:224|426:181,1,100,2|0,1:0|2:0,0:0:0:0:
484,82,33797,2,2,P|483:131|457:173,1,100,0|0,1:0|2:0,0:1:0:0:
343,173,34009,2,0,P|386:148|435:150,1,100,8|8,2:3|2:3,0:0:0:0:
328,279,34222,6,0,B|350:195|304:183|309:99,1,179.999994506836,4|0,0:3|0:0,0:0:0:0:
231,137,34648,2,0,B|208:87|246:71|223:14,1,119.999996337891,0|0,1:0|2:0,0:0:0:0:
184,201,34967,1,0,2:0:0:0:
163,225,35073,2,0,P|127:244|42:209,1,119.999996337891,4|0,0:3|2:0,0:0:0:0:
233,261,35499,1,0,1:0:0:0:
56,86,35711,2,0,B|73:47|159:37|152:152|100:173,1,179.999994506836,2|0,2:0|0:0,0:0:0:0:
50,219,36137,6,0,P|21:273|38:343,1,119.999996337891,2|0,2:0|1:0,0:0:0:0:
242,121,36562,1,2,2:0:0:0:
262,194,36775,1,4,0:3:0:0:
237,265,36988,1,2,2:0:0:0:
482,329,37201,2,0,P|490:270|462:219,1,119.999996337891,0|2,1:0|2:0,0:0:0:0:
332,143,37626,6,0,B|423:182|420:113|507:149,1,179.999994506836,4|0,0:3|2:0,0:0:0:0:
405,65,38052,2,0,B|359:85|337:45|287:69,1,119.999996337891,0|0,1:0|0:0,0:0:0:0:
236,255,38371,1,0,2:0:0:0:
253,223,38477,2,0,P|244:141|213:111,1,119.999996337891,4|0,0:3|2:0,0:0:0:0:
195,325,38903,1,0,1:0:0:0:
69,143,39116,2,0,B|38:123|4:153|18:198|107:190|80:138|155:158,1,179.999994506836,2|0,2:0|0:0,0:0:0:0:
215,110,39541,6,0,P|185:60|186:1,1,119.999996337891,2|0,2:0|1:0,0:0:0:0:
302,183,39967,1,8,2:3:0:0:
197,220,40180,1,4,0:3:0:0:
306,187,40392,1,4,2:3:0:0:
325,382,40605,2,0,P|326:323|296:273,1,119.999996337891,0|2,1:0|2:0,0:0:0:0:
110,299,41031,6,0,B|102:287|102:287|222:298,1,135.000000514984,4|0,0:3|0:0,0:0:0:0:
376,238,41350,1,0,2:0:0:0:
456,267,41456,2,0,B|490:319|464:375|464:375|461:353,1,135.000000514984,0|0,1:0|0:0,0:0:0:0:
441,182,41775,1,0,2:0:0:0:
361,153,41882,2,0,B|348:94|388:50|388:50|385:77,1,135.000000514984,4|0,0:3|2:0,0:0:0:0:
372,234,42307,1,0,1:0:0:0:
281,83,42520,2,0,B|277:111|277:111|176:157,1,135.000000514984,2|4,2:0|0:3,0:0:0:0:
233,19,42945,5,2,2:0:0:0:
105,201,43158,2,0,P|79:140|16:123,1,135.000000514984,0|0,1:0|0:0,0:0:0:0:
280,196,43584,1,4,0:3:0:0:
231,257,43797,1,0,2:0:0:0:
495,123,44009,2,0,P|432:140|407:201,1,135.000000514984,0|2,1:0|2:0,0:0:0:0:
491,372,44435,6,0,B|518:340|518:340|466:265|380:282,1,202.500000772476,4|0,0:3|0:0,0:0:0:0:
218,360,44860,2,0,B|246:367|246:367|336:331|285:208,1,202.500000772476,0|0,1:0|0:0,0:0:0:0:
225,48,45286,2,0,B|220:99|220:99|225:128|225:128|221:182,1,135.000000514984,4|0,0:3|2:0,0:0:0:0:
288,0,45711,1,0,1:0:0:0:
145,143,45924,2,0,B|140:190|140:190|116:237|143:282,1,135.000000514984,2|4,2:0|0:3,0:0:0:0:
0,53,46350,6,0,P|59:104|57:172,1,135.000000514984,2|0,2:0|1:0,0:0:0:0:
292,255,46775,1,0,2:0:0:0:
272,174,46988,1,4,0:3:0:0:
211,235,47201,1,2,2:0:0:0:
512,53,47414,2,0,P|453:104|455:172,1,135.000000514984,0|8,1:0|2:3,0:0:0:0:
398,309,47733,1,8,2:3:0:0:
471,323,47839,6,0,P|425:278|283:286,1,209.999993591309,2|0,0:1|0:0,0:0:0:0:
150,330,48265,2,0,P|207:355|232:398,1,100,2|0,3:2|2:0,0:0:0:0:
212,265,48690,1,4,0:3:0:0:
264,101,48903,2,0,P|267:155|247:206,1,100,0|4,2:0|0:3,0:0:0:0:
111,241,49328,6,0,B|140:227|140:227|317:237,1,209.999993591309,10|0,2:1|0:0,0:0:0:0:
317,237,49754,1,2,2:0:0:0:
230,351,49967,2,0,B|170:347|170:347|156:310,1,100,0|2,3:2|2:0,0:0:0:0:
390,295,50392,2,0,B|379:323|379:323|310:328,1,100,4|0,0:3|2:0,0:0:0:0:
108,317,50818,1,4,0:3:0:0:
124,314,50924,1,8,2:3:0:0:
140,312,51030,1,4,2:3:0:0:
156,310,51137,1,4,2:3:0:0:
100,366,51243,6,0,P|134:281|82:160,1,209.999993591309,2|0,0:1|0:0,0:0:0:0:
0,66,51669,2,0,P|44:96|94:83,1,100,4|0,0:3|2:0,0:0:0:0:
15,172,52094,1,4,0:3:0:0:
162,120,52307,2,0,P|175:72|209:36,1,100,2|4,2:0|0:3,0:0:0:0:
269,217,52733,6,0,B|287:204|287:204|291:8,1,209.999993591309,10|0,2:1|0:0,0:0:0:0:
286,20,53158,1,8,0:2:0:0:
158,124,53371,2,0,B|161:174|161:174|209:161,1,100,4|10,3:3|2:0,0:0:0:0:
370,68,53797,2,0,B|400:67|400:67|480:111|480:111|508:112,1,150,4|0,0:3|2:0,0:0:0:0:
512,108,54222,2,0,B|487:107|487:107|467:122,1,50,4|0,0:3|2:0,0:0:0:0:
385,195,54435,1,8,2:3:0:0:
447,237,54541,1,8,2:3:0:0:
461,310,54648,6,0,P|435:328|293:291,1,150.000005722046,4|0,0:3|0:0,0:0:0:0:
225,192,54967,1,4,0:3:0:0:
260,126,55073,2,0,B|234:196|280:208|260:272,1,150.000005722046,10|4,2:0|0:3,0:0:0:0:
325,45,55499,2,0,L|341:111,1,59.9999981689454,2|0,2:0|2:0,0:0:0:0:
421,113,55711,2,0,L|406:54,1,59.9999981689454,4|0,0:3|2:0,0:0:0:0:
479,10,55924,2,0,L|493:68,1,59.9999981689454,10|0,2:0|0:0,0:0:0:0:
510,265,56137,6,0,B|369:276|406:113|257:130,1,300.000011444092,2|0,2:0|2:0,0:0:0:0:
95,210,56775,1,10,2:0:0:0:
80,251,56882,1,0,0:0:0:0:
90,273,56988,2,0,P|112:295|121:323,1,59.9999981689454,4|0,0:3|0:0,0:0:0:0:
11,202,57201,2,0,P|18:138|1:70,1,119.999996337891,2|4,2:0|0:3,0:0:0:0:
94,269,57626,2,0,P|127:218|151:96,1,179.999994506836,10|0,2:0|2:0,0:0:0:0:
147,106,58052,5,4,0:3:0:0:
239,162,58265,2,0,L|242:216,1,50,2|4,2:0|0:3,0:0:0:0:
261,240,58477,1,10,2:0:0:0:
326,34,58690,1,4,0:3:0:0:
400,139,58903,1,2,2:0:0:0:
383,214,59116,1,4,0:3:0:0:
483,117,59328,1,10,2:0:0:0:
466,192,59541,1,0,2:0:0:0:
487,121,59754,5,4,0:3:0:0:
379,218,59967,5,4,0:3:0:0:
253,85,60179,5,4,0:3:0:0:
122,238,60392,5,4,0:3:0:0:
13,41,60605,5,4,0:3:0:0:
9,37,61456,6,0,B|110:10|79:81|170:63,1,170.000003242493,4|0,0:3|2:0,0:0:0:0:
178,223,61775,1,0,2:0:0:0:
141,153,61882,2,0,B|242:126|211:197|302:179,1,170.000003242493,0|0,1:0|2:0,0:0:0:0:
301,343,62200,1,0,2:0:0:0:
273,269,62307,2,0,B|374:242|334:332|483:326|516:268,1,255.000004863739,4|0,0:3|2:0,0:0:0:0:
461,205,62733,2,0,P|455:238|473:372,1,170.000003242493,0|2,1:0|2:0,0:0:0:0:
483,5,63158,6,2,B|389:-2|437:201|347:192,1,255.000004863739,4|0,0:3|2:0,0:1:0:0:
352,196,63584,2,2,B|440:204|392:0|486:8,1,255.000004863739,0|0,1:0|2:0,0:1:0:0:
512,144,64009,2,2,P|416:102|312:109,1,209.999993591309,4|0,0:3|2:0,0:1:0:0:
308,113,64435,1,0,1:0:0:0:
164,220,64648,1,0,0:0:0:0:
259,348,64860,6,0,P|252:282|246:248,1,100,4|0,0:3|2:0,0:0:0:0:
216,66,65073,2,0,P|220:115|228:165,1,100,2|0,2:0|2:0,0:0:0:0:
176,319,65286,2,0,P|169:253|163:219,1,100,0|0,1:0|2:0,0:0:0:0:
133,37,65499,2,0,P|137:86|145:136,1,100,2|0,2:0|2:0,0:0:0:0:
345,282,65711,6,0,P|281:263|248:251,1,100,4|0,0:3|2:0,0:0:0:0:
63,194,65924,2,0,P|111:207|158:223,1,100,2|0,2:0|2:0,0:0:0:0:
328,190,66137,2,0,P|264:171|231:159,1,100,0|0,1:0|2:0,0:0:0:0:
46,102,66350,2,0,P|94:115|141:131,1,100,2|0,2:0|2:0,0:0:0:0:
249,251,66562,6,0,B|428:308|293:330|463:376,1,255.000004863739,4|0,0:3|0:0,0:0:0:0:
458,378,66988,2,0,B|288:332|423:310|244:253,1,255.000004863739,0|0,1:0|0:0,0:0:0:0:
286,384,67414,2,0,P|353:330|400:213,1,209.999993591309,4|0,0:3|2:0,0:0:0:0:
363,110,67839,5,0,1:0:0:0:
395,139,67945,1,8,2:3:0:0:
436,148,68052,1,8,2:3:0:0:
477,142,68158,1,8,2:3:0:0:
435,65,68265,5,4,0:3:0:0:
207,48,68477,2,0,P|207:117|217:187,1,139.999995727539,2|0,2:0|1:0,0:0:0:0:
143,4,68903,1,2,2:0:0:0:
286,230,69116,5,4,0:3:0:0:
58,213,69328,2,0,P|58:282|68:352,1,139.999995727539,2|0,2:0|1:0,0:0:0:0:
0,160,69754,5,2,2:0:0:0:
201,246,69967,1,4,0:3:0:0:
253,307,70180,1,0,2:0:0:0:
278,230,70392,1,0,1:0:0:0:
219,35,70605,1,2,2:0:0:0:
331,294,70818,1,4,0:3:0:0:
508,130,71031,5,2,2:0:0:0:
253,307,71243,1,0,1:0:0:0:
28,172,71456,1,0,0:0:0:0:
279,231,71669,5,4,0:3:0:0:
185,350,71882,2,0,B|122:184|193:253|351:3|141:-77|76:68|189:184|285:134,1,489.999985046387,2|0,2:1|2:0,0:0:0:0:
258,142,72733,1,10,2:0:0:0:
317,93,72945,1,0,1:0:0:0:
390,117,73158,1,2,2:0:0:0:
503,6,73371,6,1,B|480:17|480:17|452:70|475:192,1,200,4|0,0:3|2:0,0:0:0:0:
508,334,73690,1,0,2:0:0:0:
512,258,73797,2,1,B|522:243|522:243|486:220|439:229,1,100,0|0,1:0|0:0,0:0:0:0:
340,287,74009,2,0,P|306:296|220:305,1,100,0|0,0:0|2:0,0:0:0:0:
0,265,74222,5,4,0:3:0:0:
216,281,74435,1,10,2:1:0:0:
289,290,74541,1,8,2:0:0:0:
360,314,74648,1,2,1:0:0:0:
361,329,74754,1,8,2:3:0:0:
362,344,74860,1,8,2:3:0:0:
364,362,74967,1,8,0:3:0:0:
331,379,75073,6,0,B|334:296|282:304|286:218,1,170.000003242493,4|0,0:3|2:0,0:0:0:0:
130,254,75392,1,0,2:0:0:0:
212,277,75499,2,0,B|215:194|163:202|167:116,1,170.000003242493,0|0,1:0|2:0,0:0:0:0:
10,136,75818,1,0,2:0:0:0:
88,153,75924,6,0,P|81:90|71:64,1,85.0000016212464,4|0,0:3|2:0,0:0:0:0:
259,22,76137,2,0,P|246:62|244:104,1,85.0000016212464,2|0,2:0|2:0,0:0:0:0:
92,149,76350,2,0,P|85:86|75:60,1,85.0000016212464,0|0,1:0|0:0,0:0:0:0:
262,17,76563,2,0,P|249:57|247:99,1,85.0000016212464,2|0,2:0|2:0,0:0:0:0:
438,98,76775,6,2,B|304:85|365:210|220:195,1,255.000004863739,4|0,0:3|0:0,0:1:0:0:
224,199,77201,2,2,B|369:214|308:89|442:102,1,255.000004863739,0|0,1:0|0:0,0:1:0:0:
411,229,77626,2,2,P|324:169|250:95,1,209.999993591309,4|0,0:3|0:0,0:1:0:0:
246,91,78052,1,0,1:0:0:0:
144,189,78265,1,2,2:0:0:0:
244,374,78477,6,0,P|250:332|249:289,1,85.0000016212464,4|0,0:3|0:0,0:0:0:0:
136,62,78690,2,0,P|161:90|190:139,1,85.0000016212464,2|0,2:0|2:0,0:0:0:0:
264,298,78903,2,0,P|257:256|258:213,1,85.0000016212464,0|0,1:0|0:0,0:0:0:0:
352,0,79116,2,0,P|336:39|315:76,1,85.0000016212464,2|0,2:0|2:0,0:0:0:0:
40,153,79328,2,0,B|230:131|124:208|326:178,1,255.000004863739,4|0,0:3|0:0,0:0:0:0:
426,234,79754,2,0,P|383:232|343:246,1,85.0000016212464,0|0,1:0|0:0,0:0:0:0:
122,353,79967,2,0,P|162:366|204:365,1,85.0000016212464,2|0,2:0|2:0,0:0:0:0:
391,349,80180,6,0,L|275:322,1,100,4|0,0:3|2:0,0:0:0:0:
10,191,80392,2,0,L|131:181,1,100,2|0,2:0|2:0,0:0:0:0:
391,35,80605,2,0,L|275:62,1,100,0|0,1:0|2:0,0:0:0:0:
87,203,80818,2,0,L|208:213,1,100,2|0,2:0|2:0,0:0:0:0:
477,156,81031,2,2,B|362:147|362:147|291:216|291:216|178:237,1,330.000010070801,4|0,0:3|2:0,0:1:0:0:
36,263,81456,1,0,1:0:0:0:
396,239,81669,1,2,2:0:0:0:
442,297,81775,1,8,2:0:0:0:
444,371,81882,6,0,P|408:302|441:232,1,160,4|2,0:3|2:0,0:0:0:0:
369,308,82201,1,4,0:3:0:0:
337,301,82307,1,0,1:0:0:0:
403,80,82520,2,0,P|414:106|405:163,1,80,4|0,0:3|0:0,0:0:0:0:
324,208,82733,1,2,2:0:0:0:
410,42,82945,2,0,P|431:74|435:114,1,80,4|0,0:3|0:0,0:0:0:0:
320,204,83158,1,0,1:0:0:0:
338,0,83371,1,2,2:0:0:0:
242,178,83584,5,4,0:3:0:0:
28,127,83797,1,8,0:3:0:0:
50,119,83903,1,0,0:0:0:0:
73,120,84009,1,0,1:0:0:0:
94,362,84222,1,4,0:3:0:0:
422,362,84435,1,2,0:0:0:0:
372,193,84648,1,4,0:3:0:0:
141,199,84861,1,0,1:0:0:0:
265,253,85073,1,2,1:2:0:0:
271,363,85286,6,2,B|164:188|354:136|369:-41|117:-32|167:108|207:119,1,479.999985351563,4|0,0:3|2:0,0:1:0:0:
351,161,86350,1,4,0:3:0:0:
476,306,86562,1,0,1:0:0:0:
511,240,86775,1,0,2:0:0:0:
407,328,86988,5,4,0:3:0:0:
375,322,87130,6,0,L|344:233,1,93.3333304850261,2|10,2:2|2:2,0:0:0:0:
270,48,87414,5,4,0:3:0:0:
275,125,87555,5,2,2:2:0:0:
347,157,87697,6,0,P|328:122|309:109,1,46.6666652425131,10|0,2:2|0:0,0:0:0:0:
266,44,87838,5,0,1:0:0:0:
266,44,88265,1,4,2:0:0:0:
266,44,88690,5,4,0:3:0:0:
216,281,88903,2,2,L|234:184,2,75.0000028610231,2|0|0,2:0|0:0|1:0,0:1:0:0:
44,196,89222,2,0,P|132:187|188:133,1,150.000005722046,2|2,2:0|2:0,0:0:0:0:
29,175,89541,1,4,0:3:0:0:
66,240,89648,1,2,2:0:0:0:
51,282,89754,1,0,2:0:0:0:
330,321,89967,6,0,L|262:331,1,57.5000010967255,0|0,1:0|0:0,0:0:0:0:
265,342,90180,2,0,B|300:346|300:346|327:332,1,64.9999970245363,2|0,2:0|0:0,0:0:0:0:
84,352,90392,6,0,L|226:275,1,150.000005722046,4|2,0:3|2:0,0:0:0:0:
344,235,90711,2,0,P|399:233|445:311,2,150.000005722046,0|2|2,0:0|2:0|2:0,0:0:0:0:
493,205,91243,1,4,0:3:0:0:
478,228,91350,5,2,2:0:0:0:
442,148,91456,5,2,2:0:0:0:
480,82,91562,5,2,2:0:0:0:
471,71,91669,2,0,L|384:56,2,75.0000028610231,0|0|2,1:0|0:0|2:0,0:0:0:0:
214,93,92094,6,0,L|163:148,1,75.0000028610231,4|0,0:3|0:0,0:0:0:0:
150,118,92307,2,0,L|223:130,1,75.0000028610231,2|0,2:0|0:0,0:0:0:0:
330,28,92520,1,0,1:0:0:0:
291,91,92627,2,0,B|219:85|219:85|157:25,2,150.000005722046,2|2|2,2:0|2:0|2:0,0:0:0:0:
291,167,93158,6,0,L|276:229,1,50,0|0,2:0|2:0,0:0:0:0:
195,261,93371,2,0,L|208:201,1,57.5000010967255,0|0,1:0|0:0,0:0:0:0:
67,187,93584,2,0,L|81:251,1,64.9999970245363,2|0,2:0|2:0,0:0:0:0:
156,324,93797,5,4,0:3:0:0:
21,330,94009,1,2,2:0:0:0:
21,330,94116,2,0,B|84:345|84:345|154:307,1,129.999994049073,0|2,0:0|2:0,0:0:0:0:
410,263,94541,2,0,B|380:243|343:251,2,64.9999970245363,2|4|2,2:0|0:3|3:2,0:0:0:0:
454,324,94860,5,2,1:0:0:0:
400,375,94967,1,0,2:0:0:0:
326,366,95073,2,2,B|301:330|302:295|336:255|336:255|346:177,1,200,0|0,1:0|2:0,0:1:0:0:
380,25,95392,1,8,2:0:0:0:
395,97,95499,6,0,B|354:126|354:126|294:114,1,100,4|0,0:3|0:0,0:0:0:0:
237,51,95711,1,2,2:2:0:0:
237,51,95818,2,0,L|273:197,2,150.000005722046,0|2|2,0:0|2:0|2:0,0:0:0:0:
31,75,96456,1,2,2:0:0:0:
23,153,96562,6,0,L|72:142,1,50,0|0,2:0|2:0,0:0:0:0:
152,26,96775,2,0,L|95:39,1,57.5000010967255,0|0,1:0|0:0,0:0:0:0:
141,173,96988,2,0,L|121:235,1,64.9999970245363,2|0,2:0|0:0,0:0:0:0:
112,248,97201,6,0,L|230:337,1,129.999994049073,4|2,0:3|2:2,0:0:0:0:
71,311,97520,1,0,0:0:0:0:
71,311,97626,2,0,P|36:328|-6:329,2,75.0000028610231,0|2|0,1:0|2:0|0:0,0:0:0:0:
101,382,97945,1,2,2:0:0:0:
285,296,98158,5,2,2:0:0:0:
278,372,98264,1,2,2:0:0:0:
462,213,98477,1,0,1:0:0:0:
448,365,98690,2,0,B|465:330|465:330|450:296,1,75.0000028610231,2|0,2:0|2:0,0:0:0:0:
343,105,98903,6,0,P|357:178|392:245,1,150.000005722046,4|2,0:3|2:2,0:0:0:0:
367,124,99222,2,0,P|294:140|219:135,1,150.000005722046,0|2,0:0|2:0,0:0:0:0:
293,217,99541,1,0,0:0:0:0:
280,226,99648,2,0,B|253:244|253:244|250:254|250:254|220:274,1,75.0000028610231,2|4,2:0|0:3,0:0:0:0:
88,258,99860,1,2,2:0:0:0:
88,258,99967,6,0,L|69:181,1,50,0|0,2:0|2:0,0:0:0:0:
32,326,100180,2,0,L|44:381,1,57.5000010967255,0|0,1:0|0:0,0:0:0:0:
145,356,100392,2,0,B|162:328|162:328|153:296,1,64.9999970245363,2|0,2:0|0:0,0:0:0:0:
27,134,100605,6,0,B|-7:190|-7:190|10:252,1,129.999994049073,4|2,0:3|2:2,0:0:0:0:
86,76,100924,2,0,L|11:51,1,75.0000028610231,0|0,0:0|1:0,0:0:0:0:
239,42,101137,2,0,B|271:27|271:27|330:34,1,75.0000028610231,2|0,2:0|0:0,0:0:0:0:
310,31,101350,2,0,B|270:35|270:35|238:20,1,75.0000028610231,2|4,2:0|0:3,0:0:0:0:
90,0,101775,5,8,2:0:0:0:
156,115,101988,1,0,2:0:0:0:
156,115,102094,2,0,P|167:91|168:57,1,50,10|8,2:0|2:0,0:0:0:0:
200,230,102307,5,0,1:0:0:0:
202,241,102414,1,0,2:0:0:0:
204,252,102520,1,0,2:0:0:0:
107,205,102733,6,0,P|158:236|278:224,1,179.999994506836,4|0,0:3|2:0,0:0:0:0:
296,214,103158,1,4,0:3:0:0:
118,312,103371,2,0,L|1:335,1,119.999996337891,0|4,1:0|0:3,0:0:0:0:
291,381,103797,2,0,L|408:358,1,119.999996337891,0|4,1:0|0:3,0:0:0:0:
162,384,104222,5,0,2:0:0:0:
162,384,104435,1,4,0:3:0:0:
222,344,104648,1,0,2:0:0:0:
282,304,104860,6,0,B|334:272|334:272|399:284,1,119.999996337891,4|0,0:3|2:0,0:0:0:0:
459,316,105180,1,8,2:3:0:0:
401,264,105286,1,12,0:3:0:0:
419,226,105392,1,8,2:3:0:0:
446,243,105499,1,8,2:3:0:0:
459,229,105605,1,8,2:3:0:0:
472,215,105711,6,0,B|497:160|497:160|475:92,1,119.999996337891,0|0,1:0|2:0,0:0:0:0:
390,118,106031,1,0,0:0:0:0:
390,118,106137,2,0,B|415:63|415:63|393:-5,1,119.999996337891,4|0,0:3|2:0,0:0:0:0:
325,28,106456,1,0,0:0:0:0:
396,20,106562,1,4,0:3:0:0:
118,155,106775,2,0,L|1:132,1,119.999996337891,0|4,1:0|0:3,0:0:0:0:
254,36,107201,2,0,L|137:13,1,119.999996337891,0|4,1:0|0:3,0:0:0:0:
68,36,107626,5,0,2:0:0:0:
185,193,107839,2,0,B|213:151|213:151|204:101,1,100,4|0,0:3|2:0,0:0:0:0:
0,209,108265,5,10,2:0:0:0:
0,263,108406,5,8,2:0:0:0:
0,304,108548,5,8,2:3:0:0:
0,331,108690,5,8,2:3:0:0:
0,341,108832,5,4,2:3:0:0:
0,346,108974,5,4,2:3:0:0:
75,346,109116,6,0,L|238:346,1,150.000005722046,4|2,0:3|2:0,0:0:0:0:
298,346,109860,5,0,0:0:0:0:
298,346,109967,2,0,L|379:346,1,75.0000028610231,10|0,3:2|2:0,0:0:0:0:
75,273,110392,2,0,L|156:273,1,75.0000028610231,4|4,0:3|0:3,0:0:0:0:
223,273,110818,5,4,0:3:0:0:
296,273,111031,1,4,0:3:0:0:
369,273,111243,1,0,2:0:0:0:
442,273,111456,1,4,0:3:0:0:
296,201,111669,1,4,0:3:0:0:
369,201,111988,5,0,0:0:0:0:
369,201,112094,1,4,0:3:0:0:
446,205,112307,1,8,2:0:0:0:
446,205,112414,1,8,2:0:0:0:
446,205,112520,6,0,L|467:103,1,100,4|0,0:3|2:0,0:0:0:0:
217,201,112945,2,0,L|238:99,1,100,4|4,0:3|0:3,0:0:0:0:
384,127,113371,5,10,3:2:0:0:
399,53,113584,1,2,2:0:0:0:
252,29,113797,1,2,2:0:0:0:
172,59,114009,1,4,0:3:0:0:
106,7,114222,6,0,B|48:-5|48:-5|-8:18,1,119.999996337891,0|8,1:0|2:0,0:0:0:0:
91,80,114541,1,8,2:0:0:0:
70,77,114648,2,0,B|30:121|30:121|22:181,1,119.999996337891,0|8,1:0|2:0,0:0:0:0:
70,258,114967,1,8,2:0:0:0:
77,232,115073,6,0,L|143:245,1,59.9999981689454,0|0,1:0|0:0,0:0:0:0:
208,302,115286,2,0,L|274:315,1,59.9999981689454,0|0,1:0|0:0,0:0:0:0:
369,373,115499,6,0,L|402:366,1,29.9999990844727,0|0,1:0|0:0,0:0:0:0:
411,370,115711,1,0,0:0:0:0:
323,235,115924,6,0,P|352:301|487:327,1,209.999993591309,2|0,0:1|0:0,0:0:0:0:
498,322,116350,1,10,3:2:0:0:
473,163,116669,1,0,0:0:0:0:
473,163,116775,2,0,B|464:205|464:205|471:217|471:217|462:264,1,100,4|2,0:3|2:0,0:0:0:0:
463,259,117094,1,0,2:0:0:0:
463,259,117201,2,0,B|473:202,1,50,4|0,0:3|0:0,0:0:0:0:
500,46,117414,6,0,P|471:112|336:138,1,209.999993591309,10|0,2:1|0:0,0:0:0:0:
327,130,117839,2,0,P|297:132|259:153,1,59.9999981689454,2|0,2:0|0:0,0:0:0:0:
216,192,118052,5,4,0:3:0:0:
254,124,118265,1,2,2:0:0:0:
292,56,118477,1,4,0:3:0:0:
378,30,118690,1,0,2:0:0:0:
464,6,118903,1,4,0:3:0:0:
269,42,119116,2,8,L|201:50,1,50,8|8,2:0|2:0,0:0:0:0:
109,64,119328,6,0,L|36:148,1,69.9999978637696,2|0,0:1|0:0,0:0:0:0:
154,165,119541,6,0,L|105:265,1,59.9999981689454,0|0,2:0|0:0,0:0:0:0:
217,238,119754,6,0,L|202:314,1,50,10|0,3:1|0:0,0:0:0:0:
290,279,119967,6,0,L|295:356,1,40,0|0,2:0|0:0,0:0:0:0:
256,384,120180,5,4,0:3:0:0:
256,384,120286,1,0,0:0:0:0:
256,384,120392,1,2,2:0:0:0:
256,384,120499,1,0,2:0:0:0:
256,384,120605,1,4,0:3:0:0:
84,304,120818,2,8,L|154:296,1,50,10|8,2:0|2:0,0:0:0:0:
283,200,121031,6,8,B|391:187|391:187|428:203,1,139.999995727539,2|2,0:1|2:0,0:0:0:0:
468,139,121350,1,0,0:0:0:0:
468,139,121456,2,0,L|482:69,1,50,4|0,0:3|0:0,0:0:0:0:
491,209,121669,2,0,L|482:259,1,50,2|0,2:0|0:0,0:0:0:0:
435,317,121882,5,4,0:3:0:0:
424,320,121988,1,0,0:0:0:0:
413,323,122094,1,8,2:0:0:0:
402,326,122201,1,8,2:0:0:0:
363,303,122307,5,8,0:0:0:0:
341,309,122413,1,8,2:0:0:0:
319,315,122519,1,8,2:0:0:0:
297,321,122626,1,8,2:0:0:0:
232,282,122733,5,4,0:3:0:0:
159,302,123052,1,4,0:3:0:0:
161,313,123158,2,2,P|122:332|74:322,1,80,2|6,2:0|0:3,0:0:0:0:
19,292,123584,2,0,L|6:370,2,59.9999981689454,8|0|0,2:0|3:2|2:0,0:0:0:0:
83,252,124222,6,0,P|114:180|99:103,1,160,4|4,0:3|0:3,0:0:0:0:
47,48,124860,2,0,P|24:81|34:136,1,80,4|0,0:3|2:0,0:0:0:0:
181,231,125286,2,0,P|240:234|293:208,1,119.999996337891,8|2,2:0|2:0,0:0:0:0:
306,195,126137,5,4,0:3:0:0:
284,125,126350,1,0,2:0:0:0:
336,70,126562,1,4,0:3:0:0:
314,0,126775,1,0,2:0:0:0:
154,91,126988,5,4,0:3:0:0:
266,56,127201,1,0,2:0:0:0:
353,138,127413,1,4,0:3:0:0:
381,129,127626,1,0,2:0:0:0:
281,378,127839,6,0,L|231:384,1,50,4|0,0:3|0:0,0:0:0:0:
226,297,128052,6,0,L|285:304,1,59.9999981689454,4|0,0:3|0:0,0:0:0:0:
291,208,128265,6,0,L|207:219,1,69.9999978637696,4|0,0:3|0:0,0:0:0:0:
216,109,128477,6,0,L|295:119,1,80,4|0,0:3|0:0,0:0:0:0:
301,12,128690,6,0,L|197:25,1,89.9999972534181,4|0,0:3|0:0,0:0:0:0:
85,45,128903,5,2,0:3:0:0:
48,88,129009,1,2,0:3:0:0:
44,145,129116,1,2,0:3:0:0:
63,198,129222,1,2,0:3:0:0:
100,223,129328,1,2,0:3:0:0:
135,231,129435,1,2,0:3:0:0:
197,187,129541,6,0,P|281:176|357:228,1,170.000003242493,4|0,0:3|2:0,0:0:0:0:
387,291,129860,1,0,2:0:0:0:
387,291,129967,2,0,P|374:333|313:270,1,170.000003242493,0|0,1:0|2:0,0:0:0:0:
456,246,130286,1,0,2:0:0:0:
456,246,130392,2,0,P|477:206|479:154,1,85.0000016212464,4|0,0:3|0:0,0:0:0:0:
387,11,130605,2,0,P|366:51|364:103,1,85.0000016212464,0|0,2:0|2:0,0:0:0:0:
432,113,130818,2,0,L|349:127,1,85.0000016212464,0|0,1:0|2:0,0:0:0:0:
286,54,131031,2,0,L|203:68,1,85.0000016212464,2|0,2:0|0:0,0:0:0:0:
120,43,131243,5,4,0:3:0:0:
93,244,131456,1,0,0:0:0:0:
48,90,131669,1,0,1:0:0:0:
155,200,131882,1,0,0:0:0:0:
101,145,132094,2,2,P|63:212|30:363,1,209.999993591309,4|0,0:3|2:0,0:1:0:0:
31,340,132520,1,0,1:0:0:0:
191,322,132733,2,0,P|198:285|217:238,1,69.9999978637696
336,67,132945,6,0,P|364:108|370:167,1,100,4|0,0:3|2:0,0:0:0:0:
284,309,133158,2,0,P|296:260|323:218,1,100,2|0,2:0|2:0,0:0:0:0:
494,207,133371,2,0,P|448:228|389:225,1,100,0|0,1:0|2:0,0:0:0:0:
452,348,133584,2,0,P|405:329|360:289,1,100,2|0,2:0|2:0,0:0:0:0:
200,168,133797,2,0,P|246:147|305:150,1,100,4|0,0:3|2:0,0:0:0:0:
242,27,134010,2,0,P|289:46|334:86,1,100,2|0,2:0|2:0,0:0:0:0:
354,284,134222,2,0,P|281:335|153:319,1,200,0|2,1:0|2:0,0:0:0:0:
58,214,134541,1,0,2:0:0:0:
131,234,134648,6,0,L|81:373,1,139.999995727539,4|0,0:3|2:0,0:0:0:0:
196,72,135073,2,0,B|229:132|229:132|197:201,1,139.999995727539,0|0,1:0|2:0,0:0:0:0:
102,49,135499,2,0,B|195:97|195:97|302:76,1,209.999993591309,4|0,0:3|2:0,0:0:0:0:
409,54,135924,1,0,1:0:0:0:
435,25,136031,1,8,2:3:0:0:
437,3,136137,2,0,L|498:15,1,50,8|8,2:3|2:3,0:0:0:0:
345,19,136350,5,4,0:3:0:0:
384,181,136562,2,0,L|365:264,1,69.9999978637696,2|0,2:0|0:0,0:0:0:0:
333,317,136775,1,0,1:0:0:0:
483,316,136988,5,2,2:0:0:0:
483,316,137094,1,2,0:0:0:0:
483,316,137201,1,4,0:3:0:0:
360,184,137414,2,0,L|393:246,1,69.9999978637696,2|0,2:0|0:0,0:0:0:0:
442,381,137626,1,0,1:0:0:0:
468,301,137839,5,2,2:0:0:0:
348,332,138052,2,0,L|221:354,1,119.999996337891,4|0,0:3|2:0,0:0:0:0:
161,325,138477,1,0,1:0:0:0:
45,196,138690,1,2,2:0:0:0:
40,272,138903,2,0,L|192:239,1,119.999996337891,4|2,0:3|2:0,0:0:0:0:
227,63,139328,2,0,B|198:149|198:149|234:234,1,179.999994506836,0|0,1:0|2:0,0:0:0:0:
243,251,139754,2,0,P|273:259|311:258,1,59.9999981689454,4|0,0:3|2:0,0:0:0:0:
398,109,139967,6,0,P|325:181|254:175,1,139.999995727539,2|0,2:1|1:0,0:0:0:0:
295,110,140286,1,0,2:0:0:0:
295,110,140392,2,0,L|317:43,1,69.9999978637696,8|0,2:0|2:0,0:0:0:0:
128,152,140605,2,0,L|132:82,1,69.9999978637696,4|0,0:3|2:0,0:0:0:0:
23,17,140818,2,0,L|41:89,1,69.9999978637696,10|2,2:0|2:0,0:0:0:0:
55,159,141031,2,0,L|19:340,1,139.999995727539,0|2,1:0|2:0,0:0:0:0:
179,19,141456,6,0,P|251:7|316:43,1,150.000005722046,4|0,0:3|2:0,0:0:0:0:
383,98,141775,1,0,0:0:0:0:
383,98,141882,2,0,P|467:65|504:-4,1,150.000005722046,10|0,3:1|3:0,0:0:0:0:
246,89,142307,2,0,P|202:191|189:330,1,225.000008583069,4|0,0:3|0:0,0:0:0:0:
197,320,142733,2,1,P|222:289|224:244,1,75.0000028610231,2|8,3:1|2:3,0:0:0:0:
160,211,142945,2,0,P|120:204|80:225,1,75.0000028610231,8|4,2:3|0:3,0:0:0:0:
262,372,143158,6,0,P|371:371|493:189,2,340.000006484985,4|0|4,0:3|1:0|0:3,0:0:0:0:
415,222,144222,2,0,P|457:217|493:195,1,85.0000016212464,2|0,2:0|2:0,0:0:0:0:
212,245,144435,2,0,P|237:278|274:298,1,85.0000016212464,0|0,1:0|0:0,0:0:0:0:
339,160,144648,2,0,P|340:202|323:240,1,85.0000016212464,2|0,2:0|2:0,0:0:0:0:
418,142,144860,6,2,P|383:70|282:67,1,170.000003242493,4|0,0:3|0:0,0:1:0:0:
236,101,145179,1,0,0:0:0:0:
236,101,145286,2,2,P|181:133|106:139,1,139.999995727539,0|0,1:0|0:0,0:1:0:0:
7,334,145711,2,2,P|67:202|56:52,1,279.999991455078,4|0,0:3|1:0,0:1:0:0:
27,196,146350,2,0,P|57:211|112:218,1,69.9999978637696,2|2,2:0|2:0,0:0:0:0:
203,286,146562,6,0,P|120:308|130:392,2,170.000003242493,4|2|0,0:3|2:0|1:0,0:0:0:0:
412,310,147201,1,2,2:0:0:0:
412,310,147307,1,2,2:0:0:0:
412,310,147414,2,0,P|326:354|245:347,1,170.000003242493,4|0,0:3|2:0,0:0:0:0:
338,351,147733,1,0,0:0:0:0:
338,351,147840,2,0,P|424:307|505:314,1,170.000003242493,0|2,1:0|2:0,0:0:0:0:
239,197,148265,6,0,P|209:236|203:286,1,100,4|0,0:3|2:0,0:0:0:0:
178,149,148477,2,0,P|183:99|164:54,1,100,2|0,2:0|2:0,0:0:0:0:
242,25,148690,2,0,P|291:31|330:61,1,100,0|0,1:0|2:0,0:0:0:0:
373,126,148903,2,0,P|334:156|315:202,1,100,2|0,2:0|2:0,0:0:0:0:
494,219,149116,2,2,P|481:68|330:61,1,330.000010070801,4|0,0:3|2:0,0:1:0:0:
340,272,149541,5,0,1:0:0:0:
401,317,149648,1,0,3:0:0:0:
473,317,149754,1,2,3:0:0:0:
404,346,149860,1,8,2:0:0:0:
335,375,149967,6,0,L|193:356,1,139.999995727539,4|2,0:3|2:0,0:0:0:0:
197,281,150286,1,4,0:3:0:0:
197,281,150392,2,0,L|55:262,1,139.999995727539,0|4,1:0|0:3,0:0:0:0:
161,200,150818,2,0,B|199:193|211:156|211:156|213:195|246:211,1,139.999995727539,2|4,2:0|0:3,0:0:0:0:
130,127,151243,2,0,B|150:107|150:107|163:19|163:19|190:62,1,139.999995727539,0|2,1:0|2:0,0:0:0:0:
416,221,151669,6,0,B|377:227|365:264|365:264|363:225|330:209,1,139.999995727539,4|8,0:3|0:3,0:0:0:0:
382,152,151988,1,8,0:3:0:0:
382,152,152094,2,0,P|414:92|419:9,1,139.999995727539,0|4,1:0|0:3,0:0:0:0:
416,221,152520,2,0,P|422:290|454:351,1,139.999995727539,2|4,0:0|0:3,0:0:0:0:
466,159,152945,1,0,1:0:0:0:
492,88,153158,1,2,1:2:0:0:
217,69,153371,6,2,P|304:-6|341:72,1,209.999993591309,4|4,0:3|0:3,0:1:0:0:
217,69,153797,1,0,1:0:0:0:
264,231,154009,2,0,P|287:113|166:122,1,279.999991455078,4|4,0:3|0:3,0:0:0:0:
293,357,154648,2,0,P|318:299|397:283,1,139.999995727539,0|0,1:0|2:0,0:0:0:0:
220,353,155073,5,4,0:3:0:0:
373,368,155286,1,4,0:3:0:0:
373,368,155392,1,0,0:0:0:0:
373,368,155499,1,0,1:0:0:0:
446,372,155711,5,8,3:2:0:0:
384,153,155924,5,4,0:3:0:0:
249,47,156137,5,4,0:3:0:0:
144,6,156350,5,8,2:0:0:0:
129,62,156456,1,8,2:0:0:0:
100,105,156562,1,8,2:3:0:0:
74,127,156669,1,8,2:0:0:0:
74,127,156775,6,0,B|121:100|120:43|120:43|141:96|198:101,1,200,4|0,0:3|0:0,0:0:0:0:
152,185,157094,5,2,2:0:0:0:
149,205,157414,5,2,2:0:0:0:
147,227,157733,5,2,2:0:0:0:
146,249,158052,5,2,2:0:0:0:
273,363,158265,6,0,B|226:336|227:279|227:279|206:332|149:337,1,200,4|2,0:3|2:0,0:0:0:0:
86,262,158690,6,0,B|109:248|109:220|109:220|119:246|148:249,1,100,4|0,0:3|0:0,0:0:0:0:
250,320,158903,2,0,B|273:333|273:362|273:362|283:335|312:333,1,100,4|0,0:3|0:0,0:0:0:0:
403,358,159116,5,2,2:0:0:0:
399,330,159435,5,2,2:0:0:0:
395,301,159754,5,2,2:0:0:0:
488,335,159967,1,2,2:0:0:0:
512,167,160179,6,0,B|465:194|466:251|466:251|445:198|388:193,1,200,4|0,0:3|0:0,0:0:0:0:
303,191,160499,5,2,2:0:0:0:
306,213,160819,5,2,2:0:0:0:
309,236,161137,5,2,2:0:0:0:
312,259,161456,5,2,2:0:0:0:
311,61,161669,6,0,B|363:56|384:3|384:3|383:60|430:87,1,200,4|2,0:3|2:0,0:0:0:0:
245,119,162094,6,0,B|221:105|222:77|222:77|211:103|183:106,1,100,4|2,0:3|2:0,0:0:0:0:
81,177,162307,2,0,B|57:190|58:219|58:219|47:192|19:190,1,100,4|0,0:3|2:0,0:0:0:0:
36,104,162520,5,2,2:0:0:0:
180,203,162733,2,2,P|163:242|158:300,1,75.0000028610231,0|8,2:0|2:0,0:1:0:0:
157,273,163052,1,8,2:0:0:0:
218,344,163158,5,10,2:3:0:0:
294,333,163265,1,8,2:3:0:0:
327,295,163371,1,6,2:3:0:0:
339,265,163477,1,4,2:3:0:0:
338,244,163584,6,0,P|332:185|304:83,1,150.000005722046,4|2,0:3|2:0,0:0:0:0:
163,24,163903,1,0,2:0:0:0:
152,22,164009,2,0,P|131:71|143:105,1,75.0000028610231,4|0,0:3|2:0,0:0:0:0:
161,179,164222,2,0,P|209:156|223:123,1,75.0000028610231,2|0,2:0|0:0,0:0:0:0:
235,55,164435,1,4,0:3:0:0:
70,164,164648,1,4,2:3:0:0:
67,185,164754,1,4,2:3:0:0:
7,248,164860,5,8,3:3:0:0:
81,238,164967,1,8,2:3:0:0:
148,270,165073,1,4,2:3:0:0:
176,338,165179,1,4,2:3:0:0:
177,353,165286,6,0,P|182:294|211:192,1,150.000005722046,4|2,0:3|2:0,0:0:0:0:
364,200,165605,1,0,2:0:0:0:
359,216,165711,2,0,P|316:235|266:233,1,75.0000028610231,4|0,0:3|2:0,0:0:0:0:
259,135,165924,2,0,P|302:116|352:118,1,75.0000028610231,2|0,2:0|2:0,0:0:0:0:
495,339,166137,6,0,L|480:236,1,75.0000028610231,4|0,0:3|0:0,0:0:0:0:
423,139,166350,2,0,L|438:36,1,75.0000028610231,4|4,2:3|2:3,0:0:0:0:
274,16,166562,6,0,L|284:90,1,75.0000028610231,10|8,3:3|2:3,0:0:0:0:
203,207,166775,2,0,L|192:281,1,75.0000028610231,6|4,2:3|2:3,0:0:0:0:
6,376,166988,6,0,P|95:379|151:349,1,150.000005722046,4|2,0:3|2:0,0:0:0:0:
89,192,167307,1,0,0:0:0:0:
75,186,167414,2,0,P|34:187|-12:211,1,75.0000028610231,4|0,0:3|0:0,0:0:0:0:
166,258,167626,2,0,P|184:222|187:169,1,75.0000028610231,2|0,2:0|0:0,0:0:0:0:
64,287,167839,1,4,0:3:0:0:
283,345,168052,1,4,2:3:0:0:
287,323,168159,1,4,2:3:0:0:
262,252,168265,5,8,3:3:0:0:
334,264,168371,1,8,2:3:0:0:
396,224,168477,1,4,2:3:0:0:
426,155,168584,1,4,2:3:0:0:
428,140,168690,2,0,P|318:115|281:94,1,150.000005722046,4|2,0:3|2:0,0:0:0:0:
168,0,169009,1,0,0:0:0:0:
180,8,169116,2,0,P|196:46|198:107,1,75.0000028610231,4|0,0:3|0:0,0:0:0:0:
193,230,169328,2,0,P|204:194|225:163,1,75.0000028610231,2|0,2:0|0:0,0:0:0:0:
482,223,169541,6,0,L|407:231,1,75.0000028610231,4|0,0:3|0:0,0:0:0:0:
325,324,169754,1,6,2:3:0:0:
251,315,169860,1,4,2:3:0:0:
202,253,169967,1,10,3:3:0:0:
167,256,170073,1,8,2:3:0:0:
108,313,170179,1,6,2:3:0:0:
87,309,170285,1,4,2:3:0:0:
19,263,170392,6,2,L|12:220,1,33.3333333333333,4|0,0:3|2:0,0:1:0:0:
91,233,170534,2,2,L|84:190,1,33.3333333333333,0|0,2:0|2:0,0:1:0:0:
163,203,170676,2,2,L|156:160,1,33.3333333333333,0|0,2:0|2:0,0:1:0:0:
22,151,170818,6,0,L|15:108,1,33.3333333333333,10|0,0:1|2:0,0:0:0:0:
94,121,170960,2,0,L|87:78,1,33.3333333333333,2|0,2:1|2:0,0:0:0:0:
166,91,171102,2,0,L|159:48,1,33.3333333333333,2|0,2:1|2:0,0:0:0:0:
248,233,171243,6,0,B|345:248|293:282|389:298,1,150,10|0,0:1|0:0,0:0:0:0:
380,296,171562,1,4,0:3:0:0:
471,279,171669,1,4,0:3:0:0:
438,50,171882,1,0,3:0:0:0:
438,50,171988,1,0,3:0:0:0:
438,50,172094,6,0,L|433:85,1,33.3333333333333,4|0,0:3|0:0,0:0:0:0:
359,51,172236,2,0,L|355:84,1,33.3333333333333,0|0,2:0|0:0,0:0:0:0:
280,52,172378,2,0,L|276:85,1,33.3333333333333,0|0,2:0|0:0,0:0:0:0:
237,159,172520,6,0,L|242:192,1,33.3333333333333,10|0,0:1|0:0,0:0:0:0:
317,161,172662,2,0,L|321:194,1,33.3333333333333,2|0,2:1|0:0,0:0:0:0:
396,162,172804,2,0,L|400:195,1,33.3333333333333,2|0,2:1|0:0,0:0:0:0:
320,298,172945,6,0,P|246:298|230:374,1,150,10|0,0:1|2:0,0:0:0:0:
224,360,173265,1,0,0:0:0:0:
337,383,173371,2,0,P|392:369|404:331,2,100.000003814697,4|0|0,0:3|2:0|2:0,0:0:0:0:
135,209,173797,6,2,L|99:213,1,33.3333333333333,4|0,0:3|2:0,0:1:0:0:
36,277,173938,2,2,L|71:284,1,33.3333333333333,2|4,0:1|0:3,0:1:0:0:
128,353,174080,2,2,L|92:357,1,33.3333333333333,2|0,0:1|0:0,0:1:0:0:
176,286,174222,6,0,L|209:293,1,33.3333333333333,10|0,3:1|2:0,0:0:0:0:
255,199,174364,2,2,L|219:203,1,33.3333333333333,2|4,0:1|0:3,0:1:0:0:
167,116,174506,2,2,L|199:122,1,33.3333333333333,2|0,2:1|0:0,0:1:0:0:
393,159,174648,6,0,P|301:116|296:53,1,150.000005722046,10|4,0:1|0:3,0:0:0:0:
473,107,174967,1,0,0:0:0:0:
494,130,175073,2,0,L|477:227,1,75.0000028610231,4|0,0:3|0:0,0:0:0:0:
387,68,175286,2,0,P|410:34|446:20,1,75.0000028610231,4|0,0:3|0:0,0:0:0:0:
398,253,175499,5,4,1:0:0:0:
400,269,175570,1,0,2:0:0:0:
401,285,175640,2,0,L|408:327,1,33.3333333333333,2|4,0:1|0:3,0:0:0:0:
317,353,175782,2,0,L|322:320,1,33.3333333333333,2|0,2:1|0:0,0:0:0:0:
310,210,175924,6,2,L|315:242,1,33.3333333333333,10|0,3:1|2:0,0:1:0:0:
229,282,176066,2,0,L|234:249,1,33.3333333333333,2|4,0:1|0:3,0:0:0:0:
148,210,176208,2,0,L|153:242,1,33.3333333333333,2|0,2:1|0:0,0:0:0:0:
36,151,176350,6,0,B|140:149|82:113|188:107,1,150.000005722046,10|0,0:1|3:0,0:0:0:0:
198,25,176669,1,0,3:0:0:0:
271,69,176775,5,8,2:3:0:0:
268,144,176882,1,8,2:3:0:0:
263,218,176988,1,4,2:3:0:0:
258,292,177094,1,4,2:3:0:0:
255,367,177201,1,4,0:0:0:0:
430,352,184009,5,0,2:0:0:0:
430,352,184435,2,0,B|426:301|353:290|344:317|344:317|368:307|372:289,1,150.000005722046,2|2,2:3|2:3,0:0:0:0:
259,287,184860,2,0,B|246:323|246:323|272:367,1,75.0000028610231,0|0,2:0|0:0,0:0:0:0:
256,368,185286,2,0,B|231:326|231:326|248:278,1,100.000003814697,0|0,2:0|0:0,0:0:0:0:
248,193,185711,2,0,L|307:206,2,37.5000014305115,2|2|2,2:3|2:3|2:3,0:0:0:0:
167,265,186137,2,0,B|136:265|127:239|127:239|148:261|182:255,2,100.000003814697,2|2|2,2:3|2:3|2:3,0:0:0:0:
117,161,186562,2,0,B|146:134|146:134|135:68,1,100.000003814697,0|0,2:0|0:0,0:0:0:0:
74,13,186988,2,0,B|45:40|45:40|55:105,1,100.000003814697
243,96,187414,6,0,B|258:119|303:124|313:96|272:104,1,75.0000028610231,2|0,2:3|0:0,0:0:0:0:
243,10,187626,2,0,B|272:16|262:-11|217:-6|202:16,1,75.0000028610231,2|0,2:3|0:0,0:0:0:0:
349,32,187839,1,2,2:3:0:0:
349,32,187945,1,0,2:0:0:0:
349,32,188052,1,0,2:0:0:0:
438,14,188265,6,0,B|462:47|462:47|445:115,1,100.000003814697,0|0,2:0|2:0,0:0:0:0:
494,187,188690,2,0,L|394:199,1,75.0000028610231,0|0,2:0|0:0,0:0:0:0:
382,279,189116,2,0,L|440:290,3,37.5000014305115,2|0|0|0,2:3|0:0|0:0|0:0,0:0:0:0:
207,315,189541,2,0,L|211:353,1,37.5000014305115,0|0,2:0|0:0,0:0:0:0:
300,352,189754,2,0,L|304:315,1,37.5000014305115,0|0,2:0|0:0,0:0:0:0:
212,206,189967,5,2,2:3:0:0:
212,212,190073,1,2,2:3:0:0:
213,218,190179,1,2,2:3:0:0:
214,224,190286,1,2,2:3:0:0:
297,224,190392,5,2,2:3:0:0:
298,218,190499,1,2,2:3:0:0:
299,212,190605,1,2,2:3:0:0:
299,206,190711,1,2,2:3:0:0:
255,126,190818,6,0,P|179:86|64:160,1,225.000008583069,4|0,0:3|2:0,0:0:0:0:
137,277,191243,2,0,P|147:241|138:205,1,75.0000028610231,0|0,1:0|0:0,0:0:0:0:
19,223,191456,2,0,P|23:259|45:289,1,75.0000028610231,0|0,2:0|2:0,0:0:0:0:
107,363,191669,1,4,0:3:0:0:
107,363,191775,1,0,0:0:0:0:
107,363,191882,1,0,2:0:0:0:
68,151,192094,2,0,L|44:0,1,150.000005722046,0|0,1:0|2:0,0:0:0:0:
309,23,192520,6,0,L|161:51,1,150.000005722046,4|0,0:3|2:0,0:0:0:0:
214,212,192839,1,0,2:0:0:0:
241,230,192945,2,0,P|282:229|321:208,1,75.0000028610231,0|0,1:0|0:0,0:0:0:0:
255,133,193158,1,0,2:0:0:0:
494,37,193371,1,4,0:3:0:0:
489,57,193477,1,0,2:0:0:0:
373,100,193690,1,0,2:0:0:0:
378,120,193796,1,0,1:0:0:0:
423,146,193903,1,0,2:0:0:0:
445,193,194009,1,0,2:0:0:0:
437,245,194116,1,0,2:0:0:0:
375,301,194222,6,0,B|238:283|311:229|157:213,1,225.000008583069,4|0,0:3|2:0,0:0:0:0:
34,333,194648,2,0,B|67:352|67:352|122:336,1,75.0000028610231,0|0,1:0|0:0,0:0:0:0:
77,258,194860,1,0,2:0:0:0:
115,78,195073,1,4,0:3:0:0:
110,40,195179,1,0,2:0:0:0:
104,2,195286,1,2,2:0:0:0:
194,123,195499,2,0,L|276:117,1,75.0000028610231,0|0,1:0|0:0,0:0:0:0:
73,162,195711,2,0,L|-5:147,1,75.0000028610231,0|0,2:0|2:0,0:0:0:0:
240,25,195924,5,4,0:3:0:0:
132,249,196137,1,0,0:0:0:0:
319,219,196350,2,0,B|409:227|371:259|461:274,1,150.000005722046,0|0,1:0|0:0,0:0:0:0:
512,102,196669,1,0,0:0:0:0:
493,121,196775,2,0,P|495:169|511:211,1,75.0000028610231,4|0,0:3|2:0,0:0:0:0:
448,356,196988,2,0,P|460:320|464:283,1,75.0000028610231,0|0,2:0|2:0,0:0:0:0:
371,117,197201,1,0,1:0:0:0:
344,94,197307,1,0,2:0:0:0:
288,90,197414,1,0,2:0:0:0:
224,128,197520,1,0,2:0:0:0:
203,206,197626,6,0,B|137:245|137:245|50:222,1,150.000005722046,4|0,0:3|0:0,0:0:0:0:
43,132,197945,1,0,2:0:0:0:
111,79,198052,2,0,B|132:114|132:114|126:156,1,75.0000028610231,2|0,1:0|0:0,0:0:0:0:
60,236,198265,2,0,B|55:269|55:269|76:304,1,75.0000028610231,0|0,2:0|2:0,0:0:0:0:
196,365,198477,2,0,L|376:341,1,150.000005722046,6|0,0:3|2:0,0:0:0:0:
424,298,198797,1,0,2:0:0:0:
488,365,198903,2,0,B|520:329|520:329|489:203,1,150.000005722046,2|0,1:0|2:0,0:0:0:0:
480,95,199222,1,0,2:0:0:0:
442,171,199328,6,0,L|265:135,1,160,4|2,0:3|2:0,0:0:0:0:
218,52,199648,1,0,2:0:0:0:
326,29,199754,2,0,B|384:83|384:83|350:256,1,240,2|0,1:0|2:0,0:0:0:0:
182,278,200179,2,0,B|145:243|145:243|258:270,1,160,4|2,0:3|2:0,0:0:0:0:
348,316,200499,1,0,2:0:0:0:
260,373,200605,2,0,L|83:385,1,160,2|2,1:0|2:0,0:0:0:0:
8,262,200924,1,0,2:0:0:0:
101,294,201031,6,0,B|151:249|151:249|122:139,1,170.000003242493,4|2,0:3|2:0,0:0:0:0:
17,21,201350,1,0,2:0:0:0:
117,60,201456,2,0,L|286:70,1,170.000003242493,2|2,1:0|2:0,0:0:0:0:
431,16,201775,1,0,2:0:0:0:
371,120,201882,2,0,B|322:163|322:163|340:280,1,170.000003242493,4|2,0:3|2:0,0:0:0:0:
434,333,202201,1,0,2:0:0:0:
337,266,202307,1,2,1:0:0:0:
293,339,202414,1,0,2:0:0:0:
211,361,202520,1,2,2:0:0:0:
130,333,202626,1,0,2:0:0:0:
78,258,202733,6,0,L|100:72,1,179.999994506836,4|2,0:3|2:0,0:0:0:0:
434,126,203158,2,0,L|412:312,1,179.999994506836,2|2,1:0|2:0,0:0:0:0:
195,288,203584,2,0,L|211:383,1,89.9999972534181,2|0,0:1|2:0,0:0:0:0:
302,273,203797,2,0,L|318:368,1,89.9999972534181,2|0,2:1|2:0,0:0:0:0:
277,7,204009,2,0,L|255:185,1,179.999994506836,2|0,1:0|2:0,0:0:0:0:
100,296,204435,6,0,B|155:307|155:307|220:275,1,100,4|0,0:3|2:0,0:0:0:0:
360,348,204648,2,0,B|371:293|371:293|339:228,1,100,4|0,0:3|2:0,0:0:0:0:
412,88,204860,2,0,B|357:77|357:77|292:109,1,100,4|0,0:3|2:0,0:0:0:0:
152,36,205073,2,0,B|141:91|141:91|173:156,1,100,4|0,0:3|2:0,0:0:0:0:
255,192,205286,5,4,0:3:0:0:
21,102,206137,5,4,0:3:0:0:
100,54,206562,1,4,0:3:0:0:
189,75,206988,1,4,0:3:0:0:
237,152,207414,1,4,0:3:0:0:
200,329,207839,5,4,0:3:0:0:
106,347,208265,1,4,0:3:0:0:
88,253,208690,1,4,0:3:0:0:
182,235,209116,1,4,0:3:0:0:
272,270,209541,5,4,0:3:0:0:
351,318,209966,1,4,0:3:0:0:
440,297,210392,1,4,0:3:0:0:
488,220,210818,1,4,0:3:0:0:
430,58,211243,5,4,0:3:0:0:
336,40,211669,1,4,0:3:0:0:
318,134,212094,1,4,0:3:0:0:
412,152,212520,1,4,0:3:0:0:
250,69,212945,6,0,P|134:51|68:133,1,225.000008583069,4|0,0:3|0:0,0:0:0:0:
23,208,213797,2,0,P|43:246|46:286,1,75.0000028610231,2|0,2:0|0:0,0:0:0:0:
16,363,214222,1,0,0:0:0:0:
180,252,214648,6,0,L|411:272,1,225.000008583069,2|0,2:0|0:0,0:0:0:0:
481,315,215499,2,0,P|447:351|398:354,1,75.0000028610231,0|0,2:0|0:0,0:0:0:0:
324,307,215924,1,0,2:0:0:0:
324,307,216137,1,0,2:0:0:0:
369,151,216350,6,0,B|454:155|423:196|503:203,1,148.000003613281,4|0,0:3|0:0,0:0:0:0:
426,309,217910,1,8,2:3:0:0:
426,309,217981,1,8,2:3:0:0:
426,309,218052,6,0,L|491:298,2,66.6666666666667,6|4|4,2:3|2:3|2:3,0:0:0:0:
343,206,218477,5,6,2:3:0:0:
329,289,218619,5,4,2:3:0:0:
319,371,218760,5,4,2:3:0:0:
247,325,218903,6,0,P|199:301|140:315,1,100.000003814697,12|0,2:2|0:0,0:0:0:0:
43,327,219187,1,8,2:3:0:0:
43,327,219258,1,8,2:3:0:0:
43,327,219328,2,0,L|53:392,1,50,6|0,2:3|0:0,0:0:0:0:
67,236,219541,2,0,L|54:163,1,50,2|0,2:0|2:0,0:0:0:0:
408,108,219754,6,0,B|312:114|363:148|271:162,1,150.000005722046,4|4,0:3|0:3,0:0:0:0:
205,29,220073,1,0,2:0:0:0:
162,116,220179,2,0,P|178:170|193:275,1,150.000005722046,0|0,1:0|2:0,0:0:0:0:
227,362,220499,1,0,2:0:0:0:
204,372,220605,1,2,2:2:0:0:
179,345,220711,1,0,2:0:0:0:
144,352,220818,1,4,0:3:0:0:
292,217,221031,2,0,P|294:255|305:291,1,75.0000028610231,0|0,1:0|0:0,0:0:0:0:
403,274,221243,2,0,P|401:236|391:201,1,75.0000028610231,2|0,2:0|2:0,0:0:0:0:
210,65,221456,6,2,L|186:248,1,150.000005722046,4|4,0:3|0:3,1:0:0:0:
42,356,221882,2,2,P|94:307|183:310,1,150.000005722046,0|2,1:0|2:0,1:0:0:0:
272,283,222201,1,0,0:0:0:0:
261,316,222307,1,2,2:2:0:0:
287,334,222414,1,0,0:0:0:0:
284,367,222520,1,0,0:0:0:0:
100,203,222733,2,0,P|51:202|11:182,1,75.0000028610231,0|0,1:0|0:0,0:0:0:0:
42,95,222945,2,0,P|91:96|131:116,1,75.0000028610231,2|0,2:0|2:0,0:0:0:0:
359,328,223158,6,0,B|325:291|325:291|326:241,1,100,4|0,0:3|0:0,0:0:0:0:
484,178,223371,2,0,B|469:225|469:225|425:249,1,100,4|0,0:3|2:0,0:0:0:0:
333,67,223584,2,0,L|463:85,1,100,0|0,1:0|0:0,0:0:0:0:
233,226,223797,1,2,2:0:0:0:
233,226,223903,1,0,2:0:0:0:
233,226,224009,2,0,L|103:244,1,100,2|0,2:2|0:0,0:0:0:0:
48,203,224222,1,4,0:3:0:0:
335,163,224435,2,0,L|313:423,1,200,0|2,1:0|2:0,0:0:0:0:
100,64,224860,6,2,B|92:113|92:113|121:154,1,100,4|0,0:3|2:0,1:0:0:0:
260,32,225073,2,2,B|221:0|221:0|171:5,1,100,4|4,0:3|0:3,1:0:0:0:
38,249,225286,2,2,L|298:226,1,200,0|4,1:0|0:3,1:0:0:0:
313,159,225605,1,0,2:0:0:0:
355,223,225711,1,2,2:1:0:0:
334,257,225818,1,0,0:0:0:0:
347,285,225924,2,0,L|329:393,1,100,4|0,0:3|2:0,0:0:0:0:
494,138,226137,2,0,B|466:161|466:161|395:143,1,100,0|0,1:0|0:0,0:0:0:0:
346,49,226350,2,0,B|374:26|374:26|445:44,1,100,2|8,2:0|2:0,0:0:0:0:
228,98,226562,6,0,P|114:97|81:220,1,200,4|2,0:3|2:0,0:0:0:0:
21,278,226882,1,4,0:3:0:0:
85,343,226988,2,0,P|127:322|179:319,1,100,0|0,1:0|0:0,0:0:0:0:
263,264,227201,2,0,L|275:371,1,100,4|0,0:3|0:0,0:0:0:0:
507,269,227414,2,0,P|413:286|353:211,1,200,2|4,2:0|0:3,0:0:0:0:
443,61,227733,1,0,0:0:0:0:
512,125,227839,2,0,P|482:146|415:149,1,100,0|0,1:0|0:0,0:0:0:0:
334,123,228052,2,0,L|349:22,1,100,2|0,2:0|0:0,0:0:0:0:
139,54,228265,6,0,P|77:60|42:109,1,100,4|0,0:3|0:0,0:0:0:0:
83,175,228477,2,0,P|145:169|180:120,1,100,0|4,1:2|0:3,0:0:0:0:
269,15,228690,6,0,P|243:71|268:126,1,100,0|0,1:0|0:0,0:0:0:0:
420,140,228902,2,0,P|445:83|420:28,1,100,4|0,0:3|0:0,0:0:0:0:
178,314,229116,6,0,P|214:364|274:370,1,100,2|0,0:0|0:0,0:0:0:0:
361,245,229328,2,0,P|324:194|264:188,1,100,4|0,0:3|0:0,0:0:0:0:
105,225,229541,6,0,P|167:219|202:170,1,100,0|0,1:0|0:0,0:0:0:0:
152,95,229753,2,0,P|89:101|54:149,1,100,2|0,1:2|0:0,0:0:0:0:
272,277,229967,6,0,B|385:266|320:209|451:186,1,200,4|2,0:3|0:0,0:0:0:0:
472,102,230286,1,4,0:3:0:0:
421,41,230392,1,0,1:0:0:0:
369,39,230499,1,2,0:0:0:0:
342,56,230605,2,0,L|374:276,1,200,4|2,0:3|2:0,0:0:0:0:
331,353,230924,1,2,0:0:0:0:
306,365,231031,2,0,L|183:344,1,100,4|2,0:3|0:0,0:0:0:0:
0,246,231243,6,0,P|43:212|95:216,1,100,0|0,1:0|0:0,0:0:0:0:
133,282,231456,2,0,L|112:388,1,100,2|0,2:1|0:0,0:0:0:0:
155,85,231669,6,0,B|159:59|159:59|142:36|142:36|138:64|138:64|151:85,1,100,4|0,0:3|2:0,0:0:0:0:
239,269,231882,2,0,B|243:294|243:294|226:317|226:317|222:289|222:289|235:268,1,100,2|4,2:1|0:3,0:0:0:0:
319,57,232094,6,0,B|323:31|323:31|306:8|306:8|302:36|302:36|315:57,1,100,0|0,1:0|2:0,0:0:0:0:
384,331,232307,2,0,B|388:356|388:356|371:379|371:379|367:351|367:351|380:330,1,100,4|0,0:3|2:0,0:0:0:0:
466,102,232520,1,0,1:0:0:0:
54,89,232733,1,8,2:3:0:0:
456,251,232945,1,0,1:0:0:0:
350,135,233158,1,0,0:0:0:0:
373,213,233265,1,4,2:3:0:0:
318,283,233371,6,0,B|228:289|271:329|168:333,1,150.000005722046,4|2,0:3|2:1,0:0:0:0:
79,0,233797,1,0,1:0:0:0:
95,20,233903,2,0,P|105:61|108:105,1,75.0000028610231,2|0,2:0|0:0,0:0:0:0:
182,237,234116,6,0,P|132:184|60:185,1,150.000005722046,2|2,2:0|2:0,0:0:0:0:
50,200,234435,2,0,P|32:253|32:273,1,75.0000028610231,0|0,2:0|2:0,0:0:0:0:
91,360,234648,2,0,P|124:344|161:339,1,75.0000028610231,0|0,1:0|0:0,0:0:0:0:
287,373,234860,2,0,P|266:341|256:305,1,75.0000028610231,2|0,2:0|0:0,0:0:0:0:
275,215,235073,5,4,0:3:0:0:
441,214,235286,2,0,L|267:231,1,150.000005722046,2|0,2:1|1:0,0:0:0:0:
275,215,235605,2,0,P|249:179|250:138,1,75.0000028610231,2|0,2:0|0:0,0:0:0:0:
275,47,235818,1,2,2:0:0:0:
359,249,236031,1,2,2:0:0:0:
347,331,236137,1,2,2:0:0:0:
477,111,236350,2,0,B|482:75|482:75|468:40,1,75.0000028610231,0|0,1:0|0:0,0:0:0:0:
375,52,236562,2,0,B|370:88|370:88|385:124,1,75.0000028610231,2|0,2:0|0:0,0:0:0:0:
184,80,236775,6,0,P|102:70|29:57,1,150.000005722046,4|2,0:3|2:1,0:0:0:0:
183,379,237201,1,0,1:0:0:0:
209,359,237307,2,0,P|213:316|222:273,1,75.0000028610231
75,165,237520,2,0,P|88:223|101:349,1,150.000005722046,2|2,2:0|2:0,0:0:0:0:
94,326,237839,2,0,P|51:331|12:345,1,75.0000028610231,0|0,2:0|0:0,0:0:0:0:
199,183,238052,2,0,B|303:191|243:225|337:237,2,150.000005722046,0|2|4,1:0|2:0|0:3,0:0:0:0:
486,35,238690,6,0,P|411:39|337:53,1,150.000005722046,2|0,2:1|1:0,0:0:0:0:
327,66,239009,2,0,P|347:107|345:139,1,75.0000028610231,2|0,2:0|0:0,0:0:0:0:
292,316,239222,2,0,P|355:255|435:271,1,150.000005722046,2|2,2:0|3:2,0:0:0:0:
421,272,239541,2,0,P|410:320|408:355,1,75.0000028610231,2|0,1:0|2:0,0:0:0:0:
230,224,239754,2,0,P|222:133|205:58,1,150.000005722046,0|0,1:0|1:0,0:0:0:0:
192,63,240038,5,0,1:0:0:0:
192,63,240109,5,8,0:3:0:0:
192,63,240180,5,4,0:3:0:0:
80,349,240392,6,0,P|54:348|31:341,1,37.5000014305115,6|0,1:0|0:0,0:0:0:0:
55,267,240605,2,0,P|81:268|104:275,1,37.5000014305115,6|0,1:0|2:0,0:0:0:0:
163,318,240818,1,2,2:3:0:0:
179,320,240924,1,2,2:3:0:0:
250,270,241031,5,2,1:2:0:0:
305,337,241137,2,0,L|297:384,1,37.5000014305115,10|0,2:0|2:0,0:0:0:0:
288,382,241350,1,2,1:2:0:0:
398,335,241456,2,0,P|390:306|389:287,1,37.5000014305115,10|0,2:0|2:0,0:0:0:0:
419,220,241669,1,2,1:2:0:0:
419,220,241775,1,2,2:0:0:0:
139,46,242094,6,0,P|140:20|147:-3,1,37.5000014305115,6|0,1:0|1:0,1:0:0:0:
221,21,242307,2,0,P|220:47|213:70,1,37.5000014305115,6|0,1:0|2:0,0:0:0:0:
170,129,242520,1,2,2:3:0:0:
168,145,242626,1,2,2:3:0:0:
112,216,242733,5,0,1:2:0:0:
133,245,242839,1,2,2:0:0:0:
178,269,242945,1,2,2:0:0:0:
245,270,243052,1,2,2:0:0:0:
312,229,243158,5,0,1:2:0:0:
334,148,243265,1,8,2:0:0:0:
323,100,243371,1,8,2:0:0:0:
301,69,243477,1,8,2:0:0:0:
440,344,243797,6,0,P|459:344|478:341,1,37.5000014305115,6|0,1:0|2:0,0:0:0:0:
469,263,244009,2,0,P|450:263|431:266,1,37.5000014305115,6|0,1:0|2:0,0:0:0:0:
359,313,244222,1,2,2:3:0:0:
343,315,244328,1,2,2:3:0:0:
278,257,244435,1,2,1:2:0:0:
331,186,244541,2,0,P|344:191|383:194,1,37.5000014305115,10|0,2:0|2:0,0:0:0:0:
384,188,244754,1,10,1:2:0:0:
337,99,244860,2,0,P|296:105|279:114,1,37.5000014305115,2|0,2:0|2:0,0:0:0:0:
240,176,245073,1,2,1:2:0:0:
240,176,245179,1,2,2:0:0:0:
280,339,245499,6,0,P|281:365|288:388,1,37.5000014305115,6|0,1:0|0:0,0:0:0:0:
362,364,245712,2,0,P|361:338|354:315,1,37.5000014305115,6|0,1:0|2:0,0:0:0:0:
311,256,245925,1,2,2:3:0:0:
309,240,246031,1,2,2:3:0:0:
367,174,246137,5,0,1:2:0:0:
335,153,246243,1,0,2:0:0:0:
286,149,246350,1,8,2:0:0:0:
235,181,246456,1,8,2:0:0:0:
201,250,246562,5,8,1:1:0:0:
130,298,246669,1,6,2:3:0:0:
70,301,246775,1,6,2:3:0:0:
38,279,246882,1,6,2:3:0:0:
20,200,246988,6,0,L|38:32,1,150,4|0,3:1|0:0,0:0:0:0:
49,40,247414,2,0,L|161:52,1,100,4|0,0:3|2:0,0:0:0:0:
201,338,247839,2,0,P|247:310|300:315,1,100,4|0,0:3|2:0,0:0:0:0:
307,330,248158,1,0,2:0:0:0:
307,330,248265,2,0,L|299:273,3,50,4|0|0|0,0:3|2:0|2:0|2:0,0:0:0:0:
399,286,248690,6,0,L|413:150,1,100,4|0,0:3|2:0,0:0:0:0:
419,175,249009,2,0,L|294:187,1,100,0|0,2:0|2:0,0:0:0:0:
311,171,249328,2,0,L|249:161,1,50,0|0,2:0|2:0,0:0:0:0:
144,101,249541,6,0,P|172:140|167:224,1,100,4|0,0:3|0:0,0:0:0:0:
167,205,249860,1,0,2:0:0:0:
167,205,249967,2,0,P|102:260|114:358,1,150,6|0,0:3|2:0,0:0:0:0:
110,335,250392,6,0,L|219:320,1,100,6|0,0:3|0:0,0:0:0:0:
220,333,250711,2,0,L|282:339,1,50,0|4,0:0|0:3,0:0:0:0:
348,369,250924,1,0,0:0:0:0:
348,369,251031,1,0,2:0:0:0:
40,176,251243,6,0,P|16:127|31:65,1,100,4|0,0:3|0:0,0:0:0:0:
34,69,251562,1,0,0:0:0:0:
34,69,251669,2,0,L|93:58,3,50,4|0|2|0,0:3|0:0|2:0|0:0,0:0:0:0:
179,19,252094,6,0,B|164:85|164:85|209:154,1,133.333333333333,6|0,0:3|2:0,0:0:0:0:
325,52,252520,2,0,B|291:51|291:51|263:67,2,66.6666666666667,6|2|2,0:3|2:0|2:0,0:0:0:0:
436,208,252945,2,0,B|451:142|451:142|406:73,1,133.333333333333,6|0,0:3|0:0,0:0:0:0:
297,192,253371,2,0,B|363:204,2,50,8|8|8,0:3|0:3|0:3,0:0:0:0:
216,230,253797,6,0,P|173:268|191:368,1,150,4|0,0:3|0:0,0:0:0:0:
194,363,254222,2,0,L|300:347,1,100,4|6,0:3|0:3,0:0:0:0:
301,334,254541,1,0,2:0:0:0:
301,334,254648,6,0,P|372:321|432:372,1,150,6|0,0:3|0:0,0:0:0:0:
443,375,255073,2,0,L|450:325,3,50,4|0|0|0,0:3|0:0|0:0|0:0,0:0:0:0:
492,225,255499,6,0,L|370:242,1,100,4|0,0:3|0:0,0:0:0:0:
382,227,255818,2,0,L|302:211,1,50,0|4,0:0|0:3,0:0:0:0:
267,167,256031,1,0,0:0:0:0:
267,167,256137,2,0,L|198:177,1,50
148,232,256350,6,0,P|100:231|59:186,1,100,4|0,0:3|0:0,0:0:0:0:
46,116,256669,1,0,2:0:0:0:
46,116,256775,2,0,L|110:105,1,50,4|0,0:3|2:0,0:0:0:0:
145,36,256988,2,0,L|194:44,1,50,0|0,2:0|2:0,0:0:0:0:
312,85,257201,6,0,L|326:183,1,100,4|0,0:3|2:0,0:0:0:0:
408,109,257626,2,0,L|422:207,1,100,4|0,0:3|2:0,0:0:0:0:
164,298,258052,2,0,L|155:342,5,33.3333333333333,4|0|0|0|0|0,3:0|3:0|3:0|3:0|3:0|3:0,3:0:0:0:
76,274,258477,1,4,3:0:0:0:
74,280,258547,1,0,3:0:0:0:
73,287,258618,1,0,3:0:0:0:
71,293,258689,1,0,3:0:0:0:
70,300,258760,1,0,3:0:0:0:
69,306,258831,1,0,3:0:0:0:
62,346,258903,5,2,1:1:0:0:
476,192,259328,5,2,1:1:0:0:
101,22,259754,5,2,1:1:0:0:
273,173,260180,6,3,B|259:129|232:136|243:186|243:186|225:176|225:176|222:201|222:201|240:212|240:212|234:237|234:237|243:212|243:212|264:212|264:212|274:235|274:235|279:204|269:181,1,299.999990844727,4|0,1:0|0:0,0:1:0:0:
