osu file format v14

[General]
AudioFilename: audio.mp3
AudioLeadIn: 0
PreviewTime: 61403
Countdown: 0
SampleSet: Soft
StackLeniency: 0.7
Mode: 0
LetterboxInBreaks: 0
WidescreenStoryboard: 1

[Editor]
Bookmarks: 18903,20605,34222,47839,75073,88690,173513,177201,219754
DistanceSpacing: 0.5
BeatDivisor: 6
GridSize: 32
TimelineZoom: 1.7

[Metadata]
Title:Fukakumei Zenya
TitleUnicode:不革命前夜
Artist:NEE
ArtistUnicode:NEE
Creator:Ryuusei Aika
Version:Collusive Insane
Source:
Tags:JINRUI くぅ たい焼き Kuu Taiyaki Japanese pop jpop j-pop indie rock jrock j-rock collab collaboration -white sweets wanpachi calliecube lotragon superbox
BeatmapID:3003687
BeatmapSetID:1421723

[Difficulty]
HPDrainRate:5
CircleSize:4
OverallDifficulty:7.3
ApproachRate:8.7
SliderMultiplier:1.6
SliderTickRate:1

[Events]
//Background and Video events
0,0,"BG.jpg",0,0
//Break Periods
2,88890,94854
2,177839,190173
//Storyboard Layer 0 (Background)
//Storyboard Layer 1 (Fail)
//Storyboard Layer 2 (Pass)
//Storyboard Layer 3 (Foreground)
//Storyboard Layer 4 (Overlay)
//Storyboard Sound Samples

[TimingPoints]
180,425.531914893617,4,2,1,60,1,0
5924,-66.6666666666667,4,2,1,60,0,0
6987,-66.6666666666667,4,2,1,70,0,0
20605,-55.5555555555556,4,2,1,90,0,0
34222,-83.3333333333333,4,2,1,70,0,0
41031,-76.9230769230769,4,2,1,70,0,0
47839,-90.9090909090909,4,2,1,70,0,0
59754,-66.6666666666667,4,2,1,90,0,0
60604,-66.6666666666667,4,2,1,70,0,0
61456,-55.5555555555556,4,2,1,90,0,0
62733,-66.6666666666667,4,2,1,90,0,0
64860,-55.5555555555556,4,2,1,90,0,0
66562,-66.6666666666667,4,2,1,90,0,0
72094,-55.5555555555556,4,2,1,90,0,0
72733,-66.6666666666667,4,2,1,90,0,0
73371,-66.6666666666667,4,2,1,90,0,0
74860,-55.5555555555556,4,2,1,90,0,0
75924,-66.6666666666667,4,2,1,90,0,0
78477,-55.5555555555556,4,2,1,90,0,0
81669,-66.6666666666667,4,2,1,90,0,0
86562,-100,4,2,1,90,0,0
87837,-100,4,2,1,70,0,0
88689,-100,4,2,1,90,0,0
95499,-55.5555555555556,4,2,1,90,0,0
101455,-55.5555555555556,4,2,1,75,0,0
101562,-83.3333333333333,4,2,1,75,0,0
102306,-83.3333333333333,4,2,1,70,0,0
109116,-90.9090909090909,4,2,1,60,0,0
114221,-90.9090909090909,4,2,1,75,0,0
115924,-83.3333333333333,4,2,1,70,0,0
122733,-100,4,2,1,70,0,0
127838,-100,4,2,1,90,0,0
129541,-55.5555555555556,4,2,1,90,0,0
156775,-100,4,2,1,75,0,0
158477,-100,4,2,1,75,0,0
163584,-83.3333333333333,4,2,1,70,0,0
170392,-76.9230769230769,4,2,1,80,0,0
177625,-76.9230769230769,4,2,1,50,0,0
183583,-76.9230769230769,4,2,1,70,0,0
189966,-76.9230769230769,4,2,1,60,0,0
190818,-66.6666666666667,4,2,1,75,0,0
197201,-50,4,2,1,75,0,0
197626,-52.6315789473684,4,2,1,80,0,0
198477,-41.6666666666667,4,2,1,80,0,0
198797,-52.6315789473684,4,2,1,80,0,0
199328,-41.6666666666667,4,2,1,80,0,0
199648,-52.6315789473684,4,2,1,80,0,0
200179,-41.6666666666667,4,2,1,80,0,0
200499,-52.6315789473684,4,2,1,80,0,0
201031,-41.6666666666667,4,2,1,90,0,0
201351,-52.6315789473684,4,2,1,90,0,0
201882,-41.6666666666667,4,2,1,90,0,0
202202,-52.6315789473684,4,2,1,90,0,0
202733,-41.6666666666667,4,2,1,90,0,0
203053,-52.6315789473684,4,2,1,90,0,0
204434,-52.6315789473684,4,2,1,100,0,0
205339,-52.6315789473684,4,2,2,15,0,0
205392,-52.6315789473684,4,2,1,20,0,0
205445,-52.6315789473684,4,2,2,25,0,0
205498,-52.6315789473684,4,2,1,30,0,0
205552,-52.6315789473684,4,2,2,35,0,0
205605,-52.6315789473684,4,2,1,40,0,0
205658,-52.6315789473684,4,2,2,45,0,0
205711,-52.6315789473684,4,2,1,50,0,0
205765,-52.6315789473684,4,2,2,55,0,0
205818,-52.6315789473684,4,2,1,60,0,0
205871,-52.6315789473684,4,2,2,70,0,0
205924,-52.6315789473684,4,2,1,80,0,0
205977,-52.6315789473684,4,2,2,90,0,0
206030,-52.6315789473684,4,2,1,30,0,0
206137,-83.3333333333333,4,2,1,60,0,0
218051,-83.3333333333333,4,2,1,90,0,0
219754,-62.5,4,2,1,90,0,0
229967,-55.5555555555556,4,2,1,90,0,0
231243,-38.4615384615385,4,2,1,90,0,0
233371,-66.6666666666667,4,2,1,80,0,0
246988,-83.3333333333333,4,2,1,65,0,0
252094,-71.4285714285714,4,2,1,65,0,0
253371,-83.3333333333333,4,2,1,65,0,0
257201,-62.5,4,2,1,65,0,0
258903,-28.5714285714286,4,2,1,100,0,0
260498,-28.5714285714286,4,2,2,90,0,0
260604,-28.5714285714286,4,2,1,80,0,0
260710,-28.5714285714286,4,2,2,70,0,0
260817,-28.5714285714286,4,2,1,60,0,0
260923,-28.5714285714286,4,2,2,50,0,0
261030,-28.5714285714286,4,2,1,40,0,0
261136,-28.5714285714286,4,2,2,30,0,0
261242,-28.5714285714286,4,2,1,20,0,0
261349,-28.5714285714286,4,2,2,10,0,0
261455,-28.5714285714286,4,2,1,5,0,0

[Colours]
Combo1 : 192,96,0
Combo2 : 128,128,64
Combo3 : 128,64,64
Combo4 : 64,128,128

[HitObjects]
130,340,180,5,4,0:3:0:0:
71,287,392,2,0,L|80:234,1,40,0|0,2:0|2:0,0:0:0:0:
71,235,605,2,0,L|80:182,1,40,4|0,0:3|2:0,0:0:0:0:
33,131,817,1,0,2:0:0:0:
29,119,923,1,0,2:0:0:0:
25,107,1031,6,0,L|137:90,1,80,4|0,0:3|2:0,0:0:0:0:
149,29,1350,1,0,2:0:0:0:
160,30,1456,2,0,L|236:42,1,40,4|0,0:3|2:0,0:0:0:0:
279,45,1669,1,8,0:0:0:0:
275,56,1775,1,8,0:0:0:0:
271,67,1882,5,4,0:3:0:0:
317,132,2094,2,0,L|370:123,1,40,0|0,2:0|0:0,0:0:0:0:
369,132,2307,2,0,L|422:123,1,40,4|0,0:3|2:0,0:0:0:0:
486,116,2520,1,0,2:0:0:0:
458,212,2733,6,0,L|346:229,1,80,4|0,0:3|0:0,0:0:0:0:
327,281,3052,1,0,2:0:0:0:
315,279,3158,2,0,L|239:267,1,40,4|0,0:3|2:0,0:0:0:0:
203,335,3371,1,10,2:0:0:0:
205,323,3477,1,8,2:0:0:0:
207,311,3583,5,4,0:3:0:0:
158,248,3797,2,0,L|149:195,1,40,0|0,2:0|2:0,0:0:0:0:
158,196,4010,2,0,L|149:143,1,40,4|0,0:3|2:0,0:0:0:0:
135,81,4222,1,0,2:0:0:0:
185,17,4435,6,0,L|297:34,1,80,4|0,0:3|2:0,0:0:0:0:
313,89,4754,1,0,2:0:0:0:
324,87,4860,2,0,L|400:75,1,40,4|8,0:3|2:0,0:0:0:0:
417,25,5073,1,8,2:0:0:0:
428,23,5180,1,8,2:0:0:0:
439,21,5286,5,4,0:3:0:0:
429,131,5499,5,8,2:0:0:0:
432,146,5605,1,8,2:0:0:0:
483,200,5711,5,8,3:2:0:0:
480,215,5817,1,8,2:0:0:0:
420,267,5924,6,0,L|370:253,2,30.0000011444092,8|8|8,2:3|2:3|2:3,0:0:0:0:
336,202,6137,6,0,L|286:216,2,30.0000011444092,8|0|8,3:0|0:0|2:3,0:0:0:0:
259,272,6350,5,8,2:3:0:0:
256,287,6456,1,8,2:3:0:0:
238,353,6562,5,4,3:0:0:0:
233,323,6668,1,4,2:3:0:0:
228,293,6774,1,4,2:3:0:0:
224,264,6881,1,4,2:3:0:0:
219,234,6988,6,0,L|241:105,1,120.000004577637,4|0,0:3|0:0,0:0:0:0:
145,13,7307,5,0,2:0:0:0:
157,17,7414,2,0,P|175:48|167:116,1,60.0000022888184,4|0,0:3|2:0,0:0:0:0:
118,117,7626,2,0,P|94:143|26:157,1,60.0000022888184,2|0,2:0|0:0,0:0:0:0:
17,242,7839,6,0,P|77:267|90:336,1,120.000004577637,4|0,0:3|0:0,0:0:0:0:
205,360,8158,5,0,2:0:0:0:
209,349,8265,2,0,L|145:369,1,60.0000022888184,4|0,0:3|2:0,0:0:0:0:
313,304,8477,2,0,L|249:284,1,60.0000022888184,10|8,2:0|2:0,0:0:0:0:
356,238,8690,6,0,L|484:198,1,120.000004577637,4|0,0:3|0:0,0:0:0:0:
478,98,9009,5,0,2:0:0:0:
466,93,9116,2,0,P|435:117|425:137,1,60.0000022888184,4|0,0:3|2:0,0:0:0:0:
470,202,9328,2,0,P|483:238|499:254,1,60.0000022888184,2|0,2:0|0:0,0:0:0:0:
386,341,9541,6,0,P|385:266|329:228,1,120.000004577637,4|0,0:3|2:0,0:0:0:0:
275,196,9860,1,2,2:0:0:0:
280,185,9967,2,0,P|286:139|326:111,1,60.0000022888184,4|0,0:3|2:0,0:0:0:0:
231,31,10179,5,10,2:0:0:0:
219,44,10286,1,8,2:0:0:0:
216,27,10392,6,0,L|364:62,1,120.000004577637,4|0,0:3|0:0,0:0:0:0:
293,129,10711,5,0,2:0:0:0:
281,131,10818,2,0,L|207:148,1,60.0000022888184,4|0,0:3|2:0,0:0:0:0:
172,203,11031,2,0,L|98:186,1,60.0000022888184,2|0,2:0|2:0,0:0:0:0:
51,50,11243,6,0,P|108:55|141:103,1,120.000004577637,4|0,0:3|0:0,0:0:0:0:
181,212,11562,5,0,2:0:0:0:
172,203,11669,2,0,L|98:186,1,60.0000022888184,4|0,0:3|2:0,0:0:0:0:
281,131,11882,2,0,L|207:148,1,60.0000022888184,10|8,2:0|2:0,0:0:0:0:
331,69,12094,6,0,B|329:69|341:77|444:124,1,120.000004577637,4|0,0:3|0:0,0:0:0:0:
364,182,12414,5,0,2:0:0:0:
354,174,12520,2,0,P|329:196|319:224,1,60.0000022888184,4|0,0:3|2:0,0:0:0:0:
245,242,12733,2,0,P|258:272|281:290,1,60.0000022888184,2|0,2:0|0:0,0:0:0:0:
453,257,12945,6,0,P|424:240|394:239,1,60.0000022888184,4|0,0:3|0:0,0:0:0:0:
363,345,13158,5,0,2:0:0:0:
356,326,13265,1,2,2:0:0:0:
345,340,13371,2,0,L|400:316,1,60.0000022888184,4|0,0:3|2:0,0:0:0:0:
223,265,13584,2,0,L|278:288,1,60.0000022888184,10|8,2:0|2:0,0:0:0:0:
177,194,13797,6,0,L|49:234,1,120.000004577637,4|0,0:3|0:0,0:0:0:0:
55,334,14116,5,0,2:0:0:0:
67,339,14223,2,0,P|98:315|108:295,1,60.0000022888184,4|0,0:3|2:0,0:0:0:0:
63,230,14435,2,0,P|50:194|34:178,1,60.0000022888184,2|0,2:0|0:0,0:0:0:0:
161,37,14648,6,0,P|109:93|107:142,1,120.000004577637,4|0,0:3|0:0,0:0:0:0:
185,185,14967,5,0,2:0:0:0:
177,194,15073,2,0,L|107:216,1,60.0000022888184,4|0,0:3|2:0,0:0:0:0:
286,268,15286,2,0,L|216:245,1,60.0000022888184,10|0,2:0|0:0,0:0:0:0:
331,331,15499,6,0,L|458:289,1,120.000004577637,4|0,0:3|2:0,0:0:0:0:
487,210,15818,5,0,2:0:0:0:
479,219,15924,2,0,P|452:195|443:160,1,60.0000022888184,4|0,0:3|2:0,0:0:0:0:
368,151,16137,2,0,P|382:117|412:98,1,60.0000022888184,2|0,2:0|0:0,0:0:0:0:
305,10,16350,6,0,P|322:39|323:68,1,60.0000022888184,4|0,0:3|0:0,0:0:0:0:
229,107,16563,5,0,0:0:0:0:
248,114,16670,1,2,2:0:0:0:
234,125,16776,2,0,L|246:60,1,60.0000022888184,4|0,0:3|2:0,0:0:0:0:
306,232,16988,2,0,L|294:167,1,60.0000022888184,10|8,2:0|2:0,0:0:0:0:
241,275,17201,6,0,P|259:296|292:309,1,60.0000022888184,4|0,0:3|0:0,0:0:0:0:
221,201,17414,6,0,P|193:212|173:234,1,60.0000022888184,0|0,0:0|2:0,0:0:0:0:
116,184,17626,2,0,P|100:209|97:238,1,60.0000022888184,4|0,0:3|2:0,0:0:0:0:
79,344,17839,5,10,2:0:0:0:
72,327,17945,1,8,2:0:0:0:
59,340,18052,2,0,L|186:309,1,120.000004577637,4|0,0:3|2:0,0:0:0:0:
279,316,18371,5,0,2:0:0:0:
288,308,18477,2,0,P|260:297|241:275,1,60.0000022888184,4|0,0:3|2:0,0:0:0:0:
306,232,18690,1,10,2:0:0:0:
315,239,18797,5,8,2:0:0:0:
344,235,18903,1,8,2:1:0:0:
374,230,19009,1,8,2:1:0:0:
404,225,19115,1,8,2:1:0:0:
433,221,19222,1,8,0:1:0:0:
442,228,19328,5,8,0:3:0:0:
500,176,19435,6,0,L|504:135,2,30.0000011444092,8|8|10,2:0|2:0|2:0,0:0:0:0:
444,95,19648,6,0,L|439:54,1,30.0000011444092,10|0,2:0|0:0,0:0:0:0:
371,20,19754,5,2,2:0:0:0:
369,31,19860,1,2,2:0:0:0:
310,83,20073,1,2,2:0:0:0:
255,139,20286,5,2,2:0:0:0:
257,150,20392,1,2,2:0:0:0:
183,25,20605,5,4,0:3:0:0:
57,96,20818,5,2,2:0:0:0:
67,101,20924,2,0,L|140:83,1,71.9999978027344,0|0,2:0|1:0,0:0:0:0:
37,169,21137,6,0,P|17:197|19:242,1,71.9999978027344,2|0,2:0|0:0,0:0:0:0:
84,266,21350,2,0,P|104:293|147:305,1,71.9999978027344,2|4,2:0|0:3,0:0:0:0:
203,179,21562,5,2,2:0:0:0:
193,189,21669,2,0,L|204:266,1,71.9999978027344,0|0,2:0|2:0,0:0:0:0:
307,133,21882,6,0,P|279:116|231:118,1,71.9999978027344,0|0,1:0|0:0,0:0:0:0:
348,249,22094,2,0,P|365:221|363:173,1,71.9999978027344,2|0,2:0|0:0,0:0:0:0:
278,274,22307,5,4,0:3:0:0:
400,349,22520,5,2,2:0:0:0:
390,354,22626,2,0,L|317:336,1,71.9999978027344,0|0,2:0|1:0,0:0:0:0:
472,374,22839,6,0,P|492:346|490:301,1,71.9999978027344,2|0,2:0|0:0,0:0:0:0:
425,277,23052,2,0,P|405:250|362:238,1,71.9999978027344,2|4,2:0|0:3,0:0:0:0:
482,160,23265,5,2,2:0:0:0:
448,168,23371,1,2,2:0:0:0:
471,194,23477,1,2,2:0:0:0:
467,176,23584,5,0,1:0:0:0:
348,249,23797,1,2,2:0:0:0:
447,79,24009,5,4,0:3:0:0:
311,14,24222,5,2,2:0:0:0:
321,9,24328,2,0,L|394:27,1,71.9999978027344,0|0,2:0|1:0,0:0:0:0:
243,47,24541,6,0,P|215:69|203:102,1,71.9999978027344,2|0,2:0|0:0,0:0:0:0:
267,146,24754,2,0,P|279:179|307:201,1,71.9999978027344,2|4,2:0|0:3,0:0:0:0:
182,240,24967,5,2,2:0:0:0:
189,249,25073,2,0,L|203:123,1,71.9999978027344,0|0,2:0|2:0,0:0:0:0:
65,270,25286,6,0,P|87:294|133:305,1,71.9999978027344,0|0,1:0|0:0,0:0:0:0:
63,146,25498,2,0,P|38:168|27:214,1,71.9999978027344,2|0,2:0|2:0,0:0:0:0:
136,133,25711,5,4,0:3:0:0:
243,47,25924,5,2,2:0:0:0:
251,59,26031,2,0,L|180:73,1,71.9999978027344,0|0,2:0|1:0,0:0:0:0:
312,104,26243,6,0,P|326:137|367:159,1,71.9999978027344,2|0,2:0|0:0,0:0:0:0:
385,227,26456,2,0,P|420:223|455:191,1,71.9999978027344,2|4,2:0|0:3,0:0:0:0:
475,81,26669,5,2,3:2:0:0:
464,72,26775,2,0,P|437:96|428:142,1,71.9999978027344,2|0,1:0|2:0,0:0:0:0:
385,227,26988,6,2,P|451:284|358:334,1,215.999993408203,0|8,1:0|2:0,0:1:0:0:
327,277,27414,5,4,0:3:0:0:
215,367,27626,5,2,2:1:0:0:
221,358,27732,2,0,L|294:343,1,71.9999978027344,2|0,2:0|1:0,0:0:0:0:
162,311,27945,6,0,P|128:304|98:269,1,71.9999978027344,2|0,2:0|0:0,0:0:0:0:
129,207,28158,2,0,P|124:173|147:135,1,71.9999978027344,2|4,2:0|0:3,0:0:0:0:
223,33,28371,5,2,2:0:0:0:
231,43,28477,2,0,L|213:128,1,71.9999978027344,0|0,2:0|2:0,0:0:0:0:
360,62,28690,6,0,P|342:34|298:16,1,71.9999978027344,0|0,1:0|0:0,0:0:0:0:
342,184,28902,2,0,P|370:166|388:122,1,71.9999978027344,2|0,2:0|0:0,0:0:0:0:
266,176,29116,5,4,0:3:0:0:
373,271,29328,5,2,2:1:0:0:
367,262,29434,2,0,L|296:247,1,71.9999978027344,2|0,2:0|1:0,0:0:0:0:
384,346,29648,6,0,P|418:351|458:329,1,71.9999978027344,2|0,2:0|0:0,0:0:0:0:
450,259,29861,2,0,P|465:229|456:185,1,71.9999978027344,2|4,2:0|0:3,0:0:0:0:
491,26,30073,5,2,2:0:0:0:
461,44,30179,1,2,2:0:0:0:
308,17,30392,5,0,1:0:0:0:
263,179,30605,5,2,2:0:0:0:
140,140,30818,5,4,0:3:0:0:
68,275,31031,5,2,2:1:0:0:
77,269,31137,2,0,L|92:198,1,71.9999978027344,2|0,2:0|1:0,0:0:0:0:
127,327,31350,6,0,P|162:328|192:309,1,71.9999978027344,2|0,2:0|0:0,0:0:0:0:
269,304,31562,2,0,P|281:270|273:236,1,71.9999978027344,2|4,2:0|0:3,0:0:0:0:
394,146,31776,5,2,2:0:0:0:
388,155,31882,2,0,L|317:170,1,71.9999978027344,0|0,2:0|2:0,0:0:0:0:
406,40,32094,6,0,P|430:62|441:108,1,71.9999978027344,0|0,1:0|0:0,0:0:0:0:
282,37,32307,2,0,P|304:12|350:1,1,71.9999978027344,2|0,2:0|0:0,0:0:0:0:
268,112,32519,5,4,0:3:0:0:
133,37,32733,5,2,2:1:0:0:
139,46,32839,2,0,L|210:61,1,71.9999978027344,2|0,2:0|1:0,0:0:0:0:
77,89,33052,6,0,P|54:110|42:156,1,71.9999978027344,2|0,2:0|0:0,0:0:0:0:
102,193,33265,2,0,P|114:221|154:246,1,71.9999978027344,2|4,2:0|0:3,0:0:0:0:
229,349,33477,1,0,0:0:0:0:
238,338,33584,6,0,L|218:257,1,71.9999978027344,2|0,1:0|2:0,0:0:0:0:
278,211,33797,2,2,L|309:133,1,71.9999978027344,0|0,1:0|2:0,0:1:0:0:
384,131,34009,2,0,L|454:86,1,71.9999978027344,8|8,2:3|2:3,0:0:0:0:
497,11,34222,5,4,0:3:0:0:
497,11,34648,5,0,1:0:0:0:
328,64,34967,5,0,2:0:0:0:
334,71,35073,2,0,L|223:43,1,95.9999970703126,4|0,0:3|2:0,0:0:0:0:
112,137,35499,5,0,1:0:0:0:
160,24,35711,2,0,L|197:172,1,143.999995605469,2|0,2:0|0:0,0:0:0:0:
218,234,36137,1,2,2:0:0:0:
92,347,36350,2,0,P|87:295|123:246,1,95.9999970703126,0|2,1:0|2:0,0:0:0:0:
212,352,36775,5,4,0:3:0:0:
285,329,36988,1,2,2:0:0:0:
360,232,37201,6,0,P|394:264|405:310,1,95.9999970703126,0|2,1:0|2:0,0:0:0:0:
495,133,37626,6,0,L|401:161,1,95.9999970703126,4|0,0:3|0:0,0:0:0:0:
338,114,37945,1,0,2:0:0:0:
345,107,38052,6,0,L|251:79,1,95.9999970703126,0|0,1:0|0:0,0:0:0:0:
189,125,38371,1,0,2:0:0:0:
180,128,38477,5,4,0:3:0:0:
229,200,38690,1,0,2:0:0:0:
252,79,38903,1,0,1:0:0:0:
146,18,39116,2,0,L|47:44,1,95.9999970703126,2|4,2:0|0:3,0:0:0:0:
37,131,39541,5,2,2:0:0:0:
154,256,39754,5,0,1:0:0:0:
54,223,39967,1,8,2:3:0:0:
130,350,40180,5,4,0:3:0:0:
230,317,40393,1,4,2:3:0:0:
199,166,40605,6,0,L|312:187,1,95.9999970703126,0|2,1:0|2:0,0:0:0:0:
340,358,41031,6,0,L|320:252,1,103.999995239258,4|0,0:3|0:0,0:0:0:0:
368,193,41350,1,0,2:0:0:0:
373,201,41456,6,0,L|393:95,1,103.999995239258,0|0,1:0|0:0,0:0:0:0:
407,24,41775,1,0,2:0:0:0:
410,14,41882,5,4,0:3:0:0:
319,60,42094,1,0,2:0:0:0:
162,26,42307,5,0,1:0:0:0:
230,163,42520,2,0,L|123:134,1,103.999995239258,2|4,2:0|0:3,0:0:0:0:
198,240,42945,5,2,2:0:0:0:
84,349,43158,2,0,P|123:309|175:326,1,103.999995239258,0|0,1:0|0:0,0:0:0:0:
282,229,43584,5,4,0:3:0:0:
350,271,43797,1,0,2:0:0:0:
435,158,44009,2,0,P|396:198|344:181,1,103.999995239258,0|2,1:0|2:0,0:0:0:0:
206,8,44435,6,0,L|231:173,1,155.999992858887,4|0,0:3|0:0,0:0:0:0:
246,235,44860,2,0,P|205:265|155:257,1,103.999995239258,0|0,1:0|2:0,0:0:0:0:
112,196,45180,1,0,0:0:0:0:
120,190,45286,6,0,P|79:159|29:167,1,103.999995239258,4|0,0:3|2:0,0:0:0:0:
121,65,45711,5,0,1:0:0:0:
225,160,45924,2,0,L|243:36,1,103.999995239258,2|4,2:0|0:3,0:0:0:0:
302,182,46350,5,2,2:0:0:0:
378,170,46562,1,0,1:0:0:0:
454,158,46775,1,0,2:0:0:0:
462,163,46882,1,0,0:0:0:0:
469,170,46988,6,0,P|486:202|464:265,1,103.999995239258,4|2,0:3|2:0,0:0:0:0:
457,269,47307,1,0,2:0:0:0:
448,274,47414,2,0,L|387:256,1,51.999997619629,0|8,1:0|2:3,0:0:0:0:
321,290,47626,5,8,2:3:0:0:
327,316,47733,1,8,2:3:0:0:
333,342,47839,6,0,L|219:375,1,88.000002685547,2|0,0:1|2:0,0:0:0:0:
176,336,48158,1,0,0:0:0:0:
167,338,48265,1,2,3:2:0:0:
144,125,48477,5,0,2:0:0:0:
139,147,48584,1,0,0:0:0:0:
133,168,48690,6,0,L|121:219,1,44.0000013427735,4|0,0:3|0:0,0:0:0:0:
69,271,48903,2,0,L|93:364,1,88.000002685547,0|4,2:0|0:3,0:0:0:0:
202,212,49328,6,0,L|239:67,1,132.00000402832,10|0,2:1|0:0,0:0:0:0:
242,64,49754,1,2,2:0:0:0:
296,180,49967,6,0,L|320:282,1,88.000002685547,0|2,3:2|2:0,0:0:0:0:
420,353,50392,5,4,0:3:0:0:
440,267,50605,1,0,2:0:0:0:
472,116,50818,5,4,0:3:0:0:
450,121,50924,1,8,2:3:0:0:
429,126,51030,1,4,2:3:0:0:
407,131,51137,1,4,2:3:0:0:
384,137,51243,6,0,P|373:87|405:53,1,88.000002685547,2|0,0:1|2:0,0:0:0:0:
460,21,51562,1,0,0:0:0:0:
467,27,51669,1,4,0:3:0:0:
297,113,51882,5,0,2:0:0:0:
275,108,51988,1,0,0:0:0:0:
254,103,52094,6,0,L|203:91,1,44.0000013427735,4|0,0:3|0:0,0:0:0:0:
151,39,52307,2,0,L|58:63,1,88.000002685547,2|4,2:0|0:3,0:0:0:0:
187,169,52733,6,0,L|314:201,1,132.00000402832,10|0,2:1|0:0,0:0:0:0:
332,206,53158,1,8,0:2:0:0:
213,253,53371,6,0,P|171:278|157:314,1,88.000002685547,4|10,3:3|2:0,0:0:0:0:
37,351,53797,6,0,B|29:292|29:292|32:288|32:288|21:205,1,132.00000402832,4|0,0:3|2:0,0:0:0:0:
11,146,54222,5,4,0:3:0:0:
121,217,54435,5,8,2:3:0:0:
138,204,54541,1,8,2:3:0:0:
157,193,54648,2,0,P|199:218|213:254,1,88.000002685547,4|0,0:3|0:0,0:0:0:0:
277,355,55073,6,0,B|335:339|335:339|341:325|341:325|415:304,1,132.00000402832,10|0,2:0|2:0,0:0:0:0:
467,288,55499,5,2,2:0:0:0:
484,213,55711,1,4,0:3:0:0:
385,89,55924,5,10,2:0:0:0:
368,14,56136,1,2,2:0:0:0:
488,9,56350,6,0,L|454:149,1,132.00000402832,4|4,0:3|0:3,0:0:0:0:
397,188,56775,5,10,2:0:0:0:
312,66,56988,1,4,0:3:0:0:
249,201,57201,5,2,2:0:0:0:
281,134,57414,1,4,0:3:0:0:
323,195,57626,1,10,2:0:0:0:
239,300,57839,6,0,L|188:287,1,44.0000013427735,0|0,2:0|2:0,0:0:0:0:
128,328,58052,1,4,0:3:0:0:
93,255,58265,1,2,2:0:0:0:
148,169,58477,1,10,2:0:0:0:
55,87,58690,1,4,0:3:0:0:
197,21,58903,5,2,2:0:0:0:
301,48,59116,1,4,0:3:0:0:
364,112,59328,5,10,2:0:0:0:
148,169,59541,1,0,2:0:0:0:
160,264,59754,5,4,0:3:0:0:
338,290,59967,1,4,0:3:0:0:
364,112,60179,1,4,0:3:0:0:
186,86,60392,1,4,0:3:0:0:
262,188,60605,5,4,0:3:0:0:
294,228,61456,6,0,B|311:191|311:191|206:244,1,143.999995605469,4|0,0:3|2:0,0:0:0:0:
115,260,61776,5,0,2:0:0:0:
102,266,61882,2,0,B|159:288|159:288|165:300|165:300|256:332,1,143.999995605469,0|0,1:0|2:0,0:0:0:0:
98,153,62307,6,0,B|61:104|61:104|218:165,1,215.999993408203,4|0,0:3|2:0,0:0:0:0:
265,112,62733,6,0,P|283:92|325:85,1,60.0000022888184,0|0,1:0|2:0,0:0:0:0:
365,26,62945,2,0,P|389:36|409:74,1,60.0000022888184,2|0,2:0|2:0,0:0:0:0:
472,224,63158,6,2,P|446:222|412:198,1,60.0000022888184,4|0,0:3|0:0,0:1:0:0:
439,131,63371,2,0,P|464:132|498:156,1,60.0000022888184,0|0,0:0|2:0,0:0:0:0:
345,283,63584,6,2,P|338:254|318:231,1,60.0000022888184,0|0,1:0|0:0,0:1:0:0:
246,270,63797,2,0,P|252:299|271:323,1,60.0000022888184,0|0,0:0|2:0,0:0:0:0:
354,277,64009,6,2,P|272:222|296:335,1,240.000009155274,4|0,0:3|1:0,0:1:0:0:
193,365,64648,1,0,0:0:0:0:
64,131,64860,6,0,P|91:150|108:197,1,71.9999978027344,4|0,0:3|2:0,0:0:0:0:
173,220,65073,2,0,P|163:252|123:282,1,71.9999978027344,2|0,2:0|2:0,0:0:0:0:
121,351,65286,2,0,P|87:351|46:323,1,71.9999978027344,0|0,1:0|2:0,0:0:0:0:
12,236,65499,1,2,2:0:0:0:
173,220,65711,6,0,P|206:217|244:184,1,71.9999978027344,4|0,0:3|2:0,0:0:0:0:
311,197,65924,2,0,P|318:164|299:117,1,71.9999978027344,2|0,2:0|2:0,0:0:0:0:
332,57,66137,2,0,P|303:39|253:43,1,71.9999978027344,0|0,1:0|2:0,0:0:0:0:
179,102,66350,1,2,2:0:0:0:
384,116,66562,6,0,P|403:96|437:86,1,60.0000022888184,4|0,0:3|0:0,0:0:0:0:
445,160,66775,2,0,P|469:171|489:201,1,60.0000022888184,0|0,2:0|0:0,0:0:0:0:
370,257,66988,6,0,P|393:236|422:230,1,60.0000022888184,0|0,1:0|0:0,0:0:0:0:
458,300,67201,2,0,P|435:321|406:327,1,60.0000022888184,0|0,2:0|0:0,0:0:0:0:
297,366,67414,6,0,P|280:284|172:290,1,180.000006866455,4|0,0:3|2:0,0:0:0:0:
106,319,67839,5,0,1:0:0:0:
102,330,67945,1,8,2:3:0:0:
98,341,68052,1,8,2:3:0:0:
94,352,68158,1,8,2:3:0:0:
89,363,68265,6,0,L|72:255,1,60.0000022888184,4|0,0:3|0:0,0:0:0:0:
24,252,68477,2,0,L|57:65,1,180.000006866455,2|0,2:0|0:0,0:0:0:0:
118,32,68903,6,0,P|149:16|181:17,1,60.0000022888184,2|0,2:0|0:0,0:0:0:0:
219,78,69116,2,0,P|250:94|282:93,1,60.0000022888184,4|0,0:3|0:0,0:0:0:0:
345,58,69328,2,0,L|376:235,1,180.000006866455,2|0,2:0|0:0,0:0:0:0:
390,312,69754,1,2,2:0:0:0:
246,207,69967,6,0,P|279:216|305:253,1,60.0000022888184,4|0,0:3|0:0,0:0:0:0:
263,304,70180,2,0,P|230:295|204:258,1,60.0000022888184,0|0,2:0|0:0,0:0:0:0:
122,199,70392,6,0,P|155:190|181:153,1,60.0000022888184,0|0,1:0|0:0,0:0:0:0:
139,102,70605,2,0,P|106:111|80:148,1,60.0000022888184,2|0,2:0|0:0,0:0:0:0:
59,248,70818,5,4,0:3:0:0:
115,361,71031,6,0,L|51:338,1,60.0000022888184,2|0,2:0|0:0,0:0:0:0:
212,277,71243,2,0,L|148:300,1,60.0000022888184,0|0,1:0|0:0,0:0:0:0:
309,361,71456,2,0,L|245:338,1,60.0000022888184,0|0,0:0|2:0,0:0:0:0:
369,313,71669,5,4,0:3:0:0:
479,222,71882,1,2,2:1:0:0:
479,222,72094,6,0,B|443:222|423:248|423:248|438:161|459:193|482:148|467:93|467:93|447:128|382:125,1,287.999991210938,0|4,1:0|0:3,0:0:0:0:
281,27,72733,6,0,P|311:49|323:74,1,60.0000022888184,10|0,2:0|2:0,0:0:0:0:
186,97,72945,2,0,P|190:60|205:37,1,60.0000022888184,0|0,1:0|0:0,0:0:0:0:
295,145,73158,2,0,P|260:159|233:157,1,60.0000022888184,2|0,2:0|2:0,0:0:0:0:
36,136,73371,6,1,P|85:143|127:222,1,120.000004577637,4|0,0:3|2:0,0:0:0:0:
239,244,73690,1,0,2:0:0:0:
246,233,73797,6,1,P|197:240|155:319,1,120.000004577637,0|0,1:0|0:0,0:0:0:0:
424,334,74222,6,0,P|407:303|395:265,1,60.0000022888184,4|0,0:3|0:0,0:0:0:0:
319,193,74435,1,10,2:1:0:0:
323,203,74541,1,8,2:0:0:0:
327,214,74648,2,1,P|343:183|355:145,1,60.0000022888184,2|8,1:0|2:3,0:0:0:0:
341,33,74860,5,8,2:3:0:0:
331,44,74967,1,8,0:3:0:0:
321,54,75073,6,0,B|473:28|473:28|406:97,1,215.999993408203,4|0,0:3|2:0,0:0:0:0:
337,155,75499,6,0,B|240:123|240:123|270:177,1,143.999995605469,0|0,1:0|2:0,0:0:0:0:
65,103,75924,6,0,P|97:116|117:147,1,60.0000022888184,4|0,0:3|2:0,0:0:0:0:
180,171,76137,2,0,P|177:205|154:234,1,60.0000022888184,2|0,2:0|2:0,0:0:0:0:
110,372,76350,6,0,P|80:370|55:354,1,60.0000022888184,0|0,1:0|0:0,0:0:0:0:
77,280,76562,2,0,P|103:282|137:306,1,60.0000022888184,2|0,2:0|2:0,0:0:0:0:
308,300,76775,6,2,P|302:271|283:247,1,60.0000022888184,4|0,0:3|0:0,0:1:0:0:
209,287,76988,2,0,P|216:316|236:339,1,60.0000022888184,0|0,2:0|0:0,0:0:0:0:
383,321,77201,6,0,P|390:292|410:269,1,60.0000022888184,0|0,1:0|0:0,0:0:0:0:
482,308,77414,2,0,P|476:337|457:361,1,60.0000022888184,2|0,2:0|0:0,0:0:0:0:
374,315,77626,6,2,P|456:260|432:373,1,240.000009155274,4|0,0:3|1:0,0:1:0:0:
487,143,78265,6,0,P|453:174|423:181,1,60.0000022888184,2|0,2:0|2:0,0:0:0:0:
271,74,78477,6,0,P|295:96|306:144,1,71.9999978027344,4|0,0:3|0:0,0:0:0:0:
366,181,78690,2,0,P|352:211|308:236,1,71.9999978027344,2|0,2:0|2:0,0:0:0:0:
298,305,78903,2,0,P|264:300|226:268,1,71.9999978027344,0|0,1:0|0:0,0:0:0:0:
218,181,79116,1,2,2:0:0:0:
189,26,79328,6,0,P|186:104|48:95,1,215.999993408203,4|0,0:3|0:0,0:0:0:0:
24,185,79754,6,0,P|51:216|43:267,1,71.9999978027344,0|0,1:0|0:0,0:0:0:0:
108,301,79967,2,0,P|87:336|35:344,1,71.9999978027344,2|0,2:0|2:0,0:0:0:0:
233,278,80180,6,0,P|262:299|298:305,1,71.9999978027344,4|0,0:3|2:0,0:0:0:0:
320,232,80393,2,0,P|350:212|366:181,1,71.9999978027344,2|0,2:0|2:0,0:0:0:0:
306,132,80606,2,0,P|296:98|271:74,1,71.9999978027344,0|0,1:0|2:0,0:0:0:0:
218,181,80818,1,2,2:0:0:0:
420,106,81031,6,2,P|419:243|297:305,1,287.999991210938,4|0,0:3|1:0,0:1:0:0:
167,37,81669,5,2,2:0:0:0:
169,51,81775,1,8,2:0:0:0:
171,65,81882,2,0,L|189:171,1,60.0000022888184,4|0,0:3|0:0,0:0:0:0:
57,174,82094,6,0,P|140:191|162:301,1,180.000006866455,2|0,2:0|0:0,0:0:0:0:
114,345,82520,5,4,0:3:0:0:
128,347,82626,1,0,0:0:0:0:
142,349,82733,2,0,L|248:367,1,60.0000022888184,2|0,2:0|0:0,0:0:0:0:
251,235,82945,6,0,P|268:318|378:340,1,180.000006866455,4|0,0:3|0:0,0:0:0:0:
414,306,83371,5,2,2:0:0:0:
368,167,83584,6,0,L|299:187,1,60.0000022888184,4|0,0:3|0:0,0:0:0:0:
249,137,83797,2,0,L|180:117,1,60.0000022888184,8|0,0:3|0:0,0:0:0:0:
111,13,84009,6,0,P|134:37|141:75,1,60.0000022888184,0|0,1:0|0:0,0:0:0:0:
75,102,84222,2,0,P|52:78|45:40,1,60.0000022888184,4|0,0:3|0:0,0:0:0:0:
191,120,84435,6,0,L|174:177,1,60.0000022888184,2|0,0:0|0:0,0:0:0:0:
145,260,84648,1,4,0:3:0:0:
310,183,84860,6,0,L|326:240,1,60.0000022888184,0|0,1:0|0:0,0:0:0:0:
356,323,85073,1,2,1:2:0:0:
470,119,85286,6,2,B|422:152|359:147|307:130|268:96|272:-19|381:-32|463:2|461:93|390:181|336:197|273:177,1,480.000018310548,4|0,0:3|2:0,0:1:0:0:
309,182,86562,6,0,P|277:202|237:256,1,80,0|0,1:0|2:0,0:0:0:0:
158,343,86988,5,4,0:3:0:0:
145,300,87130,1,2,2:2:0:0:
113,332,87272,1,10,2:2:0:0:
140,326,87414,5,4,0:3:0:0:
121,254,87555,1,2,2:2:0:0:
46,249,87697,1,10,2:2:0:0:
177,202,87839,5,0,1:0:0:0:
255,95,88265,5,4,2:0:0:0:
42,40,88690,5,4,0:3:0:0:
449,44,95499,6,0,L|427:199,1,143.999995605469,4|2,0:3|2:2,0:0:0:0:
489,246,95818,2,0,P|459:266|424:267,1,71.9999978027344,0|0,0:0|1:0,0:0:0:0:
397,342,96031,2,0,P|364:326|346:296,1,71.9999978027344,2|0,2:0|0:0,0:0:0:0:
357,222,96243,1,2,2:0:0:0:
195,269,96456,5,2,2:0:0:0:
205,279,96562,2,0,L|216:356,1,71.9999978027344,0|0,2:0|2:0,0:0:0:0:
279,247,96775,2,0,L|289:175,1,71.9999978027344,0|0,1:0|0:0,0:0:0:0:
213,52,96988,2,0,L|224:129,1,71.9999978027344,2|0,2:0|0:0,0:0:0:0:
289,175,97201,6,0,P|237:147|167:186,1,143.999995605469,4|2,0:3|2:2,0:0:0:0:
84,165,97520,2,0,L|95:242,1,71.9999978027344,0|0,0:0|1:0,0:0:0:0:
23,271,97733,2,0,L|12:348,1,71.9999978027344,2|0,2:0|0:0,0:0:0:0:
85,374,97945,1,2,2:0:0:0:
256,253,98159,5,2,2:0:0:0:
233,227,98265,1,2,2:0:0:0:
222,260,98371,1,2,0:0:0:0:
239,247,98478,1,0,1:0:0:0:
343,384,98691,1,2,2:0:0:0:
485,144,98903,6,0,L|463:299,1,143.999995605469,4|2,0:3|2:2,0:0:0:0:
409,344,99222,2,0,P|388:314|387:279,1,71.9999978027344,0|0,0:0|1:0,0:0:0:0:
311,261,99435,2,0,P|326:228|356:210,1,71.9999978027344,2|0,2:0|0:0,0:0:0:0:
436,216,99648,1,2,2:0:0:0:
278,164,99860,5,2,2:0:0:0:
267,153,99967,2,0,L|256:75,1,71.9999978027344,0|0,2:0|2:0,0:0:0:0:
143,234,100180,2,0,L|154:156,1,71.9999978027344,0|0,1:0|0:0,0:0:0:0:
240,313,100392,2,0,L|229:235,1,71.9999978027344,2|0,2:0|0:0,0:0:0:0:
153,162,100605,6,0,P|94:199|31:171,1,143.999995605469,4|2,0:3|2:2,0:0:0:0:
76,50,100925,2,0,L|90:121,1,71.9999978027344,0|0,0:0|1:0,0:0:0:0:
162,81,101137,2,0,L|176:10,1,71.9999978027344,2|0,2:0|0:0,0:0:0:0:
248,50,101350,1,2,2:0:0:0:
258,60,101456,5,4,0:3:0:0:
388,150,101669,2,0,P|325:123|267:160,1,143.999995605469,0|0,0:0|2:0,0:0:0:0:
211,216,102094,1,10,2:0:0:0:
396,365,102307,5,0,1:0:0:0:
396,365,102733,1,4,0:3:0:0:
345,187,103052,1,0,2:0:0:0:
338,194,103158,2,0,L|238:213,1,95.9999970703126,4|0,0:3|1:0,0:0:0:0:
134,192,103584,1,4,0:3:0:0:
289,348,103797,6,0,P|235:297|152:302,1,143.999995605469,0|0,1:0|0:0,0:0:0:0:
119,355,104222,1,0,2:0:0:0:
35,224,104435,2,0,L|54:323,1,95.9999970703126,4|0,0:3|2:0,0:0:0:0:
134,192,104860,2,0,P|108:147|33:129,1,95.9999970703126,4|0,0:3|2:0,0:0:0:0:
24,62,105180,1,8,2:3:0:0:
16,68,105287,1,12,0:3:0:0:
9,74,105393,1,8,2:3:0:0:
4,83,105499,1,8,2:3:0:0:
201,100,105711,6,0,L|220:0,1,95.9999970703126,0|0,1:0|2:0,0:0:0:0:
282,66,106030,1,0,0:0:0:0:
290,71,106137,2,0,P|336:65|374:11,1,95.9999970703126,4|0,0:3|2:0,0:0:0:0:
444,9,106456,1,0,0:0:0:0:
441,0,106562,1,4,0:3:0:0:
327,157,106775,1,0,1:0:0:0:
464,255,106988,1,4,0:3:0:0:
250,294,107201,6,0,L|155:275,1,95.9999970703126,0|4,1:0|0:3,0:0:0:0:
68,305,107626,1,0,2:0:0:0:
221,203,107839,2,0,P|236:153|217:112,1,95.9999970703126,4|0,0:3|2:0,0:0:0:0:
41,0,108265,5,10,2:0:0:0:
0,79,108406,5,8,2:0:0:0:
32,142,108548,5,8,2:3:0:0:
6,192,108690,6,0,L|18:254,1,63.9999980468751,8|4,2:3|2:3,0:0:0:0:
1,286,108974,5,4,2:3:0:0:
80,326,109116,6,0,P|109:294|151:287,1,88.000002685547,4|0,0:3|0:0,0:0:0:0:
217,346,109435,1,0,2:0:0:0:
223,352,109541,2,0,L|239:265,1,88.000002685547,2|4,2:0|0:3,0:0:0:0:
292,203,109860,1,0,0:0:0:0:
285,196,109967,1,10,3:2:0:0:
374,334,110179,1,0,2:0:0:0:
476,241,110392,2,0,P|492:192|473:163,1,88.000002685547,4|4,0:3|0:3,0:0:0:0:
389,210,110818,5,4,0:3:0:0:
452,0,111030,1,4,0:3:0:0:
512,71,111243,2,0,L|426:89,1,88.000002685547,0|4,2:0|0:3,0:0:0:0:
292,203,111669,2,0,P|262:170|220:163,1,88.000002685547,4|0,0:3|0:0,0:0:0:0:
135,209,112094,1,4,0:3:0:0:
222,366,112307,1,8,2:0:0:0:
228,360,112414,1,8,2:0:0:0:
234,354,112520,6,0,L|215:268,1,88.000002685547,4|0,0:3|2:0,0:0:0:0:
147,326,112839,1,0,0:0:0:0:
141,332,112945,1,4,0:3:0:0:
309,293,113158,1,4,0:3:0:0:
375,222,113371,2,0,P|392:183|373:144,1,88.000002685547,10|2,3:2|2:0,0:0:0:0:
288,98,113796,1,2,2:0:0:0:
458,250,114009,1,4,0:3:0:0:
394,311,114222,6,0,L|308:292,1,88.000002685547,0|8,1:0|2:0,0:0:0:0:
251,222,114541,1,8,2:0:0:0:
244,229,114648,2,0,L|329:210,1,88.000002685547,0|8,1:0|2:0,0:0:0:0:
387,140,114967,1,8,2:0:0:0:
394,147,115073,5,0,1:0:0:0:
228,118,115285,5,0,1:0:0:0:
61,89,115499,6,0,P|13:117|9:173,1,117.333336914063,0|0,1:0|0:0,0:0:0:0:
101,168,115924,6,0,L|123:-4,1,143.999995605469,2|0,0:1|0:0,0:0:0:0:
45,0,116350,1,10,3:2:0:0:
195,111,116669,1,0,0:0:0:0:
201,117,116775,6,0,L|304:103,1,95.9999970703126,4|2,0:3|2:0,0:0:0:0:
385,64,117201,1,4,0:3:0:0:
240,229,117414,6,0,P|193:156|88:153,1,191.999994140625,10|2,2:1|2:0,0:0:0:0:
39,298,118052,1,4,0:3:0:0:
85,378,118265,1,2,2:0:0:0:
181,280,118477,5,4,0:3:0:0:
9,205,118690,1,0,2:0:0:0:
179,72,118903,2,0,L|282:86,1,95.9999970703126,4|8,0:3|2:0,0:0:0:0:
351,123,119222,1,8,2:0:0:0:
357,116,119328,5,2,0:1:0:0:
168,189,119541,1,0,2:0:0:0:
322,282,119754,5,10,3:1:0:0:
416,318,119967,1,0,2:0:0:0:
254,349,120180,6,0,P|213:318|147:319,1,95.9999970703126,4|2,0:3|2:0,0:0:0:0:
59,355,120605,1,4,0:3:0:0:
224,188,120818,1,10,2:0:0:0:
140,130,121031,6,8,L|126:233,1,95.9999970703126,2|2,0:1|2:0,0:0:0:0:
324,130,121456,2,0,P|323:73|284:45,1,95.9999970703126,4|2,0:3|2:0,0:0:0:0:
279,256,121882,2,0,P|346:205|425:198,1,143.999995605469,4|8,0:3|2:0,0:0:0:0:
481,159,122307,2,0,L|492:235,1,47.9999985351563,8|8,0:0|2:0,0:0:0:0:
383,302,122520,1,8,2:0:0:0:
382,312,122626,1,8,2:0:0:0:
380,322,122733,6,0,P|406:372|462:366,2,120,4|4|6,0:3|0:3|0:3,0:0:0:0:
274,215,123584,2,0,L|249:382,1,160,8|0,2:0|2:0,0:0:0:0:
24,304,124222,6,0,L|191:279,1,160,4|4,0:3|0:3,0:0:0:0:
274,215,124860,1,4,0:3:0:0:
274,215,125286,2,0,P|229:113|152:189,1,240,8|2,2:0|2:0,0:0:0:0:
224,290,126137,6,0,L|307:302,1,80,4|0,0:3|2:0,0:0:0:0:
370,205,126562,2,0,L|453:192,1,80,4|0,0:3|2:0,0:0:0:0:
213,31,126988,6,0,L|200:114,1,80,4|0,0:3|2:0,0:0:0:0:
296,125,127414,2,0,L|307:45,1,80,4|0,0:3|2:0,0:0:0:0:
117,163,127839,5,4,0:3:0:0:
245,378,128052,1,4,0:3:0:0:
424,340,128265,1,4,0:3:0:0:
296,125,128478,1,4,0:3:0:0:
271,252,128690,5,4,0:3:0:0:
421,185,128903,6,0,L|426:224,1,40,2|2,0:3|0:3,0:0:0:0:
423,169,129116,2,0,L|428:208,1,40,2|2,0:3|0:3,0:0:0:0:
425,153,129328,2,0,L|430:192,1,40,2|2,0:3|0:3,0:0:0:0:
427,137,129541,6,0,B|433:108|433:108|349:116|349:116|343:145,1,143.999995605469,4|0,0:3|2:0,0:0:0:0:
326,239,129860,1,0,2:0:0:0:
334,250,129967,2,0,B|361:286|361:286|253:244,1,143.999995605469,0|0,1:0|2:0,0:0:0:0:
114,361,130392,6,0,P|88:335|83:300,1,71.9999978027344,4|0,0:3|0:0,0:0:0:0:
165,263,130605,2,0,P|190:288|195:323,1,71.9999978027344,0|0,2:0|2:0,0:0:0:0:
91,154,130818,6,0,P|97:119|122:94,1,71.9999978027344,0|0,1:0|2:0,0:0:0:0:
209,116,131031,2,0,P|221:149|211:183,1,71.9999978027344,2|0,2:0|0:0,0:0:0:0:
334,250,131243,6,2,L|413:238,1,71.9999978027344,4|0,0:3|0:0,0:1:0:0:
375,156,131456,2,0,L|303:166,1,71.9999978027344,0|0,0:0|2:0,0:0:0:0:
206,357,131669,6,2,L|126:345,1,71.9999978027344,0|0,1:0|0:0,0:1:0:0:
165,263,131882,2,0,L|236:273,1,71.9999978027344,0|0,0:0|2:0,0:0:0:0:
201,366,132094,6,2,B|111:352|111:352|149:248|149:248|238:261,1,287.999991210938,4|0,0:3|1:0,0:1:0:0:
293,333,132733,1,0,0:0:0:0:
249,114,132946,6,0,P|222:133|205:180,1,71.9999978027344,4|0,0:3|2:0,0:0:0:0:
289,191,133158,2,0,P|293:226|314:255,1,71.9999978027344,2|0,2:0|2:0,0:0:0:0:
411,128,133371,2,0,P|381:114|331:122,1,71.9999978027344,0|0,1:0|2:0,0:0:0:0:
368,195,133584,1,2,2:0:0:0:
476,59,133797,6,0,L|456:201,1,143.999995605469,4|2,0:3|2:0,0:0:0:0:
405,337,134116,1,0,2:0:0:0:
415,347,134222,2,0,L|405:276,1,71.9999978027344,0|0,1:0|2:0,0:0:0:0:
368,195,134435,1,2,2:0:0:0:
224,322,134648,6,0,P|256:336|291:332,1,71.9999978027344,4|0,0:3|0:0,0:0:0:0:
145,317,134860,2,0,P|149:352|170:381,1,71.9999978027344,0|0,2:0|0:0,0:0:0:0:
109,246,135073,2,0,P|80:266|66:299,1,71.9999978027344,0|0,1:0|0:0,0:0:0:0:
189,247,135286,1,0,2:0:0:0:
25,130,135499,6,0,B|116:144|116:144|128:160|128:160|232:174,1,215.999993408203,4|0,0:3|2:0,0:0:0:0:
230,64,135924,1,0,1:0:0:0:
226,53,136031,1,8,2:3:0:0:
222,42,136137,1,8,2:3:0:0:
218,31,136244,1,8,2:3:0:0:
213,20,136350,6,0,L|196:128,1,71.9999978027344,4|0,0:3|0:0,0:0:0:0:
327,114,136563,2,0,L|468:88,1,143.999995605469,2|0,2:0|1:0,0:0:0:0:
288,219,136988,6,0,L|232:173,1,71.9999978027344,2|2,2:0|0:0,0:0:0:0:
385,199,137201,2,0,L|373:270,1,71.9999978027344,4|0,0:3|0:0,0:0:0:0:
243,297,137414,2,0,L|108:245,1,143.999995605469,2|0,2:0|1:0,0:0:0:0:
231,172,137839,1,2,2:0:0:0:
32,177,138052,6,0,P|6:151|1:116,1,71.9999978027344,4|0,0:3|0:0,0:0:0:0:
83,79,138265,2,0,P|108:104|113:139,1,71.9999978027344,0|0,2:0|0:0,0:0:0:0:
77,305,138478,6,0,P|83:270|108:245,1,71.9999978027344,0|0,1:0|0:0,0:0:0:0:
195,267,138691,2,0,P|207:300|197:334,1,71.9999978027344,2|0,2:0|0:0,0:0:0:0:
112,139,138903,5,4,0:3:0:0:
231,172,139116,2,0,L|257:105,1,71.9999978027344,2|0,2:0|0:0,0:0:0:0:
343,70,139328,2,0,L|317:2,1,71.9999978027344,0|0,1:0|0:0,0:0:0:0:
406,174,139541,2,0,L|432:106,1,71.9999978027344,0|0,0:0|2:0,0:0:0:0:
512,63,139754,5,4,0:3:0:0:
379,269,139967,1,2,2:1:0:0:
379,269,140179,2,0,B|326:273|308:209|344:169|407:161|451:184|490:237|461:327,1,287.999991210938,0|4,1:0|0:3,0:0:0:0:
301,368,140818,6,0,L|217:387,1,71.9999978027344,10|2,2:0|2:0,0:0:0:0:
207,209,141031,2,0,L|222:280,1,71.9999978027344,0|0,1:0|0:0,0:0:0:0:
70,319,141243,2,0,L|140:334,1,71.9999978027344,2|0,2:0|0:0,0:0:0:0:
206,208,141456,6,0,P|170:149|101:146,1,143.999995605469,4|0,0:3|2:0,0:0:0:0:
41,58,141775,1,0,0:0:0:0:
52,67,141882,2,0,P|121:63|157:4,1,143.999995605469,10|0,3:1|3:0,0:0:0:0:
321,0,142308,6,0,P|310:33|305:72,1,71.9999978027344,4|0,0:3|0:0,0:0:0:0:
409,168,142520,1,10,2:1:0:0:
423,165,142626,1,0,0:0:0:0:
437,162,142733,2,1,L|365:146,1,71.9999978027344,2|8,3:1|2:3,0:0:0:0:
235,225,142945,2,0,L|307:209,1,71.9999978027344,8|4,2:3|0:3,0:0:0:0:
510,345,143158,6,0,B|419:331|419:331|407:315|407:315|303:301,1,215.999993408203,4|0,0:3|2:0,0:0:0:0:
188,360,143584,2,0,B|225:381|225:381|193:284,1,143.999995605469,0|0,1:0|2:0,0:0:0:0:
336,149,144009,6,0,P|330:184|305:209,1,71.9999978027344,4|0,0:3|2:0,0:0:0:0:
224,171,144222,2,0,P|228:136|254:111,1,71.9999978027344,2|0,2:0|2:0,0:0:0:0:
455,76,144435,6,0,P|449:111|424:136,1,71.9999978027344,0|0,1:0|0:0,0:0:0:0:
330,56,144648,2,0,P|351:27|385:17,1,71.9999978027344,2|0,2:0|2:0,0:0:0:0:
224,171,144860,6,2,L|212:99,1,71.9999978027344,4|0,0:3|0:0,0:1:0:0:
122,96,145073,2,0,L|134:167,1,71.9999978027344
158,332,145286,6,2,L|170:261,1,71.9999978027344,0|0,1:0|0:0,0:1:0:0:
258,258,145499,2,0,L|246:329,1,71.9999978027344
146,327,145711,6,2,B|160:242|160:242|271:238|271:238|257:328,1,287.999991210938,4|0,0:3|1:0,0:1:0:0:
364,384,146350,1,2,2:0:0:0:
429,215,146563,6,0,P|419:180|393:156,1,71.9999978027344,4|0,0:3|0:0,0:0:0:0:
427,77,146775,2,0,P|392:68|358:78,1,71.9999978027344,2|2,2:0|2:0,0:0:0:0:
272,84,146988,2,0,P|281:118|307:142,1,71.9999978027344,0|0,1:0|0:0,0:0:0:0:
342,223,147201,1,2,2:0:0:0:
272,83,147414,6,0,B|252:44|252:44|127:65|127:65|147:105,1,215.999993408203,4|0,0:3|0:0,0:0:0:0:
138,188,147839,2,0,P|103:178|79:152,1,71.9999978027344,0|0,1:0|0:0,0:0:0:0:
45,80,148052,1,2,2:0:0:0:
218,155,148265,6,0,P|226:189|216:223,1,71.9999978027344,4|0,0:3|2:0,0:0:0:0:
275,285,148477,2,0,P|300:260|335:251,1,71.9999978027344,2|0,2:0|2:0,0:0:0:0:
359,170,148690,2,0,P|324:160|300:134,1,71.9999978027344,0|0,1:0|2:0,0:0:0:0:
322,42,148903,1,2,2:0:0:0:
489,157,149116,6,2,B|501:275|435:229|419:354,1,215.999993408203,4|0,0:3|2:0,0:1:0:0:
318,378,149542,5,0,1:0:0:0:
304,376,149648,1,0,3:0:0:0:
290,374,149755,1,2,3:0:0:0:
276,372,149860,1,8,2:0:0:0:
262,370,149967,2,0,L|156:352,1,71.9999978027344,4|0,0:3|0:0,0:0:0:0:
62,259,150179,2,0,B|28:289|28:289|126:271,1,143.999995605469,2|0,2:0|1:0,0:0:0:0:
302,207,150605,5,4,0:3:0:0:
288,205,150710,1,0,0:0:0:0:
274,203,150817,2,0,L|168:185,1,71.9999978027344,2|0,2:0|0:0,0:0:0:0:
74,92,151031,2,0,B|40:122|40:122|138:104,1,143.999995605469,4|0,0:3|1:0,0:0:0:0:
210,26,151456,1,2,2:0:0:0:
363,137,151669,6,0,P|386:161|393:199,1,71.9999978027344,4|0,0:3|0:0,0:0:0:0:
475,217,151882,2,0,P|465:248|363:279,1,143.999995605469,8|0,0:3|1:0,0:0:0:0:
309,61,152307,6,0,P|286:85|279:123,1,71.9999978027344,4|0,0:3|0:0,0:0:0:0:
197,141,152520,2,0,P|206:172|309:203,1,143.999995605469,2|4,0:0|0:3,0:0:0:0:
370,282,152839,1,0,0:0:0:0:
355,284,152945,2,0,L|284:296,1,71.9999978027344,0|0,1:0|0:0,0:0:0:0:
203,312,153159,1,2,1:2:0:0:
382,139,153371,6,2,B|430:111|466:50|466:50|447:129|378:167|378:167|337:101|256:96|256:96|211:155|137:180|137:180|82:126|-6:135,1,719.999978027344,4|4,0:3|0:3,0:1:0:0:
148,98,154648,2,0,P|187:164|202:254,1,143.999995605469,0|0,1:0|2:0,0:0:0:0:
267,305,154967,5,0,0:0:0:0:
269,290,155073,2,0,L|282:219,1,71.9999978027344,4|0,0:3|0:0,0:0:0:0:
371,234,155286,2,0,L|359:163,1,71.9999978027344,4|0,0:3|0:0,0:0:0:0:
499,135,155499,6,0,L|486:64,1,71.9999978027344,0|0,1:0|0:0,0:0:0:0:
397,79,155712,2,0,L|409:8,1,71.9999978027344,8|0,3:2|0:0,0:0:0:0:
230,95,155924,6,0,P|236:130|260:156,1,71.9999978027344,4|0,0:3|0:0,0:0:0:0:
179,21,156137,2,0,P|151:43|141:77,1,71.9999978027344,4|0,0:3|0:0,0:0:0:0:
56,86,156350,1,8,2:0:0:0:
56,103,156456,1,8,2:0:0:0:
62,120,156562,1,8,2:3:0:0:
72,135,156669,1,8,2:0:0:0:
86,147,156775,5,4,0:3:0:0:
374,83,158265,5,4,0:3:0:0:
467,363,158690,1,4,0:3:0:0:
347,244,158903,1,4,0:3:0:0:
512,0,160179,5,4,0:3:0:0:
91,171,161669,5,4,0:3:0:0:
285,384,162094,1,4,0:3:0:0:
238,215,162307,1,4,0:3:0:0:
32,366,162733,2,2,P|17:329|33:294,1,80,0|8,2:0|2:0,0:1:0:0:
88,249,163052,1,8,2:0:0:0:
93,243,163158,5,10,2:3:0:0:
103,226,163264,1,8,2:3:0:0:
107,206,163370,1,6,2:3:0:0:
103,187,163477,1,4,2:3:0:0:
91,171,163584,6,0,L|80:124,1,47.9999985351563,4|0,0:3|0:0,0:0:0:0:
150,62,163797,2,0,L|173:20,1,47.9999985351563,2|0,2:0|2:0,0:0:0:0:
193,194,164009,6,0,L|182:147,1,47.9999985351563,4|0,0:3|2:0,0:0:0:0:
251,84,164222,2,0,L|297:0,1,95.9999970703126,2|4,2:0|0:3,0:0:0:0:
461,91,164648,5,4,2:3:0:0:
441,104,164754,1,4,2:3:0:0:
417,108,164860,1,8,3:3:0:0:
394,103,164967,1,8,2:3:0:0:
375,89,165073,1,4,2:3:0:0:
496,220,165286,6,0,L|506:266,1,47.9999985351563,4|0,0:3|2:0,0:0:0:0:
436,328,165499,2,0,L|413:370,1,47.9999985351563,2|0,2:0|2:0,0:0:0:0:
411,197,165711,6,0,L|421:243,1,47.9999985351563,4|0,0:3|2:0,0:0:0:0:
351,305,165924,2,0,L|328:347,1,47.9999985351563,2|0,2:0|2:0,0:0:0:0:
314,190,166137,6,0,L|324:143,1,47.9999985351563,4|0,0:3|0:0,0:0:0:0:
254,82,166350,1,4,2:3:0:0:
242,60,166456,1,4,2:3:0:0:
231,39,166562,5,10,3:3:0:0:
208,81,166668,1,8,2:3:0:0:
185,123,166774,1,6,2:3:0:0:
86,349,166988,6,0,L|63:306,1,47.9999985351563,4|0,0:3|2:0,0:0:0:0:
15,236,167201,2,0,L|25:189,1,47.9999985351563,2|0,2:0|0:0,0:0:0:0:
175,342,167414,6,0,L|152:299,1,47.9999985351563,4|0,0:3|0:0,0:0:0:0:
103,229,167627,2,0,L|124:135,1,95.9999970703126,2|4,2:0|0:3,0:0:0:0:
293,199,168052,5,4,2:3:0:0:
273,212,168158,1,4,2:3:0:0:
249,216,168264,1,8,3:3:0:0:
226,211,168371,1,8,2:3:0:0:
207,197,168477,1,4,2:3:0:0:
395,46,168690,6,0,L|417:88,1,47.9999985351563,4|0,0:3|0:0,0:0:0:0:
488,149,168903,2,0,L|477:195,1,47.9999985351563,2|0,2:0|0:0,0:0:0:0:
310,69,169115,6,0,L|332:111,1,47.9999985351563,4|0,0:3|0:0,0:0:0:0:
403,172,169328,2,0,L|392:218,1,47.9999985351563,2|0,2:0|0:0,0:0:0:0:
232,105,169541,6,0,L|221:58,1,47.9999985351563,4|0,0:3|0:0,0:0:0:0:
161,166,169754,1,6,2:3:0:0:
150,187,169860,1,4,2:3:0:0:
139,209,169967,5,10,3:3:0:0:
116,166,170073,1,8,2:3:0:0:
93,124,170179,1,6,2:3:0:0:
169,281,170392,6,2,L|153:348,2,69.3333301595054,4|0|0,0:3|2:0|2:0,0:1:0:0:
295,255,170818,6,0,L|279:187,2,69.3333301595054,10|2|2,0:1|2:1|2:1,0:0:0:0:
436,287,171243,6,0,L|420:354,1,69.3333301595054,10|0,0:1|0:0,0:0:0:0:
420,354,171456,1,0,0:0:0:0:
420,354,171527,1,0,2:0:0:0:
461,263,171669,5,4,0:3:0:0:
485,238,171811,2,0,L|469:170,1,69.3333301595054,0|0,2:0|2:0,0:0:0:0:
463,54,172094,5,4,0:3:0:0:
404,103,172236,1,0,2:0:0:0:
328,95,172378,1,0,2:0:0:0:
274,41,172520,5,10,0:1:0:0:
199,33,172662,1,2,2:1:0:0:
140,82,172804,1,2,2:1:0:0:
51,92,172945,6,0,L|66:24,1,69.3333301595054,10|0,0:1|0:0,0:0:0:0:
66,24,173158,1,0,0:0:0:0:
66,24,173229,1,0,0:0:0:0:
27,117,173371,5,4,0:3:0:0:
17,208,173513,2,0,L|2:141,1,69.3333301595054,0|0,2:0|2:0,0:0:0:0:
71,358,173797,6,2,P|104:357|134:339,1,69.3333301595054,4|2,0:3|0:1,0:1:0:0:
134,338,174009,2,2,L|178:345,1,34.6666650797527,4|2,0:3|0:1,0:1:0:0:
328,269,174222,6,0,P|294:268|265:250,1,69.3333301595054,10|2,3:1|0:1,0:0:0:0:
264,249,174435,1,4,0:3:0:0:
264,249,174506,2,0,L|220:256,1,34.6666650797527,2|0,2:1|0:0,0:0:0:0:
169,167,174648,6,0,P|135:166|106:148,1,69.3333301595054,10|0,0:1|2:0,0:0:0:0:
105,147,174860,2,0,L|61:154,1,34.6666650797527,4|0,0:3|2:0,0:0:0:0:
215,75,175073,6,0,P|249:74|278:56,1,69.3333301595054,4|0,0:3|2:0,0:0:0:0:
278,55,175286,1,4,0:3:0:0:
278,55,175357,2,0,L|322:62,1,34.6666650797527,0|0,2:0|0:0,0:0:0:0:
426,0,175499,5,4,1:0:0:0:
480,52,175640,1,2,0:1:0:0:
472,127,175782,1,2,2:1:0:0:
400,154,175924,5,10,3:1:0:0:
346,206,176065,1,2,0:1:0:0:
354,281,176207,1,2,2:1:0:0:
433,329,176350,6,0,L|448:261,1,69.3333301595054,10|0,0:1|0:0,0:0:0:0:
448,261,176562,1,0,0:0:0:0:
448,261,176633,1,0,2:0:0:0:
360,357,176775,5,8,2:3:0:0:
334,358,176881,1,8,2:3:0:0:
308,360,176987,1,4,2:3:0:0:
282,362,177094,1,4,2:3:0:0:
256,364,177200,1,4,0:0:0:0:
471,360,190818,5,4,0:3:0:0:
315,249,191031,2,0,B|277:229|277:229|308:231,1,60.0000022888184,0|0,2:0|2:0,0:0:0:0:
404,258,191243,2,0,B|394:303|394:303|381:317|381:317|368:392,1,120.000004577637,0|0,1:0|2:0,0:0:0:0:
512,267,191669,2,0,B|502:213|502:213|489:199|489:199|479:154,1,120.000004577637,4|0,0:3|2:0,0:0:0:0:
498,116,191988,1,0,2:0:0:0:
471,83,192094,2,0,B|432:97|432:97|351:77,1,120.000004577637,0|0,1:0|2:0,0:0:0:0:
331,43,192414,1,0,2:0:0:0:
372,51,192520,6,0,L|339:185,1,120.000004577637,4|0,0:3|2:0,0:0:0:0:
322,180,192839,1,0,2:0:0:0:
312,188,192945,1,0,1:0:0:0:
142,54,193158,1,0,2:0:0:0:
142,54,193371,6,0,L|155:112,1,60.0000022888184,4|0,0:3|2:0,0:0:0:0:
238,155,193584,2,0,L|251:96,1,60.0000022888184,2|0,2:0|2:0,0:0:0:0:
69,127,193797,1,0,1:0:0:0:
72,142,193903,1,0,2:0:0:0:
75,158,194009,1,0,2:0:0:0:
79,174,194116,1,0,2:0:0:0:
83,190,194222,1,4,0:3:0:0:
21,350,194435,6,0,B|18:318|18:318|38:290,1,60.0000022888184,0|0,2:0|2:0,0:0:0:0:
104,344,194648,2,0,B|136:358|136:358|223:345,1,120.000004577637,0|0,1:0|2:0,0:0:0:0:
364,297,195073,1,4,0:3:0:0:
314,264,195179,1,0,2:0:0:0:
347,213,195286,1,2,2:0:0:0:
303,171,195392,1,0,2:0:0:0:
338,121,195499,2,0,L|401:128,1,60.0000022888184,0|0,1:0|0:0,0:0:0:0:
497,235,195711,2,0,L|437:241,1,60.0000022888184,0|0,2:0|2:0,0:0:0:0:
270,54,195924,5,4,0:3:0:0:
480,18,196137,1,0,0:0:0:0:
480,18,196243,1,0,0:0:0:0:
480,18,196350,2,0,B|481:36|481:36|472:90,1,60.0000022888184,0|0,1:0|0:0,0:0:0:0:
414,144,196562,2,0,B|412:178|412:178|429:280,1,120.000004577637,0|4,0:0|0:3,0:0:0:0:
452,317,196882,1,0,2:0:0:0:
409,359,196988,2,0,L|308:343,1,60.0000022888184,0|0,2:0|2:0,0:0:0:0:
168,298,197201,2,0,P|167:192|315:249,1,320,0|4,1:0|0:3,0:0:0:0:
315,244,198052,6,0,B|282:244|282:244|273:238|273:238|234:238,1,75.9999979705811,2|0,1:0|0:0,0:0:0:0:
25,268,198264,1,0,2:0:0:0:
11,306,198371,1,0,2:0:0:0:
38,338,198477,6,0,B|65:369|65:369|87:171,1,191.999994140625,6|0,0:3|2:0,0:0:0:0:
43,48,198797,1,0,2:0:0:0:
93,124,198903,2,0,B|77:122|77:122|17:136,1,75.9999979705811,2|0,1:0|0:0,0:0:0:0:
173,10,199116,1,0,2:0:0:0:
217,33,199222,1,0,2:0:0:0:
243,55,199328,6,0,B|284:68|323:46|323:46|331:33|331:33|369:9|420:31,1,191.999994140625,4|2,0:3|2:0,0:0:0:0:
470,181,199648,1,0,2:0:0:0:
375,191,199754,2,0,L|390:116,1,75.9999979705811,2|0,1:0|0:0,0:0:0:0:
321,303,199967,1,2,2:0:0:0:
355,335,200073,1,0,2:0:0:0:
398,356,200179,6,0,B|433:385|470:355|470:355|463:296|428:260|343:267,1,191.999994140625,4|2,0:3|2:0,0:0:0:0:
248,365,200499,1,0,2:0:0:0:
178,318,200605,2,0,L|162:243,1,75.9999979705811,2|0,1:0|0:0,0:0:0:0:
189,79,200818,1,2,2:0:0:0:
235,67,200924,1,0,2:0:0:0:
274,90,201031,6,0,B|308:124|308:124|247:201|247:201|204:166,1,191.999994140625,4|2,0:3|2:0,0:0:0:0:
118,120,201350,1,0,2:0:0:0:
45,89,201456,2,0,B|-24:72|-39:165|65:219,1,151.999995941162,2|2,1:0|2:0,0:0:0:0:
105,344,201775,1,0,2:0:0:0:
75,342,201882,6,0,B|94:308|94:308|210:344|210:344|235:291,1,191.999994140625,4|2,0:3|2:0,0:0:0:0:
295,228,202201,1,0,2:0:0:0:
311,211,202307,1,2,1:0:0:0:
359,269,202413,1,0,2:0:0:0:
411,324,202519,1,2,2:0:0:0:
467,375,202626,1,0,2:0:0:0:
493,356,202733,6,0,B|494:324|494:324|482:296|482:296|488:261|488:261|525:219|525:219|519:172,1,191.999994140625,4|2,0:3|2:0,0:0:0:0:
496,109,203052,1,0,2:0:0:0:
419,139,203158,2,0,B|378:151|378:151|407:40,1,151.999995941162,2|2,1:0|2:0,0:0:0:0:
288,0,203477,1,0,2:0:0:0:
222,60,203584,6,0,L|240:133,1,75.9999979705811,2|0,0:1|2:0,0:0:0:0:
101,225,203797,2,0,L|119:152,1,75.9999979705811,2|0,2:1|2:0,0:0:0:0:
251,74,204009,2,0,L|303:286,1,151.999995941162,2|0,1:0|2:0,0:0:0:0:
329,364,204435,5,4,0:3:0:0:
329,364,204648,5,4,0:3:0:0:
329,364,204860,5,4,0:3:0:0:
329,364,205073,5,4,0:3:0:0:
329,364,205286,6,2,B|284:198|211:395|68:330|15:190|103:66|232:75|245:239,1,531.999985794068,4|0,0:3|2:1,0:1:0:0:
236,195,206137,6,0,P|283:173|338:184,1,95.9999970703126,4|0,0:3|0:0,0:0:0:0:
347,97,206562,2,0,P|389:126|407:179,1,95.9999970703126,4|0,0:3|0:0,0:0:0:0:
487,144,206988,2,0,P|482:195|445:237,1,95.9999970703126,4|0,0:3|0:0,0:0:0:0:
365,274,207413,1,4,0:3:0:0:
365,274,207626,1,0,0:0:0:0:
310,356,207839,6,0,L|245:342,1,47.9999985351563,4|0,0:3|0:0,0:0:0:0:
196,259,208052,2,0,L|250:247,1,47.9999985351563
155,340,208265,1,4,0:3:0:0:
64,303,208477,1,0,0:0:0:0:
86,195,208690,2,0,P|102:278|125:417,1,191.999994140625,4|4,0:3|0:3,0:0:0:0:
146,53,209328,5,0,2:0:0:0:
146,53,209541,6,0,P|122:50|99:57,1,47.9999985351563,4|0,0:3|0:0,0:0:0:0:
151,141,209754,2,0,P|174:143|197:136,1,47.9999985351563,0|0,2:0|0:0,0:0:0:0:
312,69,209967,2,0,P|289:62|265:64,1,47.9999985351563,4|0,0:3|0:0,0:0:0:0:
297,164,210180,2,0,P|319:170|343:168,1,47.9999985351563,0|0,2:0|0:0,0:0:0:0:
417,46,210392,6,0,L|412:93,1,47.9999985351563,4|0,0:3|0:0,0:0:0:0:
467,215,210604,2,0,L|472:168,1,47.9999985351563,0|0,2:0|0:0,0:0:0:0:
413,291,210818,2,0,L|366:287,1,47.9999985351563,4|0,0:3|0:0,0:0:0:0:
277,368,211031,2,0,L|324:363,1,47.9999985351563,0|0,2:0|0:0,0:0:0:0:
466,373,211243,5,4,0:3:0:0:
481,376,211456,1,0,2:0:0:0:
280,285,211669,1,4,0:3:0:0:
198,356,211882,1,0,2:0:0:0:
105,233,212094,2,0,B|97:213|109:137|236:176|174:299,1,191.999994140625,4|4,0:3|0:3,0:0:0:0:
185,275,212733,1,0,2:0:0:0:
193,111,212945,6,0,P|123:99|114:101,1,47.9999985351563,4|0,0:3|0:0,0:0:0:0:
268,38,213158,2,0,P|356:37|485:57,1,191.999994140625
319,174,213797,6,0,P|281:128|280:117,1,47.9999985351563,2|0,2:0|0:0,0:0:0:0:
416,139,214010,2,0,P|436:207|329:275,1,191.999994140625
353,278,214648,6,0,L|361:325,1,47.9999985351563,2|0,2:0|0:0,0:0:0:0:
453,371,214860,2,0,L|462:323,1,47.9999985351563
269,314,215073,2,0,L|260:267,1,47.9999985351563
149,358,215285,2,0,L|158:310,1,47.9999985351563
185,213,215499,5,0,2:0:0:0:
73,256,215711,1,0,0:0:0:0:
156,104,215924,1,0,2:0:0:0:
175,108,216030,1,0,2:0:0:0:
170,128,216137,1,0,2:0:0:0:
150,123,216243,1,0,2:0:0:0:
163,116,216350,6,0,L|232:104,1,47.9999985351563,4|0,0:3|0:0,0:0:0:0:
344,125,216562,2,0,P|203:99|61:77,1,287.999991210938
446,127,217839,5,0,2:0:0:0:
446,127,217910,5,8,2:3:0:0:
446,127,217981,5,8,2:3:0:0:
446,127,218052,2,0,L|426:199,1,63.9999980468751,6|4,2:3|2:3,0:0:0:0:
402,277,218336,1,4,2:3:0:0:
289,226,218477,5,6,2:3:0:0:
311,302,218619,1,4,2:3:0:0:
334,379,218761,1,4,2:3:0:0:
471,340,218903,5,12,2:2:0:0:
350,137,219116,1,0,0:0:0:0:
337,136,219187,2,0,L|292:128,2,31.9999990234375,8|8|6,2:3|2:3|2:3,0:3:0:0:
200,158,219541,1,2,2:0:0:0:
200,158,219754,6,0,B|222:131|222:131|194:315,1,192,4|0,0:3|2:0,0:0:0:0:
100,325,220179,6,0,B|77:170|77:170|99:197,1,192,0|0,1:0|2:0,0:0:0:0:
76,200,220605,6,0,P|-1:193|-6:192,1,64,2|0,2:2|2:0,0:0:0:0:
21,82,220818,2,0,P|98:89|103:90,1,64,4|0,0:3|2:0,0:0:0:0:
299,153,221031,6,0,P|376:146|381:145,1,64,0|0,1:0|0:0,0:0:0:0:
354,35,221244,2,0,P|277:42|272:43,1,64,2|0,2:0|2:0,0:0:0:0:
435,209,221456,6,2,P|452:148|425:99,1,64,4|0,0:3|0:0,1:0:0:0:
329,258,221669,2,0,P|331:289|346:317,1,64,4|0,0:3|0:0,0:0:0:0:
452,216,221882,6,2,P|466:187|469:156,1,64,0|0,1:0|0:0,1:0:0:0:
313,262,222094,2,2,P|315:293|330:321,1,64,2|0,2:0|0:0,1:0:0:0:
511,320,222307,6,2,B|445:273|380:316|400:341|339:382|276:338,1,256,2|0,2:2|1:0,1:0:0:0:
185,282,222945,1,2,2:0:0:0:
185,282,223158,6,0,P|157:298|127:310,1,64,4|0,0:3|0:0,0:0:0:0:
83,160,223371,2,0,P|110:175|135:195,1,64,4|0,0:3|2:0,0:0:0:0:
29,310,223584,2,0,P|28:278|33:246,1,64,0|0,1:0|0:0,0:0:0:0:
135,85,223797,1,2,2:0:0:0:
135,85,224009,6,0,P|59:50|-15:27,1,128,2|4,2:2|0:3,0:0:0:0:
285,119,224435,6,0,P|255:129|226:143,1,64,0|0,1:0|0:0,0:0:0:0:
369,36,224648,2,0,P|302:11|294:9,1,64,2|0,2:0|2:0,0:0:0:0:
475,103,224860,6,2,P|500:36|502:28,1,64,4|0,0:3|2:0,1:0:0:0:
389,187,225073,2,2,P|399:217|411:246,1,64,4|4,0:3|0:3,1:0:0:0:
490,364,225286,6,2,P|500:334|512:305,1,64,0|0,1:0|2:0,1:0:0:0:
308,277,225499,2,2,P|298:247|286:218,1,64,4|0,0:3|2:0,1:0:0:0:
504,130,225711,6,0,P|450:247|403:364,1,256,2|0,2:1|1:0,0:0:0:0:
189,273,226350,5,2,2:0:0:0:
201,280,226456,1,8,2:0:0:0:
213,293,226562,2,0,P|226:325|236:363,1,64,4|0,0:3|0:0,0:0:0:0:
98,177,226775,2,0,P|86:239|79:304,1,128,2|0,2:0|1:0,0:0:0:0:
194,96,227201,5,4,0:3:0:0:
206,103,227307,1,0,0:0:0:0:
218,116,227413,2,0,P|231:148|241:186,1,64,2|0,2:0|0:0,0:0:0:0:
46,6,227626,2,0,P|33:68|26:132,1,128,4|0,0:3|1:0,0:0:0:0:
26,132,228052,1,2,2:0:0:0:
153,19,228265,6,0,P|194:8|263:17,1,64,4|0,0:3|0:0,0:0:0:0:
292,69,228477,2,0,P|333:80|402:71,1,64,0|4,1:2|0:3,0:0:0:0:
472,0,228690,6,0,P|461:41|470:110,1,64,0|0,1:0|0:0,0:0:0:0:
481,215,228903,1,4,0:3:0:0:
308,87,229116,6,0,P|319:128|310:197,1,64,2|0,0:0|0:0,0:0:0:0:
299,302,229329,1,4,0:3:0:0:
491,320,229541,6,0,P|469:297|439:285,1,64,0|0,1:0|0:0,0:0:0:0:
307,384,229754,2,0,P|337:376|362:356,1,64,2|0,1:2|0:0,0:0:0:0:
319,225,229967,6,0,B|258:210|209:253|240:290|169:343|100:288,1,215.999993408203,4|4,0:3|0:3,0:0:0:0:
66,246,230392,1,0,1:0:0:0:
41,204,230499,1,2,0:0:0:0:
73,167,230605,1,4,0:3:0:0:
38,121,230711,1,2,0:0:0:0:
75,81,230818,1,2,2:0:0:0:
269,88,231031,5,4,0:3:0:0:
269,88,231137,1,2,0:0:0:0:
269,88,231243,2,0,B|251:31|195:28|128:150|131:266|196:284|239:242,1,311.999985717774,0|0,1:0|0:0,0:0:0:0:
301,188,231669,5,4,0:3:0:0:
495,326,231882,1,2,2:1:0:0:
495,326,231988,1,4,0:3:0:0:
495,326,232094,1,0,1:0:0:0:
309,337,232307,1,4,0:3:0:0:
430,167,232520,5,0,1:0:0:0:
512,138,232733,1,8,2:3:0:0:
512,223,232945,1,0,1:0:0:0:
430,242,233158,1,0,0:0:0:0:
420,251,233265,1,4,2:3:0:0:
410,259,233371,6,0,P|418:218|425:171,1,60.0000022888184,4|0,0:3|0:0,0:0:0:0:
209,289,233584,2,0,P|214:318|219:347,1,60.0000022888184,2|0,2:1|2:0,0:0:0:0:
378,384,233797,2,0,P|366:338|293:298,1,120.000004577637,0|0,1:0|0:0,0:0:0:0:
132,352,234116,6,0,P|65:366|49:362,1,60.0000022888184,2|4,2:0|0:3,0:0:0:0:
32,250,234328,1,2,2:0:0:0:
62,238,234435,2,0,P|76:171|72:155,1,60.0000022888184,0|0,2:0|2:0,0:0:0:0:
0,62,234648,2,0,P|51:107|66:112,1,60.0000022888184,0|0,1:0|0:0,0:0:0:0:
139,110,234860,2,0,P|166:97|195:94,1,60.0000022888184,2|0,2:0|0:0,0:0:0:0:
324,123,235073,5,4,0:3:0:0:
324,123,235286,2,0,B|302:96|302:96|315:36|315:36|358:29,1,120.000004577637,2|0,2:1|1:0,0:0:0:0:
412,104,235605,2,0,L|432:197,1,60.0000022888184,2|0,2:0|0:0,0:0:0:0:
512,0,235818,2,0,L|499:58,1,60.0000022888184,2|4,2:0|0:3,0:0:0:0:
463,246,236031,5,2,2:0:0:0:
459,253,236137,2,0,P|468:319|479:329,1,60.0000022888184,2|2,2:0|2:0,0:0:0:0:
370,372,236350,2,0,P|341:365|318:345,1,60.0000022888184,0|0,1:0|0:0,0:0:0:0:
356,212,236562,2,0,P|327:221|307:243,1,60.0000022888184,2|0,2:0|0:0,0:0:0:0:
188,356,236775,6,0,P|189:273|96:298,1,180.000006866455,4|0,0:3|2:0,0:0:0:0:
22,340,237201,2,0,P|12:307|1:237,1,60.0000022888184,0|0,1:0|0:0,0:0:0:0:
166,135,237414,1,0,0:0:0:0:
169,154,237520,1,2,2:0:0:0:
164,172,237626,2,0,P|106:162|45:155,1,120.000004577637,4|0,0:3|2:0,0:0:0:0:
0,43,238052,1,0,1:0:0:0:
186,29,238265,1,2,2:0:0:0:
186,29,238371,1,0,2:0:0:0:
186,29,238477,6,0,B|186:8|186:8|165:41,1,60.0000022888184,4|0,0:3|0:0,0:0:0:0:
243,93,238690,2,0,B|271:86|271:86|326:117|326:117|355:110,1,120.000004577637,2|0,2:1|1:0,0:0:0:0:
410,18,239009,2,0,L|339:33,1,60.0000022888184,2|0,2:0|0:0,0:0:0:0:
252,170,239222,1,2,2:0:0:0:
245,180,239328,1,4,0:3:0:0:
376,292,239541,6,0,L|353:217,1,60.0000022888184,2|0,1:0|2:0,0:0:0:0:
446,99,239754,2,0,L|408:359,1,240.000009155274,0|4,1:0|0:3,0:0:0:0:
408,364,240392,5,6,1:0:0:0:
52,225,240605,1,6,1:0:0:0:
52,225,241031,5,2,1:2:0:0:
148,278,241137,2,0,L|162:337,1,60.0000022888184,10|0,2:0|2:0,0:0:0:0:
107,69,241350,1,2,1:2:0:0:
85,81,241456,2,0,L|71:139,1,60.0000022888184,10|0,2:0|2:0,0:0:0:0:
78,363,241669,2,0,L|64:304,1,60.0000022888184,2|2,1:2|2:0,0:0:0:0:
61,294,242094,5,6,1:0:0:0:
485,257,242307,1,6,1:0:0:0:
485,257,242733,5,0,1:2:0:0:
444,273,242839,1,2,2:0:0:0:
413,243,242945,1,2,2:0:0:0:
368,242,243051,1,2,2:0:0:0:
347,194,243158,5,0,1:2:0:0:
374,156,243265,1,8,2:0:0:0:
309,114,243371,1,8,2:0:0:0:
357,59,243477,1,8,2:0:0:0:
357,59,243797,5,6,1:0:0:0:
61,99,244009,1,6,1:0:0:0:
61,99,244435,5,2,1:2:0:0:
140,67,244541,2,0,L|154:4,1,60.0000022888184,10|0,2:0|2:0,0:0:0:0:
165,217,244754,1,10,1:2:0:0:
135,197,244860,2,0,L|76:183,1,60.0000022888184,2|0,2:0|2:0,0:0:0:0:
0,324,245073,2,0,L|58:310,1,60.0000022888184,2|2,1:2|2:0,0:0:0:0:
77,307,245499,5,6,1:0:0:0:
352,224,245711,1,6,1:0:0:0:
352,224,246137,5,0,1:2:0:0:
325,223,246243,1,0,2:0:0:0:
294,256,246350,1,8,2:0:0:0:
252,261,246456,1,8,2:0:0:0:
216,211,246562,5,8,1:1:0:0:
165,194,246669,1,6,2:3:0:0:
103,218,246775,1,6,2:3:0:0:
52,163,246882,1,6,2:3:0:0:
88,101,246988,6,0,B|133:62|188:93|178:108|231:135|276:94,1,191.999994140625,4|4,3:1|0:3,0:0:0:0:
330,32,247626,1,0,2:0:0:0:
466,93,247839,2,0,P|401:87|393:152,1,143.999995605469,4|0,0:3|2:0,0:0:0:0:
426,175,248265,1,4,0:3:0:0:
424,197,248371,1,0,2:0:0:0:
450,215,248477,1,0,2:0:0:0:
505,351,248690,5,4,0:3:0:0:
360,300,248903,1,0,2:0:0:0:
343,297,249009,1,0,2:0:0:0:
326,303,249116,2,0,P|301:305|270:306,2,47.9999985351563,4|0|0,0:3|2:0|2:0,0:0:0:0:
181,364,249435,1,0,2:0:0:0:
138,340,249541,1,4,0:3:0:0:
188,163,249754,5,0,0:0:0:0:
199,169,249860,1,0,2:0:0:0:
206,175,249967,2,0,P|207:228|198:277,1,95.9999970703126,6|0,0:3|2:0,0:0:0:0:
62,226,250392,6,0,P|50:130|52:34,1,191.999994140625,6|4,0:3|0:3,0:0:0:0:
167,58,251031,1,0,2:0:0:0:
167,58,251137,1,0,0:0:0:0:
167,58,251243,2,0,P|263:46|359:48,1,191.999994140625,4|4,0:3|0:3,0:0:0:0:
480,198,251882,1,2,2:0:0:0:
480,198,251988,1,0,0:0:0:0:
480,198,252094,6,0,B|462:133|381:137|325:218,1,167.999994873047,6|0,0:3|0:0,0:0:0:0:
245,265,252520,1,6,0:3:0:0:
175,303,252662,1,2,2:0:0:0:
110,259,252804,1,2,2:0:0:0:
100,180,252945,6,0,P|178:190|154:112,1,167.999994873047,6|8,0:3|0:3,0:0:0:0:
18,138,253371,2,0,P|8:179|10:208,1,47.9999985351563,8|8,0:3|0:3,0:0:0:0:
93,69,253584,2,0,P|77:51|58:37,1,47.9999985351563,8|0,0:3|2:0,0:0:0:0:
215,50,253797,6,0,B|259:26|312:25|312:25|359:67|416:53,1,191.999994140625,4|4,0:3|0:3,0:0:0:0:
512,65,254435,2,0,B|499:53|499:53|494:80|477:100,1,47.9999985351563,6|0,0:3|2:0,0:0:0:0:
469,231,254648,2,0,P|442:163|332:217,1,191.999994140625,6|4,0:3|0:3,0:0:0:0:
332,312,255286,5,0,0:0:0:0:
332,312,255392,1,0,0:0:0:0:
332,312,255499,2,0,P|420:274|512:249,1,191.999994140625,4|4,0:3|0:3,0:0:0:0:
269,232,256137,1,0,0:0:0:0:
269,232,256243,1,0,0:0:0:0:
269,232,256350,2,0,P|180:194|88:169,1,191.999994140625,4|4,0:3|0:3,0:0:0:0:
0,301,256988,5,0,2:0:0:0:
0,301,257094,1,0,2:0:0:0:
0,301,257201,2,0,P|80:280|141:268,1,128,4|0,0:3|2:0,0:0:0:0:
150,79,257520,1,0,2:0:0:0:
156,91,257626,2,0,P|219:105|280:122,1,128,4|0,0:3|2:0,0:0:0:0:
462,210,258052,6,0,L|531:188,5,42.6666666666667,4|0|0|0|0|0,3:0|3:0|3:0|3:0|3:0|3:0,3:0:0:0:
392,188,258477,6,0,L|338:138,5,42.6666666666667,4|0|0|0|0|0,3:0|3:0|3:0|3:0|3:0|3:0,3:0:0:0:
412,281,258903,6,0,L|393:363,1,70.000000667572,2|0,1:1|0:0,0:0:0:0:
396,349,259328,6,0,L|411:280,1,70.000000667572,2|0,1:1|0:0,0:0:0:0:
412,281,259754,6,0,L|396:349,1,70.000000667572,2|0,1:1|0:0,0:0:0:0:
396,349,260179,6,3,L|411:280,1,70.000000667572,4|0,1:0|0:0,0:1:0:0:
