osu file format v14

[General]
AudioFilename: audio.mp3
AudioLeadIn: 0
PreviewTime: 63173
Countdown: 0
SampleSet: Soft
StackLeniency: 1
Mode: 0
LetterboxInBreaks: 0
WidescreenStoryboard: 1

[Editor]
Bookmarks: 63309
DistanceSpacing: 0.4
BeatDivisor: 4
GridSize: 32
TimelineZoom: 1.5

[Metadata]
Title:bloom (TV Size)
TitleUnicode:bloom (TV Size)
Artist:NECRY TALKIE
ArtistUnicode:ネクライトーキー
Creator:fedora
Version:insane
Source:Scott Pilgrim Takes Off
Tags:atomosphere lewski スコット・ピルグリム テイクス・オフ Netflix Series -Anime size- 4th fourth 4 four Album TORCH 朝日 カズマ・タケイ もっさ 中村郁香 藤田 NecryTalkie Mossa Higa Asahi Ren Ishifuro Fujita Aya Kazuma Takei Ayaka Nakamura Mu-san theme song japanese female vocal vocalist rock pop jpop j-pop jrock j-rock anime cartoon op opening
BeatmapID:4404940
BeatmapSetID:2097704

[Difficulty]
HPDrainRate:6
CircleSize:4
OverallDifficulty:8
ApproachRate:9
SliderMultiplier:1.6
SliderTickRate:1

[Events]
//Background and Video events
0,0,"Screenshot (85).png",0,0
//Break Periods
2,13127,25618
//Storyboard Layer 0 (Background)
//Storyboard Layer 1 (Fail)
//Storyboard Layer 2 (Pass)
//Storyboard Layer 3 (Foreground)
//Storyboard Layer 4 (Overlay)
//Storyboard Sound Samples

[TimingPoints]
37,272.727272727273,4,2,0,60,1,0
4400,-100,4,2,0,70,0,0
7946,-125,4,2,0,70,0,0
8764,-100,4,2,0,70,0,0
10946,-250,4,2,0,70,0,0
13127,-250,4,2,0,60,0,0
26218,-166.666666666667,4,2,0,60,0,0
27309,-200,4,2,0,60,0,0
28400,-111.111111111111,4,2,0,60,0,0
36037,-100,4,2,0,60,0,0
37127,-111.111111111111,4,2,0,60,0,0
43673,-100,4,2,0,60,0,0
48037,-111.111111111111,4,2,0,70,0,0
50218,-125,4,2,0,70,0,0
54582,-111.111111111111,4,2,0,70,0,0
58946,-125,4,2,0,70,0,0
63309,-100,4,2,0,80,0,0
69855,-90.9090909090909,4,2,0,80,0,0
70264,-83.3333333333333,4,2,0,80,0,0
70673,-90.9090909090909,4,2,0,80,0,0
72037,-100,4,2,0,80,0,0
74218,-100,4,2,0,90,0,1
75309,-100,4,2,0,80,0,0
76400,-111.111111111111,4,2,0,80,0,0
79673,-100,4,2,0,80,0,0
80764,-125,4,2,0,80,0,0
84037,-125,4,2,0,70,0,0

[Colours]
Combo1 : 17,254,176
Combo2 : 173,255,95
Combo3 : 226,106,236
Combo4 : 255,130,98

[HitObjects]
256,192,37,12,0,3309,1:0:0:0:
9,43,4400,6,1,P|25:99|40:188,1,120,6|0,1:0|0:0,0:0:0:0:
45,167,4673,2,0,P|90:177|132:185,1,80,8|2,0:0|1:0,0:0:0:0:
231,62,4946,2,0,P|185:51|144:44,1,80,0|0,0:0|1:0,0:0:0:0:
183,262,5218,2,1,P|214:220|202:127,1,120,10|0,0:0|0:0,0:0:0:0:
215,154,5491,6,1,P|254:161|293:170,1,80,2|2,1:1|3:2,0:0:0:0:
464,127,5764,1,10,0:2:0:0:
464,127,5900,2,0,L|474:81,1,40,2|0,1:1|0:0,0:0:0:0:
369,105,6037,2,1,P|378:146|389:193,1,80,2|0,0:2|1:0,0:0:0:0:
478,331,6309,1,10,0:2:0:0:
344,272,6446,1,0,0:0:0:0:
510,244,6582,6,0,B|421:226|441:279|355:260,1,160,2|10,1:0|0:2,0:0:0:0:
119,298,6991,2,1,P|175:313|211:360,1,120,2|0,1:0|0:0,0:0:0:0:
225,358,7264,2,0,L|245:265,1,80,0|10,1:0|0:0,0:0:0:0:
236,0,7537,6,1,B|250:52|265:95|265:95|248:115|227:141,1,160,6|8,1:0|0:0,0:0:0:0:
175,215,7946,2,0,P|229:183|290:193,2,128,2|2|2,1:1|1:1|1:1,0:0:0:0:
512,67,8764,6,1,P|496:123|481:212,1,120,6|0,1:0|0:0,0:0:0:0:
476,191,9037,2,0,P|431:201|389:209,1,80,8|2,0:0|1:0,0:0:0:0:
290,86,9310,2,0,P|336:75|377:68,1,80,0|0,0:0|1:0,0:0:0:0:
298,191,9582,2,1,P|260:167|172:173,1,120,10|0,0:0|0:0,0:0:0:0:
179,177,9855,6,1,P|191:215|200:253,1,80,2|0,1:0|3:0,0:0:0:0:
43,151,10127,1,8,0:0:0:0:
43,151,10264,2,1,L|83:159,1,40,2|0,1:0|0:0,0:0:0:0:
203,59,10400,2,0,P|163:72|124:81,1,80,0|0,0:0|1:0,0:0:0:0:
0,284,10673,2,1,P|55:247|131:270,1,120,10|4,0:0|0:3,0:0:0:0:
112,262,10946,6,1,P|124:324|135:387,3,128,6|2|2|4,1:1|0:2|0:2|0:3,0:0:0:0:
179,177,12718,1,4,0:3:0:0:
436,384,26218,6,0,P|426:337|414:290,1,95.9999970703126,4|0,0:3|0:0,0:0:0:0:
420,287,26764,1,4,0:3:0:0:
512,303,26900,1,8,0:0:0:0:
393,201,27037,1,8,0:0:0:0:
254,242,27173,1,8,0:0:0:0:
221,164,27309,5,6,1:0:0:0:
221,164,27582,2,2,P|201:91|176:-3,1,160,6|8,1:2|0:0,0:1:0:0:
186,12,28400,6,0,P|158:55|60:63,1,143.999995605469,4|8,1:0|0:0,0:0:0:0:
17,149,28809,1,2,3:2:0:0:
17,149,28877,1,0,3:0:0:0:
17,149,28946,2,0,P|60:156|100:166,1,71.9999978027344,2|0,1:2|1:0,0:0:0:0:
178,302,29218,2,0,P|182:337|187:373,1,71.9999978027344,8|2,0:0|3:2,0:0:0:0:
95,278,29491,6,0,P|139:224|209:218,1,143.999995605469,2|8,1:2|0:0,0:0:0:0:
294,327,29900,2,0,L|284:286,1,35.9999989013672,2|0,3:2|3:0,0:0:0:0:
305,198,30037,2,0,P|300:233|295:269,1,71.9999978027344,2|0,1:2|1:0,0:0:0:0:
485,346,30309,2,0,P|515:308|503:237,1,107.999996704102,8|0,0:0|0:0,0:0:0:0:
512,251,30582,6,1,P|454:268|364:296,1,143.999995605469,2|8,1:1|0:0,0:0:0:0:
285,112,30991,2,0,P|351:126|391:196,1,143.999995605469,2|2,3:1|1:2,0:0:0:0:
498,53,31400,1,10,0:1:0:0:
498,53,31673,6,0,P|459:68|415:78,1,71.9999978027344,2|2,1:2|0:2,0:0:0:0:
466,237,31946,2,0,P|474:201|482:165,1,71.9999978027344,8|2,0:0|0:2,0:0:0:0:
313,59,32218,2,0,P|305:95|297:131,2,71.9999978027344,0|2|10,1:0|1:2|0:2,0:0:0:0:
374,209,32627,2,0,L|385:158,1,35.9999989013672,0|0,3:0|3:0,0:0:0:0:
371,159,32764,6,0,B|294:144|308:181|230:163,1,143.999995605469,2|8,1:2|0:0,0:0:0:0:
64,213,33173,2,0,P|20:203|5:198,2,35.9999989013672,2|0|2,3:2|3:0|1:2,0:0:0:0:
157,116,33446,2,0,B|139:149|139:149|151:202,1,71.9999978027344,0|8,1:0|0:0,0:0:0:0:
307,288,33718,1,2,3:2:0:0:
307,288,33787,1,0,3:0:0:0:
307,288,33855,6,0,P|275:260|185:261,1,107.999996704102,2|0,1:2|0:0,0:0:0:0:
202,246,34127,2,1,P|190:290|176:347,1,71.9999978027344,10|0,0:2|0:0,0:0:0:0:
6,366,34400,2,0,P|14:331|24:296,1,71.9999978027344,0|2,1:0|1:2,0:0:0:0:
69,144,34673,2,0,P|96:166|108:251,1,107.999996704102,10|0,0:2|0:0,0:0:0:0:
100,246,34946,5,2,1:1:0:0:
189,154,35082,2,0,P|228:164|280:172,1,71.9999978027344,0|8,0:0|0:0,0:0:0:0:
173,43,35355,2,0,P|128:58|81:145,1,143.999995605469,2|2,0:1|1:2,0:0:0:0:
289,68,35764,2,0,P|271:21|262:-9,1,71.9999978027344,10|0,0:1|0:0,0:0:0:0:
413,179,36037,6,0,P|451:187|491:194,1,80,2|0,1:0|1:0,0:0:0:0:
280,331,36309,2,0,P|319:322|375:312,1,80,10|0,0:1|1:0,0:0:0:0:
144,205,36582,6,0,B|75:240|75:240|17:223,1,120,10|0,0:1|0:0,0:0:0:0:
24,229,36855,2,0,L|14:190,2,40,10|8|8,0:2|0:0|0:0,0:0:0:0:
235,247,37127,6,0,P|190:301|191:371,2,143.999995605469,6|10|2,1:0|0:1|1:1,0:0:0:0:
235,247,37946,1,12,0:2:0:0:
131,116,38082,2,0,P|185:134|212:139,1,71.9999978027344,2|0,1:2|0:0,0:0:0:0:
31,96,38355,1,0,1:0:0:0:
31,96,38491,2,0,P|38:133|46:172,1,71.9999978027344,10|2,0:1|0:2,0:0:0:0:
278,25,38764,2,0,P|244:36|209:45,2,71.9999978027344,2|0|8,1:1|1:0|0:0,0:0:0:0:
278,168,39309,6,0,P|308:130|407:127,1,143.999995605469,2|8,1:2|0:0,0:0:0:0:
398,122,39855,1,0,1:1:0:0:
373,272,39991,2,0,P|366:236|358:201,1,71.9999978027344,2|2,1:1|1:1,0:0:0:0:
499,66,40264,2,1,P|483:131|466:216,1,143.999995605469,10|2,0:2|1:1,0:0:0:0:
426,351,40673,2,0,P|390:357|358:373,1,71.9999978027344,10|0,0:2|0:0,0:0:0:0:
217,233,40946,2,0,P|248:249|284:255,2,71.9999978027344,2|0|10,1:1|1:0|0:1,0:0:0:0:
119,330,41491,6,0,P|82:280|20:275,1,107.999996704102,4|0,1:2|0:0,0:0:0:0:
33,264,41764,2,0,P|47:193|64:112,1,143.999995605469,10|0,0:2|1:0,0:0:0:0:
94,25,42173,1,2,1:2:0:0:
94,25,42241,1,0,3:0:0:0:
94,25,42309,2,0,P|53:36|14:46,1,71.9999978027344,10|0,0:2|0:0,0:0:0:0:
151,175,42582,6,0,P|163:128|167:94,1,71.9999978027344,6|0,1:1|0:0,0:0:0:0:
324,244,42855,2,0,P|312:197|308:163,1,71.9999978027344,10|0,0:1|3:0,0:0:0:0:
72,268,43127,6,0,P|107:273|142:283,1,71.9999978027344,2|0,1:1|1:0,0:0:0:0:
358,349,43400,2,0,P|303:342|246:394,1,107.999996704102,10|0,0:2|0:0,0:0:0:0:
249,366,43673,6,0,P|241:322|231:283,1,80,14|0,0:1|1:0,0:0:0:0:
389,65,43946,2,0,P|396:108|407:148,1,80,8|2,0:2|1:1,0:0:0:0:
82,260,44218,2,0,B|171:242|151:295|237:276,1,160,8|2,0:2|1:1,0:0:0:0:
415,152,44627,2,1,P|366:154|307:232,1,120,8|0,0:2|0:0,0:0:0:0:
307,206,44900,5,0,1:0:0:0:
382,320,45037,2,0,P|393:273|411:227,1,80,8|0,0:2|0:0,0:0:0:0:
186,113,45309,2,0,P|199:150|207:189,1,80,0|0,1:2|1:0,0:0:0:0:
30,362,45582,2,0,P|66:312|164:310,1,160,12|4,0:1|0:2,0:0:0:0:
498,75,48037,6,0,P|448:89|420:97,1,71.9999978027344,4|8,1:1|0:0,0:0:0:0:
475,240,48309,2,0,P|487:205|492:162,1,71.9999978027344,4|8,0:3|0:0,0:0:0:0:
307,124,48582,2,0,P|271:117|235:110,1,71.9999978027344,4|0,0:3|0:0,0:0:0:0:
386,284,48855,1,10,0:0:0:0:
389,189,48991,6,0,P|320:210|252:234,1,143.999995605469,4|10,0:3|0:0,0:0:0:0:
138,90,49400,2,0,P|159:147|173:191,1,71.9999978027344,4|0,0:3|3:0,0:0:0:0:
91,335,49673,2,0,P|70:278|56:234,1,71.9999978027344,0|0,1:0|1:0,0:0:0:0:
166,270,49946,2,0,P|191:310|292:318,1,143.999995605469,8|6,0:0|1:1,0:0:0:0:
288,327,50764,6,0,P|297:282|323:180,2,128,2|10|2,1:2|0:1|1:2,0:0:0:0:
392,363,51446,1,0,1:0:0:0:
449,258,51582,2,0,P|407:272|381:278,1,64,10|0,0:2|0:0,0:0:0:0:
296,116,51855,2,0,P|333:114|398:170,1,128,2|10,1:1|0:2,0:0:0:0:
413,164,52400,6,0,P|422:126|444:37,1,128,4|0,1:0|0:0,0:0:0:0:
453,32,53218,1,2,0:2:0:0:
166,102,53491,6,0,P|90:75|37:59,1,128,2|0,1:1|0:0,0:0:0:0:
34,65,54037,2,1,P|95:84|155:105,1,128,2|0,1:1|0:0,0:0:0:0:
83,343,54582,6,0,P|48:315|48:237,1,107.999996704102,6|0,1:2|0:0,0:0:0:0:
48,252,54855,1,8,0:0:0:0:
221,211,54991,2,0,L|212:170,1,35.9999989013672,10|0,0:2|0:0,0:0:0:0:
121,184,55127,2,0,P|131:223|141:265,1,71.9999978027344,2|0,1:2|1:0,0:0:0:0:
288,384,55400,2,0,P|311:338|304:278,1,107.999996704102,8|0,0:0|0:0,0:0:0:0:
292,281,55673,6,0,L|214:307,1,71.9999978027344,6|2,1:1|0:2,0:0:0:0:
216,297,55946,6,0,L|284:274,1,71.9999978027344,2|0,1:1|0:0,0:0:0:0:
292,281,56218,6,0,L|214:307,1,71.9999978027344,2|0,1:1|0:2,0:2:0:0:
216,297,56491,6,0,L|284:274,1,71.9999978027344,2|2,1:1|0:2,0:0:0:0:
430,343,56764,6,0,P|474:368|514:376,1,71.9999978027344,0|8,1:0|0:0,0:0:0:0:
372,159,57037,2,0,P|337:170|307:189,1,71.9999978027344,8|8,0:3|0:3,0:0:0:0:
378,258,57309,1,4,0:3:0:0:
454,205,57446,1,4,0:3:0:0:
412,75,57582,1,2,0:2:0:0:
420,67,57718,1,2,0:3:0:0:
301,12,57855,6,0,L|325:101,1,71.9999978027344,2|0,1:1|0:0,0:0:0:0:
314,88,58127,6,0,L|295:18,1,71.9999978027344,2|0,1:1|0:0,0:0:0:0:
301,12,58400,6,0,L|325:101,1,71.9999978027344,2|0,1:1|0:0,0:0:0:0:
314,88,58672,6,0,L|295:18,1,71.9999978027344,2|2,1:1|0:3,0:0:0:0:
165,147,58946,6,1,B|96:114|96:114|45:132,3,128,6|2|11|0,1:0|1:2|0:1|0:0,0:0:0:0:
98,211,59900,2,0,P|106:257|111:294,1,64,0|2,0:0|1:1,0:0:0:0:
312,274,60173,6,0,P|259:239|196:238,1,128,8|0,0:0|1:0,0:0:0:0:
18,284,60582,2,0,P|26:330|31:367,1,64,10|0,0:1|0:0,0:0:0:0:
177,147,60855,2,0,P|169:101|164:64,1,64,2|2,0:2|0:3,0:0:0:0:
169,78,61059,1,2,0:3:0:0:
171,72,61127,1,2,0:1:0:0:
28,359,62218,1,4,0:3:0:0:
274,202,63309,6,1,B|374:243|374:243|446:220,1,160,6|8,1:0|0:0,0:0:0:0:
457,128,63718,2,1,L|513:110,1,40,2|0,3:2|3:0,0:0:0:0:
377,73,63855,2,0,B|362:110|362:110|371:159,1,80,2|0,1:2|1:0,0:0:0:0:
493,310,64127,1,8,0:0:0:0:
437,235,64264,1,2,3:2:0:0:
437,235,64332,1,0,3:0:0:0:
437,235,64400,2,1,P|392:250|340:265,1,80,2|0,1:0|0:0,0:0:0:0:
176,260,64673,6,1,P|174:299|188:336,1,80,10|0,0:1|3:0,0:0:0:0:
257,279,64877,1,0,3:0:0:0:
264,277,64946,2,0,P|279:232|294:180,1,80,2|0,1:0|1:0,0:0:0:0:
262,10,65218,2,1,P|227:59|229:119,1,120,10|0,0:1|0:0,0:0:0:0:
221,125,65491,6,0,L|171:137,1,40,2|0,1:0|3:0,0:0:0:0:
299,201,65627,2,0,L|310:162,1,40,0|0,1:0|3:0,0:0:0:0:
422,61,65764,2,1,B|385:76|385:76|336:67,1,80,10|0,0:0|0:0,0:0:0:0:
105,85,66037,6,0,L|117:47,1,40,2|0,1:0|3:0,0:0:0:0:
228,131,66173,2,0,L|190:141,1,40,0|0,1:0|3:0,0:0:0:0:
20,201,66310,2,1,B|57:186|57:186|96:193,1,80,10|0,0:0|0:0,0:0:0:0:
154,379,66582,6,1,P|88:365|82:263,2,160,6|8|0,1:1|0:0|1:1,0:0:0:0:
365,254,67264,1,2,1:2:0:0:
365,254,67332,1,0,3:0:0:0:
365,254,67400,1,8,0:0:0:0:
163,296,67537,1,2,3:2:0:0:
245,357,67673,6,1,P|252:313|269:228,1,120,2|0,1:1|0:0,0:0:0:0:
257,235,67946,1,8,0:0:0:0:
203,115,68082,2,1,L|274:102,1,40,2|0,3:1|3:0,0:0:0:0:
404,141,68218,2,1,P|362:151|317:162,1,80,2|0,1:2|1:0,0:0:0:0:
343,55,68491,1,10,0:1:0:0:
512,82,68627,5,2,3:2:0:0:
512,82,68696,1,0,3:0:0:0:
512,82,68764,2,1,P|501:122|476:251,1,160,2|8,1:1|0:0,0:0:0:0:
269,302,69173,2,0,P|303:264|392:263,1,120,2|0,0:1|0:0,0:0:0:0:
378,260,69446,1,0,1:0:0:0:
509,323,69582,2,0,P|470:328|432:342,1,80,10|2,0:1|1:1,0:0:0:0:
164,155,69855,6,1,P|126:139|114:18,1,176.000005371094,6|8,1:0|0:0,0:0:0:0:
179,286,70264,2,1,B|197:211|235:240|251:165,1,143.999995605469,2|0,1:0|0:0,0:0:0:0:
261,160,70537,1,8,0:0:0:0:
355,40,70673,2,1,P|303:58|260:66,1,88.000002685547,2|0,1:0|0:0,0:0:0:0:
5,210,70946,6,0,P|47:219|89:234,1,88.000002685547,12|2,0:2|1:0,0:0:0:0:
83,241,71150,1,0,1:0:0:0:
77,247,71218,2,1,L|86:313,1,44.0000013427735,8|0,0:0|0:0,0:0:0:0:
274,353,71355,2,1,L|268:309,1,44.0000013427735,0|0,1:0|0:0,0:0:0:0:
176,284,71491,5,8,0:3:0:0:
176,284,71627,1,8,0:3:0:0:
176,284,71764,1,4,0:3:0:0:
352,247,71900,5,4,3:3:0:0:
352,247,71968,1,0,3:0:0:0:
352,247,72037,2,1,B|439:231|416:278|510:262,1,160,6|8,1:0|0:0,0:0:0:0:
420,297,72446,1,0,3:0:0:0:
464,99,72582,2,0,B|479:136|479:136|470:185,1,80,0|0,1:0|1:0,0:0:0:0:
247,178,72855,2,0,P|303:163|383:143,1,120,8|0,0:0|3:0,0:0:0:0:
378,158,73127,6,1,P|369:197|361:236,1,80,2|0,1:1|0:0,0:0:0:0:
215,20,73400,2,1,P|252:5|292:5,1,80,10|0,0:1|3:0,0:0:0:0:
250,184,73605,1,0,3:0:0:0:
247,178,73673,2,0,P|255:137|269:75,1,80,2|0,1:1|1:0,0:0:0:0:
41,45,73946,2,1,P|76:102|146:115,1,120,10|0,0:1|0:0,0:0:0:0:
128,111,74218,6,1,P|71:128|28:144,1,80,12|0,1:1|0:0,0:0:0:0:
350,287,74491,2,1,P|312:274|273:263,1,80,14|0,1:1|3:0,0:0:0:0:
260,9,74764,6,0,P|297:21|336:32,1,80,14|2,1:1|0:1,0:0:0:0:
37,243,75037,2,0,P|74:230|113:219,1,80,14|2,1:1|0:1,0:0:0:0:
323,382,75309,6,1,P|370:321|448:314,2,160,6|8|0,1:0|0:0|1:0,0:0:0:0:
264,276,75991,2,1,P|277:230|288:179,1,80,0|10,1:0|0:2,0:0:0:0:
364,87,76264,5,8,0:3:0:0:
364,87,76332,1,4,0:3:0:0:
364,87,76400,2,1,B|344:163|387:145|367:227,1,143.999995605469,6|0,1:1|1:0,0:0:0:0:
453,65,76809,2,1,P|416:17|328:4,1,143.999995605469,10|0,0:1|1:0,0:0:0:0:
159,113,77218,2,1,P|209:95|261:79,1,107.999996704102,10|0,0:1|0:0,0:0:0:0:
271,71,77491,2,0,P|218:56|179:41,2,71.9999978027344,2|0|8,1:1|1:0|0:0,0:0:0:0:
48,70,77900,6,1,P|68:111|96:207,1,143.999995605469,8|0,0:0|1:0,0:0:0:0:
77,304,78309,2,1,B|125:286|164:271|164:271|193:285|235:300,1,143.999995605469,10|2,0:2|1:1,0:0:0:0:
209,291,78855,1,2,1:2:0:0:
318,384,78991,2,1,P|328:344|356:228,1,143.999995605469,10|2,0:1|1:2,0:2:0:0:
289,176,79400,2,1,P|256:188|220:194,1,71.9999978027344,10|2,0:1|0:2,0:0:0:0:
437,301,79673,1,2,1:1:0:0:
437,301,79946,6,1,P|453:231|469:174,1,120,12|4,0:1|0:3,0:0:0:0:
461,176,80218,2,1,L|409:160,1,40,8|0,0:3|0:0,0:0:0:0:
482,45,80355,2,0,L|494:99,2,40,8|4|2,0:3|0:3|1:0,0:0:0:0:
382,65,80627,5,0,3:0:0:0:
382,65,80696,1,0,3:0:0:0:
382,65,80764,2,1,B|321:83|321:83|260:59,1,128,6|0,1:0|0:0,0:0:0:0:
255,51,81173,1,0,1:0:0:0:
180,199,81309,2,1,P|251:180|321:159,1,128,10|0,0:1|0:0,0:0:0:0:
376,229,81718,1,0,3:0:0:0:
376,229,81855,2,0,P|363:275|359:308,1,64,2|8,1:0|0:0,0:0:0:0:
68,375,82264,5,0,1:0:0:0:
68,375,82400,2,1,P|81:329|85:296,1,64,10|0,0:1|1:0,0:0:0:0:
79,145,82673,2,1,P|115:196|198:201,1,128,8|2,0:0|0:2,0:0:0:0:
37,44,84037,5,4,1:0:0:0:
37,44,84582,1,4,1:2:0:0:
37,44,85127,2,0,P|116:58|186:78,1,128,0|0,1:0|1:0,0:0:0:0:
343,175,85537,1,0,0:0:0:0:
297,1,85673,2,0,P|259:16|217:23,1,64,0|0,1:0|0:0,0:0:0:0:
245,180,85946,2,0,P|252:148|264:119,1,64,0|0,1:0|0:0,0:0:0:0:
33,49,86218,1,0,1:0:0:0:
479,345,87309,5,12,1:1:0:0:
