osu file format v14

[General]
AudioFilename: audio.mp3
AudioLeadIn: 0
PreviewTime: 63173
Countdown: 0
SampleSet: Soft
StackLeniency: 1
Mode: 0
LetterboxInBreaks: 0
WidescreenStoryboard: 0

[Editor]
Bookmarks: 63309
DistanceSpacing: 0.3
BeatDivisor: 4
GridSize: 4
TimelineZoom: 1.5

[Metadata]
Title:bloom (TV Size)
TitleUnicode:bloom (TV Size)
Artist:NECRY TALKIE
ArtistUnicode:ネクライトーキー
Creator:fedora
Version:expert
Source:Scott Pilgrim Takes Off
Tags:atomosphere lewski スコット・ピルグリム テイクス・オフ Netflix Series -Anime size- 4th fourth 4 four Album TORCH 朝日 カズマ・タケイ もっさ 中村郁香 藤田 NecryTalkie Mossa Higa Asahi Ren Ishifuro Fujita Aya Kazuma Takei Ayaka Nakamura Mu-san theme song japanese female vocal vocalist rock pop jpop j-pop jrock j-rock anime cartoon op opening
BeatmapID:4399677
BeatmapSetID:2097704

[Difficulty]
HPDrainRate:6
CircleSize:4.1
OverallDifficulty:8.6
ApproachRate:9.5
SliderMultiplier:1.7
SliderTickRate:1

[Events]
//Background and Video events
0,0,"Screenshot (85).png",0,0
//Break Periods
//Storyboard Layer 0 (Background)
//Storyboard Layer 1 (Fail)
//Storyboard Layer 2 (Pass)
//Storyboard Layer 3 (Foreground)
//Storyboard Layer 4 (Overlay)
//Storyboard Sound Samples

[TimingPoints]
37,272.727272727273,4,2,0,60,1,0
4400,-100,4,2,0,70,0,0
7537,-90.909090909091,4,2,0,70,0,0
8764,-100.000000000001,4,2,0,70,0,0
10946,-250,4,2,0,70,0,0
13127,-125,4,2,0,60,0,0
28400,-111.111111111111,4,2,0,60,0,0
36037,-100,4,2,0,60,0,0
37127,-111.111111111111,4,2,0,60,0,0
43673,-100,4,2,0,60,0,0
48037,-100,4,2,0,70,0,0
50218,-125,4,2,0,70,0,0
53491,-166.666666666667,4,2,0,70,0,0
54037,-125,4,2,0,70,0,0
54582,-111.111111111111,4,2,0,70,0,0
55673,-100,4,2,0,70,0,0
58946,-117.647058823529,4,2,0,70,0,0
61127,-357.142857142857,4,2,0,70,0,0
63309,-99.9999999999997,4,2,0,80,0,0
69855,-83.333333333333,4,2,0,80,0,0
72037,-100.000000000002,4,2,0,80,0,0
74218,-83.333333333333,4,2,0,90,0,1
75309,-99.9999999999997,4,2,0,80,0,0
76400,-111.111111111111,4,2,0,80,0,0
79946,-83.333333333333,4,2,0,80,0,0
80491,-99.9999999999863,4,2,0,80,0,0
84037,-166.666666666667,4,2,0,70,0,0
84582,-142.857142857143,4,2,0,70,0,0
85127,-111.111111111111,4,2,0,70,0,0

[Colours]
Combo1 : 17,254,176
Combo2 : 173,255,95
Combo3 : 226,106,236
Combo4 : 255,130,98

[HitObjects]
256,192,37,12,0,3309,1:0:0:0:
454,384,4400,6,1,P|463:321|473:258,1,127.5,6|0,1:0|0:0,0:0:0:0:
481,253,4673,1,8,0:0:0:0:
189,287,4809,2,1,B|280:269|262:327|354:309,1,170,2|0,1:0|1:0,0:0:0:0:
405,195,5218,2,1,P|360:215|313:223,1,85.0000000000009,10|0,0:0|0:0,0:0:0:0:
173,104,5491,6,1,P|181:62|189:20,1,85.0000000000003,2|0,1:1|3:2,0:0:0:0:
187,11,5696,1,0,3:2:0:0:
185,3,5764,1,10,0:2:0:0:
78,158,5900,1,2,1:1:0:0:
8,76,6036,2,1,P|49:64|90:52,1,85.0000000000003,2|0,0:2|1:0,0:0:0:0:
266,92,6309,2,1,B|272:132|272:132|252:172,1,85.0000000000003,10|0,0:2|0:0,0:0:0:0:
31,331,6582,5,2,1:0:0:0:
207,255,6718,2,1,P|249:264|269:267,2,42.5000000000001,2|0|10,3:2|3:0|0:2,0:0:0:0:
133,336,6991,2,1,P|119:290|106:253,1,84.9999999999997,2|0,1:0|0:0,0:0:0:0:
254,133,7264,1,0,1:0:0:0:
254,133,7332,1,0,1:0:0:0:
254,133,7400,2,1,L|244:187,1,42.5000000000001,10|0,0:0|3:0,0:0:0:0:
371,383,7537,6,1,P|451:369|459:246,1,187,6|8,1:0|0:0,0:0:0:0:
473,272,7945,1,2,1:1:0:0:
469,268,8218,1,2,1:1:0:0:
465,264,8491,1,2,1:1:0:0:
512,22,8764,6,1,P|488:50|402:68,1,127.499999999999,6|0,1:0|0:0,0:0:0:0:
398,71,9036,1,8,0:0:0:0:
383,211,9173,2,1,B|368:119|320:156|305:64,1,170.000000000001,2|0,1:0|1:0,0:0:0:0:
244,3,9582,2,1,P|222:47|232:108,1,85.0000000000003,10|0,0:0|0:0,0:0:0:0:
103,219,9855,6,1,P|62:210|20:202,1,85.0000000000003,2|0,1:0|3:0,0:0:0:0:
12,204,10059,1,0,3:0:0:0:
4,206,10127,1,10,0:2:0:0:
181,167,10264,2,1,B|197:207|197:207|188:247,1,85.0000000000003,2|2,1:0|0:2,0:0:0:0:
44,377,10536,1,0,1:0:0:0:
44,377,10605,1,0,1:0:0:0:
44,377,10673,2,1,B|27:336|27:336|36:296,1,85.0000000000003,10|8,0:0|0:3,0:0:0:0:
127,319,10877,5,4,0:3:0:0:
125,327,10946,2,1,P|199:334|244:377,3,136,6|2|2|4,1:1|0:2|0:2|0:3,0:0:0:0:
73,125,12718,1,4,0:3:0:0:
398,12,13127,6,1,P|423:46|510:61,1,136,6|4,1:0|0:3,0:0:0:0:
507,52,13536,1,4,0:3:0:0:
494,57,13673,2,1,P|485:86|479:127,1,67.9999999999993,4|0,0:3|0:0,0:0:0:0:
407,193,13945,2,1,P|402:159|392:126,1,68.0000000000002,0|4,0:0|0:3,0:0:0:0:
332,60,14218,6,1,B|249:44|274:82|198:66,1,136.000000000001,4|4,0:3|0:3,0:0:0:0:
192,59,14627,1,4,0:3:0:0:
306,146,14764,1,8,0:0:0:0:
306,146,15036,2,1,P|272:150|239:160,1,68.0000000000002,4|4,0:3|0:3,0:0:0:0:
61,163,15309,6,1,P|15:132|19:46,1,136,4|4,0:3|0:3,0:0:0:0:
11,56,15718,1,4,0:3:0:0:
113,13,15855,2,1,P|103:45|99:79,1,67.9999999999993,8|0,0:0|0:0,0:0:0:0:
176,215,16127,1,8,0:3:0:0:
176,215,16264,1,4,0:3:0:0:
176,215,16400,6,1,P|129:175|50:176,2,136,4|4|8,0:3|0:3|0:0,0:0:0:0:
260,349,17082,1,8,0:3:0:0:
172,306,17218,1,4,0:3:0:0:
292,260,17355,1,4,0:3:0:0:
348,384,17491,1,4,0:3:0:0:
348,384,17764,6,1,P|388:367|442:362,1,68.0000000000002,4|0,0:3|0:0,0:0:0:0:
500,334,18036,1,4,0:3:0:0:
500,334,18173,2,1,P|457:288|373:279,1,136,4|0,0:3|0:0,0:0:0:0:
297,254,18582,6,5,B|312:182|351:216|365:140,1,136,4|4,0:3|0:3,0:3:0:0:
358,132,18991,1,4,0:3:0:0:
506,175,19127,2,1,P|451:193|421:195,1,68.0000000000002,8|0,0:0|0:0,0:0:0:0:
337,49,19400,1,4,0:3:0:0:
337,49,19536,1,4,0:3:0:0:
337,49,19673,6,1,P|403:54|451:100,1,136,4|4,0:3|0:3,0:0:0:0:
445,108,20082,1,4,0:3:0:0:
338,196,20218,1,8,0:0:0:0:
338,196,20491,2,0,P|355:144|359:103,1,68,4|4,0:3|0:3,0:0:0:0:
324,41,20764,6,0,P|292:79|198:81,1,136,4|4,0:3|0:3,0:0:0:0:
201,78,21173,1,8,0:3:0:0:
76,196,21309,1,8,0:0:0:0:
3,133,21446,1,8,0:0:0:0:
29,44,21582,1,8,0:3:0:0:
39,48,21718,1,4,0:3:0:0:
107,109,21855,6,0,P|100:156|84:270,1,136,4|0,1:0|0:0,0:0:0:0:
142,314,22264,2,0,P|111:329|77:332,2,68,8|4|4,0:3|0:3|0:3,0:0:0:0:
174,232,22673,2,0,P|207:235|238:249,1,68,0|4,0:0|0:3,0:0:0:0:
326,257,22946,6,0,P|270:221|264:156,1,136,4|4,0:3|0:3,0:0:0:0:
310,69,23355,1,4,0:3:0:0:
231,8,23491,1,8,0:0:0:0:
7,64,23764,6,0,P|40:70|73:79,1,68,4|4,0:3|0:3,0:0:0:0:
90,157,24037,2,0,P|145:121|151:56,1,136,4|0,0:3|0:0,0:0:0:0:
143,51,24446,1,4,0:3:0:0:
264,156,24582,1,4,0:3:0:0:
314,85,24718,2,1,B|397:69|372:107|448:91,1,136.000000000001,8|4,0:3|0:3,0:0:0:0:
511,33,25127,6,4,P|498:99|485:166,2,136,4|4|8,0:3|0:3|0:2,0:3:0:0:
384,106,25946,1,4,0:3:0:0:
384,106,26082,1,4,0:3:0:0:
483,177,26218,6,0,P|430:175|373:255,1,136,4|0,0:3|0:0,0:0:0:0:
438,320,26627,2,0,P|450:269|466:231,1,68,4|4,0:3|0:3,0:0:0:0:
388,110,26900,5,8,0:0:0:0:
257,284,27037,1,8,0:0:0:0:
36,203,27173,1,8,0:0:0:0:
177,377,27309,5,6,1:0:0:0:
177,377,27582,2,2,P|147:244|117:111,1,272,6|8,1:2|0:0,0:1:0:0:
86,9,28400,6,0,P|125:71|199:78,1,152.999995330811,4|8,1:0|0:0,0:0:0:0:
368,29,28809,2,0,L|414:38,1,38.2499988327027,2|0,3:2|3:0,0:0:0:0:
292,93,28946,2,0,P|283:55|273:18,2,76.4999976654053,2|0|8,1:2|1:0|0:0,0:0:0:0:
452,254,29355,5,2,3:2:0:0:
452,254,29423,1,0,3:0:0:0:
452,254,29491,2,0,P|439:202|426:131,1,114.749996498108,2|0,1:2|0:0,0:0:0:0:
417,136,29764,1,8,0:0:0:0:
287,313,29900,2,0,L|274:261,1,38.2499988327027,2|0,3:2|3:0,0:0:0:0:
238,173,30037,2,0,P|275:181|312:191,1,76.4999976654053,2|0,1:2|1:0,0:0:0:0:
478,371,30309,2,0,P|432:340|377:347,1,114.749996498108,8|0,0:0|0:0,0:0:0:0:
370,340,30582,6,1,B|288:324|304:376|222:360,1,152.999995330811,2|8,1:1|0:0,0:0:0:0:
83,206,30991,1,2,3:1:0:0:
83,206,31059,1,0,3:0:0:0:
83,206,31127,2,0,P|72:244|60:287,1,76.4999976654053,0|2,1:0|1:2,0:0:0:0:
129,384,31400,2,0,P|143:328|157:272,1,114.749996498108,10|0,0:1|0:0,0:0:0:0:
169,269,31673,5,2,1:2:0:0:
133,113,31809,2,0,P|96:102|59:92,1,76.4999976654053,2|8,0:2|0:0,0:0:0:0:
220,181,32082,2,0,P|255:166|291:155,1,76.4999976654053,2|0,0:2|1:0,0:0:0:0:
226,9,32355,1,2,1:2:0:0:
226,9,32423,1,0,3:0:0:0:
226,9,32491,2,0,B|213:47|213:47|229:90,1,76.4999976654053,10|0,0:2|0:0,0:0:0:0:
435,122,32764,6,0,P|391:56|318:45,1,152.999995330811,2|8,1:2|0:0,0:0:0:0:
133,113,33173,2,0,P|96:102|59:92,2,76.4999976654053,2|2|0,0:2|1:2|1:0,0:0:0:0:
307,161,33582,1,8,0:0:0:0:
217,28,33718,2,0,L|232:83,1,38.2499988327027,2|0,3:2|3:0,0:0:0:0:
265,243,33855,6,0,P|218:199|217:134,1,114.749996498108,2|0,1:2|0:0,0:0:0:0:
356,243,34127,2,1,B|342:325|299:292|286:375,1,152.999995330811,10|0,0:2|1:0,0:0:0:0:
417,174,34537,1,2,1:2:0:0:
417,174,34605,1,0,3:0:0:0:
417,174,34673,2,0,P|439:214|438:269,1,76.4999976654053,10|2,0:2|0:2,0:0:0:0:
212,315,34946,6,0,P|171:303|62:279,1,152.999995330811,2|8,1:1|0:0,0:0:0:0:
157,142,35355,2,0,P|167:178|175:216,2,76.4999976654053,2|0|2,0:1|1:0|1:2,0:0:0:0:
121,15,35764,2,0,P|147:49|226:61,1,114.749996498108,10|0,0:1|0:0,0:0:0:0:
225,70,36037,5,2,1:0:0:0:
316,106,36173,1,0,1:0:0:0:
458,23,36309,1,10,0:1:0:0:
358,237,36446,1,0,1:0:0:0:
69,108,36582,1,10,0:1:0:0:
61,120,36855,5,10,0:2:0:0:
68,165,36923,1,8,0:0:0:0:
76,211,36991,1,8,0:0:0:0:
85,257,37059,1,8,0:0:0:0:
92,303,37127,1,6,1:0:0:0:
478,308,37400,6,1,B|396:292|412:343|331:327,2,152.999995330811,10|2|13,0:1|1:1|0:2,0:0:0:0:
263,157,38082,2,0,P|333:177|359:246,1,152.999995330811,2|0,1:2|1:0,0:0:0:0:
238,328,38491,2,0,P|251:294|261:255,1,76.4999976654053,10|2,0:1|0:2,0:0:0:0:
166,108,38764,1,2,1:1:0:0:
249,155,38900,1,0,1:0:0:0:
421,38,39037,1,8,0:0:0:0:
421,38,39309,6,0,P|364:74|354:160,1,152.999995330811,2|8,1:2|0:0,0:0:0:0:
351,153,39855,1,0,1:0:0:0:
511,106,39991,2,0,P|473:114|437:126,1,76.4999976654053,2|2,1:1|1:1,0:0:0:0:
136,38,40264,2,1,B|215:15|204:67|284:44,1,152.999995330811,10|2,0:2|1:1,0:0:0:0:
272,215,40673,2,0,P|263:177|251:141,1,76.4999976654053,10|0,0:2|0:0,0:0:0:0:
288,40,40946,1,2,1:1:0:0:
246,138,41082,1,0,1:0:0:0:
48,87,41218,1,10,0:1:0:0:
14,352,41491,6,0,P|71:298|150:302,2,152.999995330811,4|10|0,1:2|0:2|1:0,0:0:0:0:
63,261,42173,1,2,1:2:0:0:
213,357,42309,2,0,P|222:313|234:272,1,76.4999976654053,10|0,0:2|0:0,0:0:0:0:
78,166,42582,6,0,P|41:176|3:183,1,76.4999976654053,6|0,1:1|0:0,0:0:0:0:
161,118,42855,2,0,B|178:153|178:153|169:189,1,76.4999976654053,10|0,0:1|3:0,0:0:0:0:
164,195,43059,1,0,3:0:0:0:
158,200,43127,1,2,1:1:0:0:
79,76,43264,1,0,1:0:0:0:
252,0,43400,2,0,P|241:36|234:74,1,76.4999976654053,10|0,0:2|0:0,0:0:0:0:
442,296,43673,5,14,0:1:0:0:
328,129,43809,1,0,1:0:0:0:
511,171,43946,2,0,P|469:181|429:193,1,85,8|2,0:2|1:1,0:0:0:0:
226,81,44218,6,0,P|238:143|250:206,1,127.5,8|0,0:2|0:0,0:0:0:0:
264,217,44491,2,0,L|332:237,1,42.5,2|0,1:1|0:0,0:0:0:0:
446,287,44627,2,1,B|355:269|373:326|282:308,1,170,8|0,0:2|1:0,0:0:0:0:
84,228,45037,2,0,P|145:237|186:285,1,127.5,8|0,0:2|0:0,0:0:0:0:
179,290,45309,2,0,P|189:331|197:372,1,85,0|0,1:2|1:0,0:0:0:0:
417,201,45582,2,0,P|402:133|380:23,1,170,12|4,0:1|0:2,0:0:0:0:
300,99,48037,5,4,1:1:0:0:
278,2,48173,1,8,0:0:0:0:
376,25,48309,5,4,0:3:0:0:
230,168,48446,1,8,0:0:0:0:
79,53,48582,6,0,P|130:66|214:82,1,127.5,4|0,0:3|0:0,0:0:0:0:
206,73,48855,1,10,0:0:0:0:
463,221,48991,6,0,P|412:208|328:192,1,127.5,4|0,0:3|0:0,0:0:0:0:
331,187,49264,1,10,0:0:0:0:
130,153,49400,2,0,P|141:193|153:234,1,85,4|0,0:3|3:0,0:0:0:0:
151,243,49605,1,0,3:0:0:0:
149,251,49673,1,0,1:0:0:0:
325,192,49809,1,0,1:0:0:0:
392,354,49946,2,0,P|349:309|278:304,1,127.5,8|0,0:0|0:0,0:0:0:0:
278,311,50218,6,0,P|228:334|199:339,1,68,6|0,1:1|0:2,0:0:0:0:
146,259,50491,1,8,0:0:0:0:
143,249,50764,2,0,P|132:308|117:393,2,136,2|10|2,1:2|0:1|1:2,0:0:0:0:
25,105,51446,1,0,1:0:0:0:
178,151,51582,2,0,P|128:164|72:182,1,102,10|0,0:2|0:0,0:0:0:0:
66,186,51855,2,0,P|58:222|50:253,1,68,2|0,1:1|0:0,0:0:0:0:
264,117,52127,6,0,P|221:66|155:61,1,136,10|4,0:2|1:0,0:0:0:0:
159,65,53218,2,0,P|205:55|238:41,1,68,2|0,0:2|0:0,0:0:0:0:
391,301,53491,6,0,P|327:255|327:173,1,152.999995330811,2|0,1:1|0:0,0:0:0:0:
303,351,54037,6,1,B|324:238|391:303|412:182,1,204,2|0,1:1|1:0,0:0:0:0:
476,2,54582,6,0,P|449:44|360:44,1,114.749996498108,6|0,1:2|0:0,0:0:0:0:
382,63,54855,2,0,P|328:49|288:46,1,76.4999976654053,8|10,0:0|0:2,0:0:0:0:
145,151,55127,1,2,1:2:0:0:
300,52,55264,1,0,1:0:0:0:
202,25,55400,2,0,P|214:71|220:114,1,76.4999976654053,8|2,0:0|0:2,0:0:0:0:
108,313,55673,6,0,P|65:290|14:290,1,85,6|2,1:1|0:2,0:0:0:0:
111,282,55946,6,0,P|68:305|17:305,1,85,2|0,1:1|0:0,0:0:0:0:
133,308,56218,6,0,L|43:294,1,85,2|0,1:1|0:2,0:2:0:0:
108,344,56491,6,0,L|81:257,1,85,2|2,1:1|0:2,0:0:0:0:
289,96,56764,5,0,1:0:0:0:
247,232,56900,1,8,0:0:0:0:
165,189,57037,5,8,0:3:0:0:
370,138,57173,1,8,0:3:0:0:
510,299,57309,1,4,0:3:0:0:
501,307,57446,1,4,0:3:0:0:
426,375,57582,6,0,P|416:333|403:293,1,85,2|2,0:2|0:3,0:0:0:0:
477,36,57855,6,0,P|454:79|454:130,1,85,2|0,1:1|0:0,0:0:0:0:
446,33,58128,6,0,P|469:76|469:127,1,85,2|0,1:1|0:0,0:0:0:0:
472,11,58400,6,0,L|458:101,1,85,2|0,1:1|0:0,0:0:0:0:
508,36,58673,6,0,L|421:63,1,85,2|2,1:1|0:3,0:0:0:0:
157,137,58877,5,2,0:3:0:0:
148,130,58946,2,1,B|70:114|85:163|8:148,2,144.500002756119,6|2|11,1:0|1:2|0:1,0:0:0:0:
223,56,59627,1,0,3:0:0:0:
223,56,59696,1,0,3:0:0:0:
223,56,59764,2,0,P|167:45|126:29,1,72.2500013780594
275,249,60037,5,2,1:1:0:0:
120,209,60173,2,0,P|166:164|247:158,1,144.500002756119,8|0,0:0|1:0,0:0:0:0:
333,12,60582,2,0,P|320:48|310:103,1,72.2500013780594,10|0,0:1|0:0,0:0:0:0:
358,290,60855,2,0,B|372:255|372:255|358:209,1,72.2500013780594,2|2,0:2|0:3,0:0:0:0:
275,249,61059,1,2,0:3:0:0:
273,259,61127,2,2,P|209:274|88:306,1,190.400002324219,2|4,0:1|0:3,0:1:0:0:
156,130,63173,5,2,0:2:0:0:
507,229,63309,2,1,P|427:228|379:317,1,170.000000000001,6|8,1:0|0:0,0:0:0:0:
185,237,63718,2,1,P|133:249|117:251,2,42.4999999999967,2|0|2,3:2|3:0|1:2,0:0:0:0:
293,349,63991,2,1,B|271:311|271:311|281:256,1,84.9999999999935,0|8,1:0|0:0,0:0:0:0:
418,138,64264,5,2,3:2:0:0:
418,138,64332,1,0,3:0:0:0:
418,138,64400,2,1,P|479:126|527:116,1,84.999999999998,2|0,1:0|0:0,0:0:0:0:
233,0,64673,2,1,B|211:38|211:38|218:78,1,84.9999999999935,10|0,0:1|3:0,0:0:0:0:
223,84,64877,1,0,3:0:0:0:
228,90,64946,1,2,1:0:0:0:
420,33,65082,1,0,1:0:0:0:
312,162,65218,2,1,P|324:101|334:53,1,84.9999999999935,10|0,0:1|0:0,0:0:0:0:
138,10,65491,5,2,1:0:0:0:
138,10,65559,1,0,3:0:0:0:
138,10,65627,1,0,1:0:0:0:
138,10,65696,1,0,3:0:0:0:
138,10,65764,2,1,P|97:18|55:26,1,85.0000000000026,10|0,0:0|0:0,0:0:0:0:
398,250,66037,5,2,1:0:0:0:
398,250,66105,1,0,3:0:0:0:
398,250,66173,1,0,1:0:0:0:
398,250,66241,1,0,3:0:0:0:
398,250,66309,2,1,P|439:242|481:234,1,85,10|0,0:0|0:0,0:0:0:0:
183,93,66582,6,1,B|139:103|106:129|106:129|13:112,2,170,6|8|0,1:1|0:0|1:1,0:0:0:0:
71,384,67264,2,1,P|50:338|60:278,1,85.0000000000026,2|8,1:2|0:0,0:0:0:0:
186,195,67537,5,2,3:2:0:0:
186,195,67605,1,0,3:0:0:0:
186,195,67673,2,1,P|169:257|147:339,1,127.499999999999,2|0,1:1|0:0,0:0:0:0:
144,326,67946,1,8,0:0:0:0:
27,224,68082,2,1,L|68:214,1,42.4999999999967,2|0,3:1|3:0,0:0:0:0:
294,154,68218,2,1,P|281:206|272:243,1,85.0000000000026,2|0,1:2|1:0,0:0:0:0:
147,27,68491,2,1,P|208:8|252:20,1,85.0000000000026,10|2,0:1|0:2,0:0:0:0:
387,218,68764,6,1,P|439:207|462:94,2,170.000000000001,2|8|0,1:1|0:0|1:2,0:0:0:0:
208,105,69446,1,0,1:0:0:0:
208,105,69514,1,0,1:0:0:0:
208,105,69582,1,10,0:1:0:0:
333,21,69718,2,1,L|322:74,1,42.4999999999967,2|0,1:1|0:0,0:0:0:0:
367,362,69855,6,1,B|347:281|304:319|284:239,1,153.000000000001,6|0,1:0|0:0,0:0:0:0:
290,234,70127,1,8,0:0:0:0:
460,105,70264,6,1,P|400:124|302:152,1,153.000000000011,2|0,1:0|0:0,0:0:0:0:
305,143,70537,1,8,0:0:0:0:
75,72,70673,6,1,B|129:57|129:57|160:84|227:108,1,152.999995330811,2|0,1:0|0:0,0:0:0:0:
219,97,70946,1,12,0:2:0:0:
52,259,71082,1,2,1:0:0:0:
52,259,71150,1,0,1:0:0:0:
52,259,71218,2,1,P|22:248|-16:234,1,50.9999984436036,8|0,0:0|0:0,0:0:0:0:
105,152,71355,2,1,P|118:196|124:220,1,50.9999999999892,0|0,1:0|0:0,0:0:0:0:
184,375,71491,5,8,0:3:0:0:
219,282,71627,1,8,0:3:0:0:
184,375,71764,1,4,0:3:0:0:
30,357,71900,2,1,P|54:350|78:342,1,50.9999999999892,4|0,0:3|0:0,0:0:0:0:
404,144,72037,6,1,B|452:152|484:171|484:171|497:218|506:253,1,169.999999999996,6|8,1:0|0:0,0:0:0:0:
323,207,72446,2,1,P|312:162|303:139,2,42.5000000000013,0|0|0,3:0|3:0|1:0,1:0:0:0:
379,343,72718,2,1,P|390:299|402:259,1,85.0000000000116,0|8,1:0|0:0,0:0:0:0:
498,37,72991,5,0,3:0:0:0:
498,37,73059,1,0,3:0:0:0:
498,37,73127,2,1,P|443:48|397:57,1,84.9999999999935,2|0,1:1|0:0,0:0:0:0:
232,129,73400,2,1,B|210:91|210:91|217:51,1,85.0000000000026,10|0,0:1|3:0,0:0:0:0:
222,45,73605,1,0,3:0:0:0:
227,39,73673,1,2,1:1:0:0:
402,143,73809,1,0,1:0:0:0:
335,0,73946,2,1,P|327:50|319:96,1,85.0000000000026,10|0,0:1|0:0,0:0:0:0:
72,380,74218,6,1,P|12:350|15:238,1,153.000000000001,12|0,1:1|0:0,0:0:0:0:
166,189,74491,2,1,P|208:216|268:214,1,101.999999999989,14|0,1:1|3:0,0:0:0:0:
270,206,74696,1,0,3:0:0:0:
280,195,74764,1,14,1:1:0:0:
86,293,74900,1,2,0:1:0:0:
139,86,75037,1,14,1:1:0:0:
211,371,75173,1,2,0:1:0:0:
385,27,75309,6,1,P|465:26|513:115,2,170.000000000001,6|8|0,1:0|0:0|1:0,0:0:0:0:
318,106,75991,2,1,B|280:128|280:128|239:121,1,84.9999999999935,0|10,1:0|0:2,0:0:0:0:
44,21,76264,5,8,0:3:0:0:
46,14,76332,1,4,0:3:0:0:
48,7,76400,2,1,P|115:19|140:96,1,153.000000000001,6|0,1:1|1:0,0:0:0:0:
107,309,76809,2,1,P|90:222|74:148,1,153.000000000001,10|0,0:1|1:0,0:0:0:0:
76,159,77218,2,1,P|119:176|157:178,1,76.5000000000001,10|0,0:1|0:0,0:0:0:0:
409,89,77491,5,2,1:1:0:0:
407,77,77627,1,0,1:0:0:0:
280,28,77764,1,8,0:0:0:0:
325,112,77900,2,1,P|312:186|297:278,1,153.000000000001,8|0,0:0|1:0,0:0:0:0:
100,384,78309,2,1,P|51:357|47:263,1,153.000000000001,10|2,0:2|1:1,0:0:0:0:
44,267,78855,5,2,1:2:0:0:
123,307,78991,2,1,P|160:295|198:290,1,76.5000000000001,10|0,0:1|0:0,0:1:0:0:
355,379,79264,1,2,1:2:0:0:
294,265,79400,2,1,B|285:310|275:367,1,76.5000000000001,10|2,0:1|0:2,0:0:0:0:
467,196,79673,1,2,1:1:0:0:
467,196,79946,6,1,B|422:179|422:179|380:192|380:192|332:168|281:167,1,153.000000000001,12|4,0:1|0:3,0:0:0:0:
311,176,80218,2,1,L|299:113,1,51.0000000000001,8|0,0:3|0:0,0:0:0:0:
285,8,80355,1,8,0:3:0:0:
286,18,80423,1,4,0:3:0:0:
287,26,80491,2,1,P|335:40|373:48,1,85.0000000000116,2|0,1:0|3:0,0:0:0:0:
210,106,80696,5,0,3:0:0:0:
208,96,80764,2,1,B|117:78|135:136|43:118,1,169.999999999987,6|0,1:0|0:0,0:0:0:0:
43,118,81173,1,0,1:0:0:0:
196,290,81309,2,1,B|192:227|171:182|171:182|224:220,1,169.999999999996,10|0,0:1|0:0,0:0:0:0:
121,355,81718,1,0,3:0:0:0:
121,355,81787,1,0,3:0:0:0:
121,355,81855,1,2,1:0:0:0:
14,229,81991,2,1,P|56:235|96:250,1,85.0000000000026,8|0,0:0|0:0,0:0:0:0:
203,296,82264,1,0,1:0:0:0:
333,108,82400,6,1,P|290:112|251:127,1,85,10|0,0:1|1:0,0:0:0:0:
408,352,82673,2,1,P|447:368|488:376,1,85.0000000000026,8|0,0:0|1:0,0:0:0:0:
366,197,82946,1,2,0:2:0:0:
369,201,84037,6,0,P|441:219|472:286,1,152.999995330811,4|0,1:0|0:0,0:0:0:0:
502,28,84582,6,0,P|482:114|461:201,1,178.499994552612,4|0,1:2|0:0,0:0:0:0:
5,332,85127,6,0,P|57:312|100:304,1,76.4999976654053,0|0,1:0|0:0,0:0:0:0:
193,244,85400,2,0,P|156:234|120:219,1,76.4999976654053,0|0,1:0|0:0,0:0:0:0:
39,178,85673,1,0,1:0:0:0:
108,120,85809,1,0,0:0:0:0:
155,335,85946,1,0,1:0:0:0:
73,294,86082,1,0,0:0:0:0:
268,116,86218,1,0,1:0:0:0:
507,377,87309,5,12,1:1:0:0:
