osu file format v14

[General]
AudioFilename: audio.mp3
AudioLeadIn: 0
PreviewTime: 63173
Countdown: 0
SampleSet: Soft
StackLeniency: 1
Mode: 0
LetterboxInBreaks: 0
WidescreenStoryboard: 1

[Editor]
DistanceSpacing: 0.4
BeatDivisor: 4
GridSize: 4
TimelineZoom: 1.5

[Metadata]
Title:bloom (TV Size)
TitleUnicode:bloom (TV Size)
Artist:NECRY TALKIE
ArtistUnicode:ネクライトーキー
Creator:fedora
Version:atomosphere's expert
Source:Scott Pilgrim Takes Off
Tags:atomosphere lewski スコット・ピルグリム テイクス・オフ Netflix Series -Anime size- 4th fourth 4 four Album TORCH 朝日 カズマ・タケイ もっさ 中村郁香 藤田 NecryTalkie Mossa Higa Asahi Ren Ishifuro Fujita Aya Kazuma Takei Ayaka Nakamura Mu-san theme song japanese female vocal vocalist rock pop jpop j-pop jrock j-rock anime cartoon op opening
BeatmapID:4463794
BeatmapSetID:2097704

[Difficulty]
HPDrainRate:6
CircleSize:4.1
OverallDifficulty:8.2
ApproachRate:9.5
SliderMultiplier:1.8
SliderTickRate:1

[Events]
//Background and Video events
0,0,"Screenshot (85).png",0,0
//Break Periods
//Storyboard Layer 0 (Background)
//Storyboard Layer 1 (Fail)
//Storyboard Layer 2 (Pass)
//Storyboard Layer 3 (Foreground)
//Storyboard Layer 4 (Overlay)
//Storyboard Sound Samples

[TimingPoints]
37,272.727272727273,4,2,0,60,1,0
4400,-76.9230769230768,4,2,0,70,0,0
4946,-83.333333333334,4,2,0,70,0,0
5218,-99.999999999999,4,2,0,70,0,0
8764,-76.9230769230778,4,2,0,70,0,0
13127,-142.857142857143,4,2,0,60,0,0
14218,-111.111111111111,4,2,0,60,0,0
19127,-83.3333333333322,4,2,0,60,0,0
19673,-90.9090909090926,4,2,0,60,0,0
20764,-111.111111111112,4,2,0,60,0,0
29218,-83.3333333333333,4,2,0,60,0,0
30582,-99.9999999999997,4,2,0,60,0,0
30991,-111.111111111108,4,2,0,60,0,0
32764,-90.9090909090938,4,2,0,60,0,0
33855,-111.111111111111,4,2,0,60,0,0
37127,-83.3333333333333,4,2,0,60,0,0
37673,-111.111111111111,4,2,0,60,0,0
41491,-83.3333333333359,4,2,0,60,0,0
44900,-99.999999999997,4,2,0,60,0,0
45037,-83.3333333333329,4,2,0,60,0,0
45582,-100.000000000008,4,2,0,60,0,0
48037,-100.000000000008,4,2,0,70,0,0
48309,-83.3333333333329,4,2,0,70,0,0
49400,-100.000000000002,4,2,0,70,0,0
54037,-83.3333333333347,4,2,0,70,0,0
54582,-100.000000000008,4,2,0,70,0,0
55264,-83.3333333333374,4,2,0,70,0,0
58946,-100.000000000008,4,2,0,70,0,0
61127,-333.333333333333,4,2,0,70,0,0
63309,-83.3333333333359,4,2,0,80,0,0
63855,-99.999999999997,4,2,0,80,0,0
64400,-83.3333333333329,4,2,0,80,0,0
66582,-99.999999999997,4,2,0,80,0,0
66855,-83.3333333333329,4,2,0,80,0,0
67400,-99.999999999997,4,2,0,80,0,0
69173,-83.3333333333333,4,2,0,80,0,0
74218,-83.3333333333333,4,2,0,90,0,0
75309,-83.3333333333333,4,2,0,80,0,0
75582,-100.000000000008,4,2,0,80,0,0
81309,-199.999999999973,4,2,0,80,0,0
84037,-199.999999999973,4,2,0,70,0,0

[Colours]
Combo1 : 17,254,176
Combo2 : 173,255,95
Combo3 : 226,106,236
Combo4 : 255,130,98

[HitObjects]
48,233,4400,6,0,B|129:210|148:274|226:236,1,175.5,6|0,1:2|2:0,2:0:0:0:
219,239,4673,1,10,2:0:0:0:
382,344,4809,1,0,1:0:0:0:
482,234,4946,2,0,P|426:242|344:285,1,107.999999999999,2|0,3:2|2:0,2:0:0:0:
456,311,5218,6,0,P|456:274|438:209,1,90.0000000000009,14|0,2:0|2:0,2:0:0:0:
58,118,5491,1,2,1:2:0:0:
130,74,5627,1,2,2:0:0:0:
251,156,5764,1,14,2:0:0:0:
316,23,5900,1,2,1:2:0:0:
234,78,6037,1,2,3:2:0:0:
371,171,6173,1,2,1:2:0:0:
165,250,6309,1,8,2:0:0:0:
265,354,6446,5,0,3:0:0:0:
265,354,6514,1,0,3:0:0:0:
265,354,6582,1,4,1:0:0:0:
298,252,6718,1,2,1:2:0:0:
380,372,6855,1,10,2:0:0:0:
155,339,6991,6,0,P|66:354|2:383,1,135,2|0,1:0|2:0,2:0:0:0:
106,379,7264,6,8,P|158:305|168:276,1,89.9999999999997,2|8,1:0|2:0,2:0:0:0:
275,141,7537,1,8,3:3:0:0:
418,239,7673,5,2,1:0:0:0:
431,247,7741,1,2,2:0:0:0:
443,255,7809,1,0,2:0:0:0:
404,154,7946,1,8,3:0:0:0:
267,268,8082,5,2,3:0:0:0:
512,162,8218,1,2,3:0:0:0:
15,254,8491,1,2,3:0:0:0:
343,47,8764,6,0,B|260:19|254:87|137:23,1,175.499999999998,6|0,1:2|2:0,2:0:0:0:
171,39,9037,1,2,1:2:0:0:
76,191,9173,2,0,P|67:155|126:112,1,117.000000000001,2|0,1:2|3:0,2:0:0:0:
251,207,9446,1,2,1:2:0:0:
15,254,9582,6,8,B|48:259|72:226|72:226|113:281|190:268,1,175.500000000001,10|8,1:2|2:0,2:0:0:0:
234,245,9855,1,2,1:2:0:0:
344,198,9991,1,2,2:0:0:0:
344,198,10059,1,2,2:0:0:0:
344,198,10127,1,10,2:0:0:0:
473,244,10264,5,10,3:0:0:0:
356,170,10400,1,2,2:0:0:0:
208,294,10537,1,2,1:2:0:0:
40,156,10673,5,4,1:0:0:0:
266,374,10809,1,2,3:2:0:0:
266,374,10877,1,2,3:2:0:0:
266,374,10946,1,6,2:1:0:0:
363,280,12582,5,0,1:0:0:0:
161,329,12718,1,2,1:2:0:0:
69,71,13127,6,0,L|144:83,1,63.0000000000001,4|0,1:0|2:0,2:0:0:0:
237,177,13400,1,0,2:0:0:0:
307,145,13537,1,4,2:3:0:0:
245,96,13673,1,4,1:3:0:0:
148,184,13809,2,0,P|149:219|158:250,1,63.0000000000001,2|0,2:0|2:0,2:0:0:0:
74,299,14082,5,2,2:2:0:0:
74,299,14218,2,0,P|106:280|243:281,1,162.000000000001,0|0,1:0|2:0,2:0:0:0:
340,336,14627,1,4,2:3:0:0:
435,192,14764,2,0,P|412:198|358:254,1,81.0000000000002,14|0,1:2|2:0,3:0:0:0:
443,263,15037,2,0,P|448:239|427:165,1,81.0000000000002,2|0,2:2|2:0,0:0:0:0:
377,234,15309,2,0,P|393:250|469:269,1,81.0000000000002,4|0,1:3|2:0,3:0:0:0:
379,37,15582,5,0,1:0:0:0:
358,118,15718,1,4,3:3:0:0:
433,86,15855,2,0,B|370:60|326:121|254:80,1,162,2|0,1:2|2:0,2:0:0:0:
90,119,16264,1,4,2:3:0:0:
57,50,16400,6,0,B|43:103|43:103|91:98|91:98|109:23,1,162.000000000001,0|0,1:0|2:0,2:0:0:0:
184,72,16809,1,0,2:0:0:0:
319,32,16946,2,0,B|286:7|286:7|243:30,1,81.0000000000002,0|2,1:2|2:2,2:0:0:0:
144,173,17218,1,0,1:0:0:0:
68,199,17355,1,8,2:3:0:0:
90,119,17491,6,0,L|281:155,1,162.000000000001,0|0,3:0|3:0,3:0:0:0:
455,204,17900,1,8,3:0:0:0:
404,309,18037,2,0,L|387:231,1,81.0000000000002,12|0,1:2|2:0,2:0:0:0:
289,365,18309,1,8,2:3:0:0:
133,267,18446,5,4,2:3:0:0:
162,363,18582,2,0,L|185:182,1,161.999999999999,0|0,1:0|2:0,2:0:0:0:
90,30,18991,1,4,2:3:0:0:
48,123,19127,6,0,B|40:43|40:43|113:75|113:75|65:111,1,216.000000000003,0|2,1:0|2:0,2:0:0:0:
156,181,19537,1,8,2:3:0:0:
48,123,19673,6,0,P|99:78|234:71,1,197.999999999996,2|0,1:2|2:0,2:0:0:0:
337,151,20082,1,0,2:0:0:0:
468,113,20218,6,0,P|477:73|439:88,1,99.0000000000006,0|0,1:0|2:0,2:0:0:0:
312,179,20491,2,0,P|297:141|337:151,1,99.0000000000033,4|12,0:3|1:3,2:0:0:0:
364,66,20764,2,0,L|389:249,1,161.999999999999,4|0,2:3|2:0,2:0:0:0:
495,338,21173,5,0,1:0:0:0:
462,348,21309,5,0,1:0:0:0:
341,331,21446,5,0,1:0:0:0:
243,273,21582,5,8,3:0:0:0:
200,210,21718,5,8,3:0:0:0:
254,233,21855,6,0,B|193:208|164:274|70:230,1,162.000000000003,4|0,1:2|2:0,2:0:0:0:
16,104,22264,1,8,2:3:0:0:
2,29,22400,1,2,1:2:0:0:
90,9,22537,1,0,2:0:0:0:
103,83,22673,1,0,3:0:0:0:
51,59,22809,1,4,3:3:0:0:
209,0,22946,6,0,L|193:105,1,81.0000000000024,2|0,1:2|2:0,2:0:0:0:
323,185,23218,1,0,2:0:0:0:
344,76,23355,1,4,2:3:0:0:
240,141,23491,6,0,B|230:96|230:96|364:73,1,162.000000000001,2|0,1:2|2:0,2:0:0:0:
451,3,23900,1,0,2:0:0:0:
451,3,24037,2,0,L|467:98,1,81.0000000000024,0|0,1:0|2:0,2:0:0:0:
361,288,24309,5,0,2:0:0:0:
407,230,24446,1,0,2:0:0:0:
329,215,24582,1,4,2:3:0:0:
275,277,24718,2,0,P|284:320|299:358,1,81.0000000000002,2|0,1:2|2:0,2:0:0:0:
200,311,24991,1,0,3:0:0:0:
137,250,25127,2,8,P|173:233|207:210,1,80.9999999999981,2|0,1:2|2:0,3:0:0:0:
188,383,25400,6,0,P|146:369|105:363,1,81.0000000000002,2|4,3:2|3:3,3:0:0:0:
18,249,25673,2,0,P|40:186|40:70,1,162.000000000001,4|0,1:0|2:0,2:0:0:0:
203,61,26082,5,4,2:3:0:0:
135,118,26218,2,0,P|71:81|184:10,1,242.999999999999,6|0,1:2|2:0,2:0:0:0:
220,38,26764,1,4,2:3:0:0:
273,119,26900,1,8,2:3:0:0:
211,286,27037,5,0,1:0:0:0:
360,156,27173,1,2,1:2:0:0:
510,237,27309,1,6,1:0:0:0:
99,312,27582,6,0,B|248:225|255:439|418:336,1,324.000000000001,6|12,2:1|1:2,2:0:0:0:
283,217,28400,6,0,P|247:207|204:193,1,80.9999999999981,6|0,1:2|2:0,2:0:0:0:
0,248,28673,6,8,P|31:228|67:202,1,81.0000000000024,10|0,0:0|2:0,2:0:0:0:
135,12,28946,1,2,1:2:0:0:
137,164,29082,1,2,2:2:0:0:
66,58,29218,2,0,B|136:138|136:138|210:47,1,216,8|0,2:0|1:0,2:0:0:0:
308,45,29627,1,2,1:2:0:0:
328,148,29764,6,0,B|269:123|269:123|223:176,1,108.000000000003,8|0,0:0|2:0,2:0:0:0:
333,298,30037,1,2,1:2:0:0:
455,180,30173,1,2,1:2:0:0:
427,264,30309,2,0,B|351:289|351:289|282:220,1,162.000000000001,8|0,0:0|2:0,2:0:0:0:
293,231,30582,6,0,P|304:269|310:336,1,90.0000000000003,4|0,1:0|2:0,2:0:0:0:
107,373,30855,1,8,2:0:0:0:
181,351,30991,2,0,P|197:314|207:275,1,81.0000000000024,2|0,1:2|2:0,2:0:0:0:
0,268,31264,1,0,1:0:0:0:
0,268,31400,2,0,P|15:305|36:340,1,81.0000000000002,10|0,1:2|2:0,1:0:0:0:
198,192,31673,5,0,1:0:0:0:
147,164,31809,1,0,1:0:0:0:
62,166,31946,2,0,L|-37:194,1,81.0000000000002,10|0,1:2|2:0,2:0:0:0:
120,46,32218,2,0,L|219:74,1,81.0000000000024,2|0,1:2|2:0,2:0:0:0:
299,242,32491,2,0,L|284:156,1,81.0000000000002,10|0,1:2|2:0,2:0:0:0:
471,12,32764,6,0,B|398:0|398:0|315:78,1,148.499999999995,6|0,1:2|2:0,2:0:0:0:
344,51,33037,2,0,L|327:164,1,99.0000000000006,8|0,0:0|2:0,2:0:0:0:
380,375,33309,1,2,1:2:0:0:
462,270,33446,1,2,1:2:0:0:
337,283,33582,2,0,B|281:272|251:332|169:288,1,148.499999999998,0|0,1:0|2:0,2:0:0:0:
105,245,33855,6,0,P|93:281|71:330,1,81.0000000000002,2|0,1:2|2:0,2:0:0:0:
212,213,34127,2,0,P|186:185|154:141,1,81.0000000000002,10|0,0:2|2:0,3:0:0:0:
0,161,34400,5,2,1:2:0:0:
147,69,34537,1,2,3:2:0:0:
52,15,34673,2,0,L|-34:36,1,81.0000000000002,10|0,0:2|2:0,2:0:0:0:
245,114,34946,5,2,1:2:0:0:
315,67,35082,1,2,3:2:0:0:
242,31,35218,1,8,1:2:0:0:
264,71,35355,1,0,3:0:0:0:
396,24,35491,5,2,1:2:0:0:
380,128,35627,1,2,1:2:0:0:
474,88,35764,1,0,1:0:0:0:
182,259,36037,5,6,1:0:0:0:
327,289,36173,1,2,2:0:0:0:
156,333,36309,5,6,1:0:0:0:
349,215,36446,1,0,1:0:0:0:
106,220,36582,5,6,1:0:0:0:
388,339,36718,5,0,1:0:0:0:
248,118,36855,5,0,3:0:0:0:
249,124,36923,1,0,3:0:0:0:
252,131,36991,1,0,3:0:0:0:
255,138,37059,1,0,3:0:0:0:
187,162,37127,2,0,B|304:119|278:214|407:158,1,216,6|0,1:0|3:0,3:0:0:0:
412,48,37537,5,2,1:2:0:0:
291,17,37673,2,0,L|195:38,1,81.0000000000002,8|0,0:0|2:0,2:0:0:0:
13,150,37946,1,2,1:2:0:0:
134,27,38082,6,0,B|166:45|166:45|101:115|117:173,1,162.000000000005,8|0,0:0|1:0,3:0:0:0:
0,261,38491,2,0,P|19:305|43:289,1,81.0000000000002,8|0,0:0|2:0,2:0:0:0:
206,372,38764,5,2,1:2:0:0:
277,341,38900,1,2,1:2:0:0:
404,321,39037,1,10,2:2:0:0:
491,339,39173,5,0,3:0:0:0:
491,339,39309,1,6,1:2:0:0:
417,280,39446,1,2,1:2:0:0:
498,207,39582,1,10,1:2:0:0:
339,112,39718,1,0,3:0:0:0:
469,11,39855,6,0,L|452:153,1,121.5,0|0,1:0|2:0,2:0:0:0:
454,131,40127,1,0,1:0:0:0:
309,218,40264,1,8,2:0:0:0:
235,22,40400,6,0,B|274:10|274:10|269:59,1,81.0000000000002,2|0,1:0|0:0,2:0:0:0:
77,181,40673,2,0,B|67:124|67:124|129:103,1,121.5,14|0,2:1|2:0,2:0:0:0:
127,103,40946,5,0,1:0:0:0:
166,265,41082,1,0,1:0:0:0:
2,215,41218,2,0,L|158:199,1,121.499999999996,10|0,1:0|2:0,2:0:0:0:
350,164,41491,6,8,B|367:154|391:162|391:162|324:128|269:171,1,161.999999999995,4|0,1:2|2:0,2:0:0:0:
77,181,41764,6,0,L|91:325,1,108.000000000001,10|0,1:2|2:0,2:0:0:0:
271,371,42037,5,0,1:0:0:0:
342,319,42173,1,0,2:0:0:0:
283,254,42309,1,8,0:0:0:0:
212,305,42446,1,0,3:0:0:0:
378,383,42582,6,0,P|386:283|365:209,1,162.000000000007,4|0,1:0|2:0,2:0:0:0:
332,162,42855,1,8,0:2:0:0:
229,97,42991,1,0,2:0:0:0:
151,85,43127,1,0,1:0:0:0:
103,100,43264,1,0,1:0:0:0:
147,124,43400,1,12,0:2:0:0:
230,116,43537,1,0,3:0:0:0:
313,70,43673,5,6,1:0:0:0:
75,268,43809,1,8,0:0:0:0:
101,191,43946,2,0,P|105:276|125:360,1,162.000000000001,4|0,3:0|2:0,2:0:0:0:
121,350,44218,2,0,P|76:321|13:319,1,108.000000000001,10|0,1:1|2:0,2:0:0:0:
272,304,44491,1,0,1:0:0:0:
276,148,44627,6,8,P|208:202|194:313,1,161.999999999995,10|0,0:1|2:0,2:0:0:0:
188,272,44900,2,0,P|150:238|136:232,1,45.0000000000013,0|0,1:0|2:0,2:0:0:0:
0,99,45037,6,0,B|72:74|92:139|179:98,1,162.000000000001,14|0,2:1|2:0,2:0:0:0:
175,99,45309,1,8,1:0:0:0:
56,46,45446,1,4,1:3:0:0:
268,0,45582,2,0,L|252:99,1,89.9999999999931,4|0,1:0|2:0,2:0:0:0:
440,265,45855,5,4,2:0:0:0:
110,213,47218,5,2,2:2:0:0:
142,236,47355,1,0,2:0:0:0:
197,185,47491,1,2,2:2:0:0:
266,244,47627,1,0,2:0:0:0:
305,146,47764,1,2,2:2:0:0:
198,293,47900,1,0,2:0:0:0:
68,108,48037,5,12,0:1:0:0:
256,36,48173,1,4,0:3:0:0:
0,76,48309,2,0,B|160:52,1,162.000000000001,8|0,2:0|2:0,2:0:0:0:
160,52,48582,6,0,B|117:92|117:92|130:159,1,108.000000000001,12|0,0:1|2:0,2:0:0:0:
174,373,48855,1,4,1:3:0:0:
281,200,48991,2,0,B|215:192|215:192|141:231|141:231|32:208,1,215.999999999994,8|0,2:1|1:0,2:0:0:0:
0,336,49400,6,0,L|104:321,1,89.9999999999979,12|0,0:1|2:0,2:0:0:0:
89,323,49605,1,2,3:0:0:0:
89,323,49673,1,10,0:1:0:0:
259,373,49809,1,0,1:0:0:0:
396,157,49946,1,12,2:0:0:0:
486,110,50218,6,0,B|407:87|384:155|293:119,1,180.000000000001,4|0,1:0|2:0,2:0:0:0:
214,86,50627,1,0,3:0:0:0:
246,16,50764,2,0,P|290:19|352:36,1,90.0000000000027,0|0,1:0|2:0,2:0:0:0:
233,168,51037,2,0,P|189:171|127:188,1,89.9999999999979,8|0,0:0|2:0,2:0:0:0:
0,190,51309,5,2,1:2:0:0:
113,91,51446,2,0,P|133:51|122:8,1,89.9999999999979,8|0,0:0|2:0,2:0:0:0:
15,104,51718,5,0,1:0:0:0:
94,219,51855,1,8,0:0:0:0:
205,124,51991,1,0,3:0:0:0:
205,124,52059,1,0,3:0:0:0:
205,124,52127,1,8,0:0:0:0:
105,137,52264,1,0,1:0:0:0:
396,326,52400,6,0,B|275:242|233:338|182:426|47:307,1,359.999999999996,4|0,1:0|2:0,2:0:0:0:
323,70,53491,6,0,P|194:65|261:175,1,315,4|0,1:0|2:0,2:0:0:0:
34,135,54037,6,0,P|160:214|256:101,1,323.999999999995,4|0,2:0|3:0,3:0:0:0:
353,18,54582,6,0,P|344:70|371:130,1,89.9999999999931,2|0,1:2|2:0,1:0:0:0:
382,379,54855,5,8,0:0:0:0:
378,240,54991,1,2,2:2:0:0:
503,285,55127,1,2,1:2:0:0:
421,313,55264,2,0,P|413:258|424:180,1,107.999999999995,8|0,0:2|2:0,2:0:0:0:
256,26,55537,5,0,3:0:0:0:
256,26,55605,1,0,3:0:0:0:
256,26,55673,1,4,1:0:0:0:
206,185,55946,1,0,1:0:0:0:
261,342,56218,1,0,1:0:0:0:
268,118,56491,1,0,1:0:0:0:
125,165,56764,6,0,L|11:188,1,108.000000000001,0|8,1:0|2:0,2:0:0:0:
15,99,57037,1,4,2:3:0:0:
152,139,57173,1,8,2:3:0:0:
0,259,57309,1,8,2:3:0:0:
127,315,57446,1,4,2:3:0:0:
86,207,57582,1,0,2:0:0:0:
256,26,57718,5,0,3:0:0:0:
256,26,57787,1,0,3:0:0:0:
256,26,57855,1,4,1:0:0:0:
417,135,58127,1,0,1:0:0:0:
127,315,58400,1,0,1:0:0:0:
251,114,58673,1,2,1:3:0:0:
466,350,58946,6,0,P|482:308|480:263,1,89.9999999999931,0|0,1:0|2:0,3:0:0:0:
409,304,59218,2,0,P|435:339|475:359,1,90.0000000000027,0|0,1:0|2:0,3:0:0:0:
475,279,59491,2,0,P|430:283|393:308,1,89.9999999999979,8|0,0:0|2:0,3:0:0:0:
249,374,59764,1,0,1:0:0:0:
181,182,59900,1,8,2:0:0:0:
280,265,60037,5,0,1:0:0:0:
279,265,60173,2,0,P|303:179|278:94,1,179.999999999996,14|0,2:0|1:0,2:0:0:0:
76,62,60582,1,8,0:0:0:0:
61,76,60718,1,0,1:0:0:0:
85,116,60855,1,8,2:3:0:0:
167,146,60991,1,2,0:3:0:0:
352,92,61127,6,0,L|358:56,1,27,2|0,1:2|2:0,2:0:0:0:
159,251,61400,6,0,L|165:287,1,27,2|0,2:2|2:0,2:0:0:0:
431,105,61673,6,0,P|435:67|432:21,1,81.0000000000016,2|0,2:0|2:0,2:0:0:0:
72,321,62218,5,4,3:0:0:0:
0,161,63309,6,0,B|80:137|82:197|175:159,1,161.999999999995,6|0,1:0|2:0,2:0:0:0:
158,165,63582,1,8,2:1:0:0:
281,20,63718,1,2,3:2:0:0:
281,20,63787,1,2,3:2:0:0:
281,20,63855,2,0,L|269:84,1,45.0000000000013,0|0,1:0|2:0,2:0:0:0:
234,223,63991,1,0,1:0:0:0:
365,137,64127,1,8,2:1:0:0:
163,82,64264,1,2,3:2:0:0:
251,145,64400,6,0,B|269:103|269:103|244:35,1,108.000000000001,6|0,1:2|2:0,2:0:0:0:
0,256,64673,2,0,L|113:236,1,108.000000000001,10|0,1:0|2:0,2:0:0:0:
106,237,64877,1,2,3:2:0:0:
106,237,64946,1,2,1:2:0:0:
15,364,65082,1,0,1:0:0:0:
260,289,65218,2,0,B|219:230|150:252|150:252|181:329,1,162.000000000001,10|0,2:1|2:0,2:0:0:0:
15,364,65491,6,0,B|22:357|22:357|30:367|30:367|34:360|34:360|188:375,1,161.999999999995,6|0,1:0|2:0,0:0:0:0:
233,329,65764,2,0,B|286:318|286:318|287:371,1,108.000000000001,8|0,1:0|2:0,2:0:0:0:
511,171,66037,6,0,B|470:134|470:134|445:199|400:228,1,162.000000000001,2|0,1:0|2:0,2:0:0:0:
336,264,66309,2,0,B|317:288|317:288|289:176,1,108.000000000001,8|0,1:0|2:0,2:0:0:0:
264,45,66514,5,2,3:0:0:0:
256,36,66582,2,0,L|244:160,1,90.0000000000027,2|0,1:0|2:0,2:0:0:0:
0,80,66855,2,0,B|87:62|71:116|161:91,1,162.000000000001,8|0,2:1|2:0,2:0:0:0:
157,91,67127,1,0,1:0:0:0:
0,241,67264,1,2,1:2:0:0:
66,144,67400,6,0,P|80:101|86:56,1,90.0000000000027,8|0,2:1|2:0,2:0:0:0:
308,246,67673,2,0,P|285:179|275:109,1,134.999999999999,2|0,1:2|2:0,2:0:0:0:
275,115,67946,2,0,P|233:148|200:166,1,90.0000000000027,8|2,1:0|2:0,2:0:0:0:
8,322,68218,5,2,1:2:0:0:
107,198,68355,1,0,1:0:0:0:
210,304,68491,1,8,3:1:0:0:
118,283,68627,5,2,3:2:0:0:
118,283,68696,1,2,3:2:0:0:
118,283,68764,2,0,B|109:293|109:293|115:303|115:303|101:382,1,90.0000000000027,6|0,1:0|2:0,2:0:0:0:
264,370,69037,1,8,2:1:0:0:
8,322,69173,2,0,B|69:334|69:334|146:290|146:290|210:304,1,216,6|0,1:2|1:0,2:0:0:0:
387,207,69582,1,8,2:1:0:0:
477,351,69718,5,2,3:0:0:0:
477,351,69787,1,2,3:0:0:0:
477,351,69855,2,0,P|450:310|419:137,1,215.999999999989,6|0,1:0|1:0,2:0:0:0:
465,34,70264,6,0,P|442:77|308:191,1,216.000000000012,14|0,2:0|1:0,2:0:0:0:
197,203,70673,6,0,P|246:200|411:259,1,216,6|8,1:0|3:0,3:0:0:0:
448,317,71082,5,8,1:0:0:0:
448,317,71150,1,8,1:0:0:0:
448,317,71218,1,0,1:0:0:0:
420,357,71355,1,8,2:1:0:0:
318,244,71491,1,8,1:3:0:0:
336,383,71627,1,8,2:3:0:0:
512,183,71764,5,4,2:3:0:0:
494,382,71900,1,4,2:3:0:0:
226,196,72037,6,0,B|295:170|318:226|385:194,1,162.000000000001,6|0,1:0|2:0,2:0:0:0:
383,194,72309,2,0,P|340:154|303:100,1,108.000000000001,8|2,2:1|2:0,2:0:0:0:
188,45,72582,1,2,1:2:0:0:
38,223,72718,1,2,1:2:0:0:
38,223,72787,1,2,3:2:0:0:
38,223,72855,2,0,P|81:184|104:135,1,108.000000000001,8|0,2:1|2:0,2:0:0:0:
226,277,73127,6,0,P|254:334|152:364,1,180.000000000005,6|0,1:2|2:0,2:0:0:0:
141,252,73400,2,0,B|143:240|143:240|188:217|230:258,1,108.000000000001,10|0,2:1|2:0,2:0:0:0:
364,373,73673,5,2,1:2:0:0:
505,239,73809,1,0,1:0:0:0:
342,226,73946,2,0,B|301:210|257:234|257:234|260:170|210:134,1,162.000000000001,10|0,2:1|2:0,2:0:0:0:
331,20,74218,6,0,L|345:146,1,108.000000000012,14|0,2:1|1:2,2:0:0:0:
342,127,74423,1,2,2:0:0:0:
342,127,74491,1,10,2:1:0:0:
434,51,74627,1,0,1:0:0:0:
238,77,74764,1,10,2:1:0:0:
433,190,74900,1,2,1:0:0:0:
190,263,75037,1,10,2:1:0:0:
249,179,75173,5,2,3:0:0:0:
249,179,75241,1,2,3:0:0:0:
249,179,75309,2,4,B|257:199|257:199|246:204|246:204|233:354,1,162.000000000001,6|0,1:0|2:0,2:0:0:0:
88,384,75582,2,0,P|128:363|164:335,1,89.9999999999931,8|0,2:1|2:0,2:0:0:0:
280,253,75855,1,0,1:0:0:0:
361,373,75991,1,0,1:0:0:0:
471,192,76127,2,0,P|431:213|379:301,1,134.999999999999,8|8,2:1|2:1,2:0:0:0:
382,286,76400,6,0,P|389:228|374:176,1,90.0000000000027,6|0,1:2|2:0,2:0:0:0:
314,44,76673,1,10,2:2:0:0:
400,112,76809,6,0,B|384:122|384:122|311:30|204:69,1,179.999999999996,4|0,1:2|1:0,2:0:0:0:
0,191,77218,2,0,B|42:206|46:170|103:188,1,90.0000000000027,10|0,2:2|2:0,1:0:0:0:
268,314,77491,1,2,1:0:0:0:
254,310,77627,1,0,3:0:0:0:
166,362,77764,1,0,1:0:0:0:
222,218,77900,1,0,1:0:0:0:
353,325,78037,1,10,2:3:0:0:
264,301,78173,1,6,2:3:0:0:
275,152,78309,6,0,L|287:17,1,134.999999999999,10|0,1:1|2:0,2:0:0:0:
287,17,78582,5,4,2:0:0:0:
0,184,78855,1,2,1:2:0:0:
46,239,78991,2,0,P|50:200|66:139,1,89.9999999999931,8|2,2:2|2:0,2:0:0:0:
193,89,79264,1,2,1:2:0:0:
171,163,79400,2,0,P|166:124|146:21,1,134.999999999999,10|0,2:2|2:0,2:0:0:0:
148,30,79673,6,0,B|238:66|244:3|331:34,1,180.000000000005,2|4,1:2|2:1,2:0:0:0:
489,149,80082,1,8,2:1:0:0:
489,149,80150,1,8,2:1:0:0:
489,149,80218,1,10,2:1:0:0:
385,211,80355,1,8,3:0:0:0:
254,122,80491,1,10,2:1:0:0:
38,238,80627,1,4,3:0:0:0:
250,214,80764,5,6,2:1:0:0:
73,57,81037,5,2,1:2:0:0:
50,141,81173,1,2,1:2:0:0:
164,65,81309,2,0,L|152:6,1,45.0000000000062,10|0,2:1|2:0,2:0:0:0:
325,120,81582,5,2,2:2:0:0:
302,36,81718,1,0,1:0:0:0:
403,2,81855,1,2,2:2:0:0:
389,83,81991,2,0,L|377:142,1,45.0000000000013,10|0,2:1|2:0,2:0:0:0:
494,334,82264,1,0,1:0:0:0:
369,284,82400,5,10,2:1:0:0:
492,243,82537,1,8,2:3:0:0:
235,225,82673,1,6,2:3:0:0:
252,379,82946,6,0,B|231:349|231:349|223:307|223:307|256:259|256:259|254:197|254:197|222:154|222:154|220:113|220:113|241:61,1,337.499999999998,6|0,2:0|2:0,2:0:0:0:
236,72,84037,5,4,1:0:0:0:
512,1,84582,1,4,2:0:0:0:
0,0,85127,5,0,1:0:0:0:
0,0,85400,2,0,L|33:33,1,45.0000000000013,0|0,1:0|2:0,2:0:0:0:
98,14,85673,2,0,L|121:54,1,45.0000000000062,0|0,1:0|2:0,2:0:0:0:
172,59,85946,2,0,L|184:104,1,45.0000000000013,0|0,1:0|2:0,2:0:0:0:
244,147,86218,1,0,1:0:0:0:
512,68,86355,5,0,2:0:0:0:
512,68,86491,1,0,2:0:0:0:
491,38,86627,1,0,2:0:0:0:
422,19,86764,1,0,2:0:0:0:
357,38,86900,1,0,2:0:0:0:
299,91,87037,1,0,2:0:0:0:
275,167,87173,1,0,2:0:0:0:
268,260,87309,5,4,2:0:0:0:
