osu file format v14

[General]
AudioFilename: audio.ogg
AudioLeadIn: 0
PreviewTime: 131677
Countdown: 0
SampleSet: Soft
StackLeniency: 0.7
Mode: 0
LetterboxInBreaks: 0
WidescreenStoryboard: 1

[Editor]
Bookmarks: 729,22797,44866,66935,89004,111073,133142,155211,177280,199349,221418,243487,265556,287625,309694
DistanceSpacing: 1
BeatDivisor: 4
GridSize: 32
TimelineZoom: 1.3

[Metadata]
Title:Lost & Found (Telomic Remix)
TitleUnicode:Lost & Found (Telomic Remix)
Artist:NCT x Dualistic
ArtistUnicode:NCT x Dualistic
Creator:Asphyxia
Version:Serenity
Source:
Tags:liquicity liquid dnb drum n bass slips electronic english collab and edm dance RE​:​ASTROPHYSICAL
BeatmapID:3561450
BeatmapSetID:1742111

[Difficulty]
HPDrainRate:5
CircleSize:4.1
OverallDifficulty:9
ApproachRate:9.3
SliderMultiplier:1.9
SliderTickRate:1

[Events]
//Background and Video events
0,0,"75353267_p0.jpg",0,0
//Break Periods
2,287645,291202
//Storyboard Layer 0 (Background)
//Storyboard Layer 1 (Fail)
//Storyboard Layer 2 (Pass)
//Storyboard Layer 3 (Foreground)
//Storyboard Layer 4 (Overlay)
//Storyboard Sound Samples

[TimingPoints]
722,344.827586206897,4,1,0,100,1,0
722,-333.333333333333,4,2,1,40,0,0
22790,-166.666666666667,4,2,1,40,0,0
54515,-250.000000000001,4,2,1,40,0,0
55204,-500.000000000003,4,2,1,40,0,0
55894,-166.666666666667,4,2,1,40,0,0
66928,-333.333333333333,4,2,1,40,0,0
77963,-166.666666666667,4,2,1,40,0,0
84859,-222.222222222222,4,2,1,40,0,0
86239,-333.333333333333,4,2,1,40,0,0
88997,-83.3333333333333,4,2,2,70,0,1
89342,-83.3333333333333,4,2,3,70,0,1
89428,-83.3333333333333,4,2,2,70,0,1
104515,-125,4,2,2,70,0,1
104859,-83.3333333333333,4,2,2,70,0,1
109342,-100,4,2,3,70,0,0
110032,-100,4,2,1,50,0,0
111066,-83.3333333333333,4,2,2,70,0,1
130204,-100,4,2,2,70,0,1
131756,-100,4,2,2,70,0,0
133135,-83.3333333333333,4,2,2,70,0,1
148308,-111.111111111111,4,2,2,70,0,1
148480,-100,4,2,2,70,0,1
148653,-90.9090909090909,4,2,2,70,0,1
148825,-83.3333333333333,4,2,2,70,0,1
148997,-90.9090909090909,4,2,2,70,0,1
149170,-100,4,2,2,70,0,1
149342,-111.111111111111,4,2,2,70,0,1
149515,-125,4,2,2,70,0,1
149687,-83.3333333333333,4,2,2,70,0,1
155204,-333.333333333333,4,2,1,40,0,0
160722,-83.3333333333333,4,2,2,70,0,1
174515,-100,4,2,2,70,0,1
177273,-166.666666666667,4,2,3,40,0,0
177359,-166.666666666667,4,2,1,40,0,0
199342,-333.333333333333,4,2,1,40,0,0
210377,-166.666666666667,4,2,1,40,0,0
217273,-222.222222222222,4,2,1,40,0,0
218653,-333.333333333333,4,2,1,40,0,0
220377,-222.222222222222,4,2,1,40,0,0
220722,-166.666666666667,4,2,1,40,0,0
221066,-133.333333333333,4,2,1,40,0,0
221411,-83.3333333333333,4,2,2,70,0,1
241756,-100,4,2,3,70,0,0
242101,-100,4,2,1,50,0,0
243480,-83.3333333333333,4,2,2,70,0,1
262790,-100,4,2,2,70,0,1
264170,-100,4,2,2,70,0,0
265549,-71.4285714285714,4,2,2,70,0,1
265894,-83.3333333333333,4,2,2,70,0,1
273825,-71.4285714285714,4,2,2,70,0,1
274170,-83.3333333333333,4,2,2,70,0,1
281411,-125,4,2,2,70,0,1
281584,-100,4,2,2,70,0,1
281756,-83.3333333333333,4,2,2,70,0,1
281928,-100,4,2,2,70,0,1
282101,-83.3333333333333,4,2,2,70,0,1
287618,-100,4,2,2,40,0,0
293135,-83.3333333333333,4,2,2,70,0,1
306928,-100,4,2,2,70,0,1
309687,-100,4,2,3,70,0,0

[Colours]
Combo1 : 104,104,119
Combo2 : 131,168,254
Combo3 : 174,210,255
Combo4 : 192,192,192

[HitObjects]
256,192,722,37,2,2:3:0:0:
256,192,3480,5,2,2:3:0:0:
323,133,5549,2,0,P|329:175|339:216,1,85.4999973907472
256,192,6239,37,2,2:3:0:0:
173,216,6928,2,0,P|182:175|188:133,1,85.4999973907472
295,45,7618,6,0,P|297:63|301:82,1,28.4999991302491
368,32,7963,2,0,P|370:45|372:60,1,28.4999991302491
395,165,8308,2,0,P|352:159|310:149,1,85.4999973907472
188,131,8997,38,0,P|185:149|181:168,1,28.4999991302491
115,118,9342,2,0,P|112:131|110:146,1,28.4999991302491
88,251,9687,2,0,P|130:245|172:235,1,85.4999973907472
310,149,10377,6,0,P|312:167|316:186,1,28.4999991302491
383,136,10722,2,0,P|385:149|387:164,1,28.4999991302491
410,269,11067,2,0,P|367:263|325:253,1,85.4999973907472
205,184,11756,38,0,P|210:211|214:240,1,56.9999982604981,2|0,2:3|0:0,0:0:0:0:
188,317,12273,1,0,0:0:0:0:
188,317,12446,2,0,P|145:311|103:301,1,85.4999973907472
307,355,13135,6,0,P|321:353|335:350,1,28.4999991302491
331,265,13480,2,0,P|316:266|302:269,1,28.4999991302491
407,306,13825,2,0,P|413:263|423:221,1,85.4999973907472
214,240,14515,38,0,P|210:211|204:183,1,56.9999982604981,2|0,2:3|0:0,0:0:0:0:
154,113,15032,1,0,0:0:0:0:
154,113,15204,2,0,P|112:103|70:97,1,85.4999973907472
305,57,15894,6,0,P|319:59|333:62,1,28.4999991302491
420,124,16239,2,0,P|406:122|392:119,1,28.4999991302491
315,139,16584,2,0,P|322:181|331:222,1,85.4999973907472
214,240,17273,38,0,P|208:267|204:296,1,56.9999982604981,2|0,2:3|0:0,0:0:0:0:
129,268,17790,1,0,0:0:0:0:
129,268,17963,2,0,P|87:278|45:284,1,85.4999973907472
314,335,18653,6,0,P|328:337|342:340,1,28.4999991302491
325,257,18997,2,0,P|338:259|353:262,1,28.4999991302491
439,290,19342,2,0,P|429:248|423:206,1,85.4999973907472
187,257,20033,38,0,P|173:259|159:262,1,28.4999991302491
176,179,20377,2,0,P|163:181|148:184,1,28.4999991302491
62,212,20722,2,0,P|72:170|78:128,1,85.4999973907472
336,179,21412,6,0,P|350:181|364:184,1,28.4999991302491
347,101,21756,2,0,P|360:103|375:106,1,28.4999991302491
461,134,22101,2,0,P|451:92|445:50,1,85.4999973907472
347,101,22790,38,0,B|309:118|309:118|174:84,1,170.999994781494,2|0,2:3|0:0,0:0:0:0:
107,156,23480,2,0,L|113:212,1,56.9999982604981,2|0,0:0|0:0,0:0:0:0:
216,199,23825,2,0,L|209:142,1,56.9999982604981
93,53,24170,2,0,L|37:59,1,56.9999982604981,2|0,0:0|0:0,0:0:0:0:
50,163,24515,2,0,L|107:156,1,56.9999982604981
229,85,24859,2,0,L|216:199,1,113.999996520996,2|0,0:0|0:0,0:0:0:0:
410,307,25549,6,0,L|465:314,1,56.9999982604981,2|0,2:3|0:0,0:0:0:0:
421,203,25894,2,0,L|363:209,1,56.9999982604981
223,308,26239,2,0,B|235:277|235:277|216:199,1,113.999996520996,2|0,0:0|0:0,0:0:0:0:
378,93,26928,2,0,L|434:99,1,56.9999982604981,2|0,0:0|0:0,0:0:0:0:
421,203,27273,2,0,L|364:196,1,56.9999982604981
202,85,27618,2,0,L|216:199,1,113.999996520996,2|0,0:0|0:0,0:0:0:0:
59,363,28308,38,0,B|97:346|97:346|232:380,1,170.999994781494,2|0,2:3|0:0,0:0:0:0:
295,306,28997,2,0,L|351:300,1,56.9999982604981,2|0,0:0|0:0,0:0:0:0:
218,242,29342,2,0,L|162:248,1,56.9999982604981
302,196,29687,2,0,B|314:227|314:227|295:306,1,113.999996520996,2|0,0:0|0:0,0:0:0:0:
118,140,30377,2,0,L|111:82,1,56.9999982604981,2|0,0:0|0:0,0:0:0:0:
222,39,30722,2,0,L|214:94,1,56.9999982604981
302,196,31066,6,0,L|358:190,1,56.9999982604981,2|0,0:0|0:0,0:0:0:0:
286,97,31411,2,0,L|229:104,1,56.9999982604981
125,249,31756,2,0,B|137:218|137:218|118:140,1,113.999996520996,2|0,0:0|0:0,0:0:0:0:
372,86,32446,2,0,L|428:92,1,56.9999982604981,2|0,0:0|0:0,0:0:0:0:
415,196,32791,2,0,L|358:189,1,56.9999982604981
449,69,33135,2,0,L|462:182,1,113.999996520996,2|0,0:0|0:0,0:0:0:0:
276,312,33825,38,0,B|250:279|250:279|115:245,1,170.999994781494,2|0,2:3|0:0,0:0:0:0:
28,328,34515,2,0,L|33:384,1,56.9999982604981,2|0,0:0|0:0,0:0:0:0:
131,304,34860,2,0,L|124:247,1,56.9999982604981
104,146,35204,2,0,P|53:122|-1:133,1,113.999996520996,2|0,0:0|0:0,0:0:0:0:
166,49,35894,2,0,P|221:38|272:62,1,113.999996520996,2|0,0:0|0:0,0:0:0:0:
301,214,36584,6,0,L|307:156,1,56.9999982604981,2|0,2:3|0:0,0:0:0:0:
372,79,36928,2,0,B|403:67|403:67|481:86,1,113.999996520996,0|2,0:0|0:0,0:0:0:0:
325,252,37618,2,0,L|319:194,1,56.9999982604981
265,107,37963,2,0,P|187:79|118:126,1,170.999994781494,2|0,0:0|0:0,0:0:0:0:
16,122,38653,2,0,L|29:235,1,113.999996520996,2|0,0:0|0:0,0:0:0:0:
118,124,39170,1,0,0:0:0:0:
118,124,39342,38,0,P|195:96|264:143,1,170.999994781494,2|0,2:3|0:0,0:0:0:0:
366,142,40032,2,0,L|358:197,1,56.9999982604981,2|0,0:0|0:0,0:0:0:0:
263,142,40377,2,0,L|257:84,1,56.9999982604981
227,235,40722,2,0,B|258:247|258:247|336:228,1,113.999996520996,2|0,0:0|0:0,0:0:0:0:
512,137,41411,2,0,L|499:250,1,113.999996520996,2|0,0:0|0:0,0:0:0:0:
256,192,42101,12,0,44515,0:0:0:0:
59,97,44687,5,0,0:0:0:0:
59,97,44859,2,0,B|114:72|181:94|145:135|214:157|271:129,1,227.999993041992,2|2,2:3|0:0,0:0:0:0:
304,49,45894,2,0,P|351:63|336:135,1,113.999996520996,0|2,0:0|0:0,0:0:0:0:
353,120,46928,2,0,P|347:67|479:84,1,227.999993041992,2|2,0:0|2:3,0:0:0:0:
365,307,48308,1,2,0:0:0:0:
365,307,48997,38,0,P|337:301|308:297,1,56.9999982604981,2|0,0:0|0:0,0:0:0:0:
322,216,49342,2,0,P|349:221|378:225,1,56.9999982604981
460,333,49687,2,0,P|454:305|450:276,1,56.9999982604981,2|0,0:0|0:0,0:0:0:0:
449,141,50032,2,0,P|454:168|458:197,1,56.9999982604981
365,307,50377,2,0,P|298:313|272:219,1,170.999994781494,2|0,2:3|0:0,0:0:0:0:
330,178,51066,1,2,0:0:0:0:
112,89,51411,1,0,0:0:0:0:
112,89,51756,6,0,P|84:94|55:98,1,56.9999982604981,2|0,0:0|0:0,0:0:0:0:
41,23,52101,2,0,P|68:17|97:13,1,56.9999982604981
201,60,52446,2,0,P|195:87|191:116,1,56.9999982604981,2|0,0:0|0:0,0:0:0:0:
273,139,52790,2,0,P|278:111|282:82,1,56.9999982604981
325,214,53135,2,0,P|402:195|404:116,1,170.999994781494,2|0,0:0|0:0,0:0:0:0:
467,70,53825,2,0,P|463:41|458:13,2,56.9999982604981,2|0|0,0:0|0:0|0:0,0:0:0:0:
510,147,54515,2,0,P|505:171|502:195,2,38,2|0|0,0:0|0:0|0:0,0:0:0:0:
493,289,55204,2,0,P|491:276|488:264,2,19,2|0|0,0:0|0:0|0:0,0:0:0:0:
493,289,55894,38,0,B|451:270|401:286|428:317|376:333|334:312,1,170.999994781494,2|0,2:3|0:0,0:0:0:0:
264,262,56584,2,0,P|260:290|255:318,1,56.9999982604981,2|0,0:0|0:0,0:0:0:0:
340,229,56928,2,0,P|343:200|348:172,1,56.9999982604981
251,178,57273,2,0,P|198:187|72:211,1,170.999994781494,2|0,0:0|0:0,0:0:0:0:
79,125,57963,2,0,P|50:119|22:116,1,56.9999982604981,2|0,0:0|0:0,0:0:0:0:
78,230,58308,2,0,P|106:235|134:238,1,56.9999982604981
139,65,58653,1,2,2:3:0:0:
139,65,59342,1,2,0:0:0:0:
139,65,59687,2,0,P|167:59|195:56,1,56.9999982604981
274,74,60032,6,0,P|277:45|282:17,1,56.9999982604981,2|0,0:0|0:0,0:0:0:0:
357,86,60377,2,0,P|362:57|365:29,1,56.9999982604981
391,162,60722,2,0,P|394:190|399:218,1,56.9999982604981,2|0,0:0|0:0,0:0:0:0:
474,150,61067,2,0,P|479:178|482:206,1,56.9999982604981
397,303,61411,2,0,P|313:286|228:272,1,170.999994781494,2|0,2:3|0:0,0:0:0:0:
150,257,62101,1,2,0:0:0:0:
150,257,62790,2,0,P|144:228|141:200,1,56.9999982604981,2|0,0:0|0:0,0:0:0:0:
61,215,63135,2,0,P|66:243|69:271,1,56.9999982604981
0,160,63480,2,0,P|0:106|49:88,1,113.999996520996,2|0,0:0|0:0,0:0:0:0:
92,18,63997,1,0,0:0:0:0:
92,18,64342,38,0,P|148:28|203:39,1,113.999996520996
350,75,64859,1,2,0:0:0:0:
350,75,65549,2,0,P|378:80|406:83,1,56.9999982604981,2|0,0:0|0:0,0:0:0:0:
448,189,65894,2,0,P|429:210|413:233,1,56.9999982604981
301,214,66239,2,0,P|291:187|279:161,1,56.9999982604981,2|0,0:0|0:0,0:0:0:0:
366,154,66584,1,0,0:0:0:0:
184,99,66928,6,0,L|143:265,1,170.999994781494,2|0,2:3|0:0,0:0:0:0:
279,161,68308,2,0,P|350:118|430:143,1,170.999994781494,2|0,0:0|0:0,0:0:0:0:
240,332,69687,38,0,L|199:166,1,170.999994781494,2|0,2:3|0:0,0:0:0:0:
56,49,71066,2,0,L|27:45,1,28.4999991302491,2|0,0:0|0:0,0:0:0:0:
120,122,71411,2,0,L|131:148,1,28.4999991302491
152,30,71756,2,0,L|169:7,1,28.4999991302491,2|0,0:0|0:0,0:0:0:0:
47,79,72101,2,0,L|29:101,1,28.4999991302491
131,148,72446,6,0,P|196:97|278:112,1,170.999994781494,2|0,2:3|0:0,0:0:0:0:
382,274,73825,2,0,L|423:108,1,170.999994781494,2|0,0:0|0:0,0:0:0:0:
512,0,75204,1,2,0:0:0:0:
256,192,77963,37,2,2:3:0:0:
256,192,78308,2,0,L|201:184,1,56.9999982604981
111,129,78653,2,0,P|164:191|146:271,1,170.999994781494,2|0,0:0|0:0,0:0:0:0:
256,192,79342,2,0,L|262:135,1,56.9999982604981
359,147,79687,2,0,L|352:203,1,56.9999982604981
179,294,80032,2,0,L|165:180,1,113.999996520996,2|0,0:0|0:0,0:0:0:0:
111,100,80549,1,0,0:0:0:0:
256,192,80722,6,0,L|199:185,1,56.9999982604981,2|0,0:3|0:0,0:0:0:0:
211,88,81066,2,0,L|267:95,1,56.9999982604981
376,223,81411,2,0,B|345:235|345:235|267:216,1,113.999996520996,2|0,0:0|0:0,0:0:0:0:
65,252,82101,1,2,0:0:0:0:
121,353,82273,1,0,0:0:0:0:
17,305,82446,1,0,0:0:0:0:
129,282,82617,1,0,0:0:0:0:
50,368,82790,2,0,B|62:337|62:337|43:259,1,113.999996520996,2|0,0:0|0:0,0:0:0:0:
22,162,83308,1,0,0:0:0:0:
129,282,83480,38,0,L|184:289,1,56.9999982604981,2|0,0:3|0:0,0:0:0:0:
197,185,83825,2,0,L|139:178,1,56.9999982604981
281,247,84170,2,0,P|227:184|245:104,1,170.999994781494,2|0,0:0|0:0,0:0:0:0:
322,49,84859,6,0,L|364:43,1,42.7499986953736
236,10,85204,2,0,L|193:15,1,42.7499986953736
127,119,85549,2,0,P|188:132|245:104,1,128.249996086121,2|0,0:0|0:0,0:0:0:0:
330,144,86239,38,0,L|326:172,1,28.4999991302491
240,132,86584,2,0,L|244:104,1,28.4999991302491
326,172,86928,2,0,P|297:172|270:164,1,56.9999982604981,2|0,0:0|0:0,0:0:0:0:
256,192,87359,12,0,88653,0:0:0:0:
463,30,88997,21,0,3:0:0:0:
486,61,89084,1,0,0:0:0:0:
492,100,89170,1,0,0:0:0:0:
479,137,89256,1,0,0:0:0:0:
449,163,89342,2,0,P|380:164|343:127,1,113.999996520996,12|0,0:0|0:0,0:0:0:0:
348,136,89601,1,0,0:0:0:0:
308,96,89687,1,0,0:0:0:0:
251,89,89773,1,0,0:0:0:0:
203,119,89859,2,0,P|186:143|182:175,1,56.9999982604981,0|0,3:0|0:0,0:0:0:0:
188,251,90032,1,8,0:0:0:0:
228,290,90118,1,0,0:0:0:0:
283,300,90204,1,0,0:0:0:0:
337,283,90290,1,0,0:0:0:0:
378,242,90377,6,0,P|382:301|393:364,1,113.999996520996,0|0,3:0|0:0,0:0:0:0:
316,384,90635,1,0,0:0:0:0:
316,384,90722,1,8,0:0:0:0:
469,260,90894,1,0,0:0:0:0:
277,199,91066,1,0,0:0:0:0:
267,158,91153,1,0,0:0:0:0:
274,119,91239,1,0,3:0:0:0:
296,86,91325,1,0,0:0:0:0:
330,65,91411,2,0,P|386:74|443:78,1,113.999996520996,8|0,0:0|0:0,0:0:0:0:
512,44,91670,1,0,0:0:0:0:
512,44,91756,37,0,3:0:0:0:
359,158,91928,1,0,0:0:0:0:
264,10,92101,2,0,P|195:9|158:46,1,113.999996520996,8|0,0:0|0:0,0:0:0:0:
163,36,92359,1,0,0:0:0:0:
190,86,92446,1,0,0:0:0:0:
190,142,92532,1,0,0:0:0:0:
162,191,92618,1,0,3:0:0:0:
114,222,92704,1,0,0:0:0:0:
57,224,92790,2,0,P|56:193|65:159,1,56.9999982604981,8|0,0:0|0:0,0:0:0:0:
3,44,92963,2,0,P|24:62|49:76,1,56.9999982604981
189,142,93135,5,0,3:0:0:0:
244,160,93222,1,0,0:0:0:0:
280,204,93308,1,0,0:0:0:0:
284,260,93394,1,0,0:0:0:0:
259,311,93480,2,0,P|202:307|145:297,1,113.999996520996,8|0,0:0|0:0,0:0:0:0:
79,254,93739,1,0,0:0:0:0:
79,254,93825,1,0,0:0:0:0:
118,247,93911,1,0,0:0:0:0:
156,256,93997,1,0,3:0:0:0:
184,284,94084,1,0,0:0:0:0:
195,321,94170,1,8,0:0:0:0:
221,342,94256,1,0,0:0:0:0:
248,350,94342,1,0,0:0:0:0:
270,351,94428,1,0,0:0:0:0:
286,346,94515,37,4,3:1:0:0:
398,238,94687,1,0,0:0:0:0:
398,238,94773,1,0,0:0:0:0:
398,238,94859,2,0,P|400:273|406:308,1,56.9999982604981,8|0,0:0|0:0,0:0:0:0:
416,384,95032,1,0,0:0:0:0:
512,199,95204,2,0,P|466:166|411:172,1,113.999996520996,0|0,0:0|3:0,0:0:0:0:
411,172,95463,1,0,0:0:0:0:
372,213,95549,1,8,0:0:0:0:
317,229,95635,1,0,0:0:0:0:
261,213,95722,1,0,0:0:0:0:
223,169,95808,1,0,0:0:0:0:
209,113,95894,6,0,P|218:56|222:0,1,113.999996520996,0|0,3:0|0:0,0:0:0:0:
222,0,96153,1,0,0:0:0:0:
182,7,96239,1,8,0:0:0:0:
147,27,96325,1,0,0:0:0:0:
125,60,96411,1,0,0:0:0:0:
117,99,96497,1,0,0:0:0:0:
125,138,96584,1,0,0:0:0:0:
167,175,96670,1,0,0:0:0:0:
186,228,96756,1,0,3:0:0:0:
178,284,96842,1,0,0:0:0:0:
147,332,96928,2,0,P|90:341|34:345,1,113.999996520996,8|0,0:0|0:0,0:0:0:0:
0,275,97187,1,0,0:0:0:0:
0,275,97273,37,0,3:0:0:0:
234,356,97446,1,0,0:0:0:0:
328,236,97618,2,0,P|384:240|441:249,1,113.999996520996,8|0,0:0|0:0,0:0:0:0:
441,249,97877,1,0,0:0:0:0:
491,223,97963,1,0,0:0:0:0:
506,168,98049,1,0,0:0:0:0:
483,115,98135,1,0,3:0:0:0:
429,94,98222,1,0,0:0:0:0:
376,114,98308,2,0,P|344:181|420:232,1,170.999994781494,10|0,0:0|0:0,0:0:0:0:
491,223,98653,5,0,3:0:0:0:
512,379,98825,1,0,0:0:0:0:
512,379,98911,1,0,0:0:0:0:
512,379,98997,2,0,P|455:374|398:365,1,113.999996520996,10|0,0:0|0:0,0:0:0:0:
398,365,99256,1,0,0:0:0:0:
369,338,99342,1,0,0:0:0:0:
331,325,99428,1,0,0:0:0:0:
290,328,99515,1,0,3:0:0:0:
256,348,99601,1,0,0:0:0:0:
233,380,99687,2,0,P|231:345|225:310,1,56.9999982604981,10|0,0:0|0:0,0:0:0:0:
125,332,99859,2,0,P|123:297|117:262,1,56.9999982604981
30,332,100032,37,4,3:2:0:0:
77,189,100204,1,0,0:0:0:0:
77,189,100290,1,0,0:0:0:0:
77,189,100377,2,0,P|132:194|177:162,1,113.999996520996,8|0,0:0|0:0,0:0:0:0:
262,188,100635,1,0,0:0:0:0:
262,188,100722,2,0,P|264:153|270:118,1,56.9999982604981
325,28,100894,1,0,3:0:0:0:
361,11,100980,1,0,0:0:0:0:
399,2,101066,2,0,P|456:7|513:16,2,113.999996520996,8|0|0,0:0|0:0|3:0,0:0:0:0:
502,167,101584,5,0,0:0:0:0:
502,167,101670,1,0,0:0:0:0:
502,167,101756,2,0,P|445:162|388:153,1,113.999996520996,8|0,0:0|0:0,0:0:0:0:
388,153,102015,1,0,0:0:0:0:
344,115,102101,1,0,0:0:0:0:
288,101,102187,1,0,0:0:0:0:
232,111,102273,1,0,3:0:0:0:
188,147,102359,1,0,0:0:0:0:
160,197,102446,1,8,0:0:0:0:
125,216,102532,1,0,0:0:0:0:
85,220,102618,1,0,0:0:0:0:
46,211,102704,1,0,0:0:0:0:
13,187,102790,38,0,P|18:130|27:73,1,113.999996520996,0|0,3:0|0:0,0:0:0:0:
26,73,103049,1,0,0:0:0:0:
56,99,103135,1,8,0:0:0:0:
75,134,103222,1,0,0:0:0:0:
84,172,103308,1,0,0:0:0:0:
73,212,103394,1,0,0:0:0:0:
53,246,103480,1,0,0:0:0:0:
99,227,103566,1,0,0:0:0:0:
155,235,103653,1,0,3:0:0:0:
198,271,103739,1,0,0:0:0:0:
211,326,103825,1,8,0:0:0:0:
235,356,103911,1,0,0:0:0:0:
269,375,103997,1,0,0:0:0:0:
309,372,104084,1,0,0:0:0:0:
343,353,104170,5,0,3:0:0:0:
507,375,104342,1,0,0:0:0:0:
507,375,104428,1,0,0:0:0:0:
507,375,104515,2,0,P|505:340|499:305,1,38,8|0,0:0|0:0,0:0:0:0:
432,288,104687,2,0,P|431:269|429:250,1,38
475,52,104859,38,0,P|440:54|405:60,1,56.9999982604981,4|0,3:3|0:0,0:0:0:0:
279,15,105032,6,0,P|281:50|287:85,1,56.9999982604981,0|0,3:0|0:0,0:0:0:0:
242,211,105204,38,0,P|277:209|312:203,1,56.9999982604981,10|0,0:0|0:0,0:0:0:0:
438,248,105377,6,0,P|436:213|430:178,1,56.9999982604981,2|0,0:0|0:0,0:0:0:0:
356,138,105549,37,4,3:1:0:0:
323,115,105635,1,0,0:0:0:0:
283,108,105722,1,0,0:0:0:0:
245,120,105808,1,0,0:0:0:0:
213,144,105894,2,0,P|144:145|107:108,1,113.999996520996,8|0,0:0|0:0,0:0:0:0:
112,117,106153,1,0,0:0:0:0:
67,151,106239,1,0,0:0:0:0:
49,205,106325,1,0,0:0:0:0:
60,260,106411,2,0,P|69:316|73:372,2,113.999996520996,0|8|0,3:0|0:0|0:0,0:0:0:0:
0,4,106928,5,0,3:0:0:0:
213,144,107101,1,0,0:0:0:0:
213,144,107187,1,0,0:0:0:0:
213,144,107273,2,0,P|216:115|218:87,1,56.9999982604981,8|0,0:0|0:0,0:0:0:0:
308,77,107446,1,0,0:0:0:0:
377,198,107618,2,0,P|422:165|477:171,1,113.999996520996,0|0,0:0|3:0,0:0:0:0:
477,171,107877,1,0,0:0:0:0:
509,217,107963,1,8,0:0:0:0:
499,272,108049,1,0,0:0:0:0:
453,305,108135,1,0,0:0:0:0:
396,295,108222,1,0,0:0:0:0:
365,247,108308,38,0,P|377:184|379:36,1,170.999994781494,0|0,3:0|0:0,0:0:0:0:
419,13,108653,2,0,P|363:6|318:39,1,113.999996520996,8|0,0:0|0:0,0:0:0:0:
318,38,108911,1,0,0:0:0:0:
334,92,108997,1,0,0:0:0:0:
375,130,109084,1,0,0:0:0:0:
431,140,109170,1,0,3:0:0:0:
483,117,109256,1,0,0:0:0:0:
510,67,109342,21,12,0:2:0:0:
58,302,110032,1,2,0:2:0:0:
58,302,110722,2,0,P|99:265|193:282,1,142.5,2|0,0:2|0:0,0:0:0:0:
290,207,111066,22,0,P|209:277|247:377,1,227.999993041992,4|8,3:1|0:0,0:0:0:0:
174,147,111584,1,0,0:0:0:0:
132,119,111670,1,0,0:0:0:0:
81,114,111756,1,0,0:0:0:0:
34,132,111842,1,0,0:0:0:0:
0,171,111928,1,0,3:0:0:0:
219,318,112101,2,0,L|246:207,1,113.999996520996,10|0,0:0|0:0,0:0:0:0:
395,85,112446,5,0,3:0:0:0:
174,147,112618,1,0,0:0:0:0:
174,147,112704,1,0,0:0:0:0:
174,147,112790,1,8,0:0:0:0:
403,297,112963,1,0,0:0:0:0:
403,297,113049,1,0,0:0:0:0:
403,297,113135,2,0,L|389:183,1,113.999996520996,2|0,0:0|3:0,0:0:0:0:
223,64,113480,2,0,B|195:46|195:46|114:56,1,113.999996520996,8|0,0:0|0:0,0:0:0:0:
287,258,113825,38,0,L|307:88,1,170.999994781494,0|0,3:0|0:0,0:0:0:0:
395,76,114170,2,0,B|417:52|417:52|497:42,1,113.999996520996,8|0,0:0|0:0,0:0:0:0:
384,239,114515,1,0,0:0:0:0:
381,219,114601,1,0,0:0:0:0:
378,201,114687,1,0,3:0:0:0:
223,64,114859,1,8,0:0:0:0:
473,167,115032,1,0,0:0:0:0:
473,167,115118,1,0,0:0:0:0:
473,167,115204,6,0,L|459:281,1,113.999996520996,2|0,3:2|0:0,0:0:0:0:
216,189,115549,2,0,L|230:75,1,113.999996520996,10|0,0:0|0:0,0:0:0:0:
378,201,115894,2,0,L|364:315,1,113.999996520996,2|0,0:0|3:0,0:0:0:0:
122,223,116239,2,0,P|110:168|134:117,1,113.999996520996,10|0,0:0|0:0,0:0:0:0:
230,75,116497,1,0,0:0:0:0:
230,75,116584,38,0,B|-1:103,1,227.999993041992,4|8,3:1|0:0,0:0:0:0:
216,189,117101,1,0,0:0:0:0:
244,231,117187,1,0,0:0:0:0:
249,282,117273,1,2,0:0:0:0:
231,329,117359,1,0,0:0:0:0:
192,363,117445,1,0,3:0:0:0:
17,215,117618,2,0,L|3:101,1,113.999996520996,8|0,0:0|0:0,0:0:0:0:
230,75,117963,6,0,B|257:57|257:57|337:66,1,113.999996520996,2|0,3:2|0:0,0:0:0:0:
110,92,118308,2,0,B|83:110|83:110|3:101,1,113.999996520996,10|0,0:0|0:0,0:0:0:0:
6,129,118567,1,0,0:0:0:0:
9,157,118653,1,0,0:0:0:0:
13,185,118739,1,0,0:0:0:0:
16,214,118825,1,0,3:0:0:0:
231,329,118997,2,0,L|251:159,1,170.999994781494,10|0,0:0|0:0,0:0:0:0:
338,138,119342,38,0,P|388:114|443:126,1,113.999996520996,2|0,3:2|0:0,0:0:0:0:
328,282,119687,1,8,0:0:0:0:
215,75,119859,1,0,0:0:0:0:
215,75,119946,1,0,0:0:0:0:
215,75,120032,2,0,L|101:61,1,113.999996520996,2|0,0:0|3:0,0:0:0:0:
243,218,120377,1,10,0:0:0:0:
330,28,120549,1,0,0:0:0:0:
330,28,120636,1,0,0:0:0:0:
330,28,120722,6,0,L|444:14,1,113.999996520996,2|0,3:2|0:0,0:0:0:0:
243,218,121066,1,10,0:0:0:0:
102,62,121239,1,0,0:0:0:0:
102,62,121326,1,0,0:0:0:0:
102,62,121411,2,0,B|80:38|80:38|0:27,1,113.999996520996,2|0,0:0|3:0,0:0:0:0:
138,230,121756,2,0,P|192:242|243:218,1,113.999996520996,10|0,0:0|0:0,0:0:0:0:
323,143,122015,1,0,0:0:0:0:
323,143,122101,38,0,P|284:243|365:313,1,227.999993041992,6|8,3:2|0:0,0:0:0:0:
430,112,122618,1,0,0:0:0:0:
406,65,122704,1,0,0:0:0:0:
365,37,122790,1,2,0:0:0:0:
314,29,122876,1,0,0:0:0:0:
266,46,122962,1,0,3:0:0:0:
138,230,123135,2,0,L|124:116,1,113.999996520996,10|0,0:0|0:0,0:0:0:0:
30,0,123480,5,0,3:0:0:0:
235,86,123653,1,0,0:0:0:0:
235,86,123739,1,0,0:0:0:0:
235,86,123825,1,10,0:0:0:0:
7,195,123997,1,0,0:0:0:0:
7,195,124084,1,0,0:0:0:0:
7,195,124170,2,0,L|21:81,1,113.999996520996,2|0,0:0|3:0,0:0:0:0:
235,86,124515,2,0,B|262:68|262:68|342:76,1,113.999996520996,10|0,0:0|0:0,0:0:0:0:
216,342,124859,38,0,L|196:172,1,170.999994781494,0|0,3:0|0:0,0:0:0:0:
124,116,125204,2,0,B|102:92|102:92|22:82,1,113.999996520996,8|0,0:0|0:0,0:0:0:0:
196,257,125549,1,0,0:0:0:0:
199,237,125635,1,0,0:0:0:0:
202,219,125721,1,0,3:0:0:0:
343,76,125894,1,10,0:0:0:0:
124,116,126066,1,0,0:0:0:0:
124,116,126153,1,0,0:0:0:0:
124,116,126239,6,0,L|110:230,1,113.999996520996,2|0,3:2|0:0,0:0:0:0:
366,198,126584,2,0,L|352:83,1,113.999996520996,10|0,0:0|0:0,0:0:0:0:
196,257,126928,38,0,B|226:265|226:265|251:262,1,56.9999982604981,4|0,0:3|0:0,0:0:0:0:
276,54,127101,6,0,B|245:45|245:45|220:48,1,56.9999982604981,0|0,3:0|0:0,0:0:0:0:
166,282,127273,38,0,B|197:283|197:283|221:274,1,56.9999982604981,10|0,0:0|0:0,0:0:0:0:
194,65,127446,6,0,B|162:63|162:63|138:72,1,56.9999982604981,2|0,0:0|0:0,0:0:0:0:
324,310,127618,38,0,B|352:84,1,227.999993041992,4|8,3:1|0:0,0:0:0:0:
483,216,128135,1,0,0:0:0:0:
500,264,128221,1,0,0:0:0:0:
493,315,128307,1,2,0:0:0:0:
464,356,128393,1,0,0:0:0:0:
417,381,128479,1,0,3:0:0:0:
221,273,128653,2,0,L|207:158,1,113.999996520996,10|0,0:0|0:0,0:0:0:0:
358,71,128997,6,0,B|386:54|386:54|466:62,1,113.999996520996,2|0,3:2|0:0,0:0:0:0:
312,204,129342,1,8,0:0:0:0:
164,44,129515,1,0,0:0:0:0:
164,44,129601,1,0,0:0:0:0:
164,44,129687,1,0,0:0:0:0:
308,219,129859,1,0,3:0:0:0:
380,34,130032,1,8,0:0:0:0:
422,154,130204,38,0,P|465:171|512:166,1,95,2|0,0:0|3:0,0:0:0:0:
285,126,130549,2,0,L|308:219,1,95,2|8,0:0|0:0,0:0:0:0:
222,345,130894,1,0,0:0:0:0:
207,326,130980,1,0,0:0:0:0:
198,304,131066,1,0,0:0:0:0:
195,281,131152,1,0,0:0:0:0:
199,257,131238,1,0,3:0:0:0:
103,204,131411,2,0,P|62:180|16:181,1,95,10|0,0:0|0:0,0:0:0:0:
197,148,131756,6,0,P|244:148|285:126,1,95,2|0,3:2|0:0,0:0:0:0:
446,62,132101,2,0,P|421:102|422:149,1,95,10|0,0:0|0:0,0:0:0:0:
440,173,132359,1,0,0:0:0:0:
443,201,132445,1,2,0:0:0:0:
447,229,132531,1,0,0:0:0:0:
450,258,132617,1,0,0:0:0:0:
311,190,132790,2,0,P|242:177|187:219,1,142.5,10|0,0:0|0:0,0:0:0:0:
108,280,133135,38,0,B|185:295|185:295|218:346|218:346|315:366,1,227.999993041992,6|8,3:2|0:0,0:0:0:0:
493,384,133653,1,0,0:0:0:0:
486,344,133739,1,0,0:0:0:0:
479,304,133825,1,2,0:0:0:0:
472,264,133911,1,0,0:0:0:0:
465,224,133997,1,0,3:0:0:0:
326,152,134170,1,8,0:0:0:0:
484,46,134342,1,0,0:0:0:0:
484,46,134428,1,0,0:0:0:0:
484,46,134515,6,0,B|467:27|467:27|355:14,1,113.999996520996,2|0,3:2|0:0,0:0:0:0:
92,142,134859,2,0,B|65:94|65:94|96:25,1,113.999996520996,8|0,0:0|0:0,0:0:0:0:
177,19,135118,1,0,0:0:0:0:
177,19,135204,2,0,L|291:33,1,113.999996520996,2|2,0:0|3:2,0:0:0:0:
250,231,135549,2,0,L|189:238,1,56.9999982604981,8|0,0:0|0:0,0:0:0:0:
199,125,135722,2,0,L|256:131,1,56.9999982604981
281,327,135894,37,2,3:2:0:0:
224,322,135980,1,0,0:0:0:0:
167,317,136066,1,0,0:0:0:0:
110,312,136153,1,0,0:0:0:0:
53,307,136239,1,8,0:0:0:0:
88,288,136325,1,0,0:0:0:0:
127,288,136411,1,0,0:0:0:0:
161,307,136497,1,0,0:0:0:0:
185,339,136584,1,2,0:0:0:0:
232,370,136670,1,0,0:0:0:0:
288,368,136756,1,0,3:0:0:0:
334,335,136842,1,0,0:0:0:0:
354,282,136928,2,0,P|358:225|368:168,1,113.999996520996,8|0,0:0|0:0,0:0:0:0:
455,119,137187,1,0,0:0:0:0:
455,119,137273,6,0,B|479:69|479:69|452:17,1,113.999996520996,2|0,3:2|0:0,0:0:0:0:
185,339,137618,2,0,P|181:282|171:225,1,113.999996520996,8|0,0:0|0:0,0:0:0:0:
101,160,137877,1,0,0:0:0:0:
101,160,137963,2,0,B|147:124|147:124|200:139,1,113.999996520996,2|0,0:0|3:0,0:0:0:0:
474,372,138308,2,0,B|455:355|455:355|442:243,1,113.999996520996,10|0,0:0|0:0,0:0:0:0:
494,237,138566,1,0,0:0:0:0:
494,237,138653,38,0,P|424:156|324:194,1,227.999993041992,4|8,3:1|0:0,0:0:0:0:
188,362,139170,1,0,0:0:0:0:
151,346,139256,1,0,0:0:0:0:
124,315,139342,1,2,0:0:0:0:
112,277,139428,1,0,0:0:0:0:
118,237,139515,1,0,3:0:0:0:
230,98,139687,1,8,0:0:0:0:
350,270,139859,1,0,0:0:0:0:
188,362,140032,5,2,3:2:0:0:
131,368,140118,1,0,0:0:0:0:
77,347,140205,1,0,0:0:0:0:
43,301,140291,1,0,0:0:0:0:
36,244,140377,1,8,0:0:0:0:
133,104,140549,1,0,0:0:0:0:
133,104,140635,1,0,0:0:0:0:
133,104,140722,2,0,P|136:75|138:47,1,56.9999982604981
279,209,140894,2,0,P|282:180|284:152,1,56.9999982604981,0|0,3:0|0:0,0:0:0:0:
341,309,141066,1,8,0:0:0:0:
303,320,141153,1,0,0:0:0:0:
256,296,141239,1,0,0:0:0:0:
210,316,141325,1,0,0:0:0:0:
188,362,141411,37,2,3:2:0:0:
148,366,141497,1,0,0:0:0:0:
109,355,141584,1,0,0:0:0:0:
78,328,141670,1,0,0:0:0:0:
63,290,141756,1,8,0:0:0:0:
194,185,141928,1,0,0:0:0:0:
0,45,142101,1,2,0:0:0:0:
44,9,142187,1,0,0:0:0:0:
100,2,142273,1,0,3:0:0:0:
152,23,142359,1,0,0:0:0:0:
190,65,142446,1,10,0:0:0:0:
148,274,142618,1,0,0:0:0:0:
392,359,142790,6,0,P|401:302|405:246,1,113.999996520996,2|2,3:2|0:0,0:0:0:0:
317,217,143049,1,0,0:0:0:0:
317,217,143135,2,0,B|290:165|290:165|314:115,1,113.999996520996,10|0,0:0|0:0,0:0:0:0:
313,115,143394,1,0,0:0:0:0:
356,77,143480,1,2,0:0:0:0:
412,67,143566,1,0,0:0:0:0:
464,90,143653,1,0,3:0:0:0:
494,138,143739,1,0,0:0:0:0:
495,194,143825,2,0,P|492:222|490:250,1,56.9999982604981,8|0,0:0|0:0,0:0:0:0:
307,365,143997,2,0,P|304:336|301:308,1,56.9999982604981,2|0,0:0|0:0,0:0:0:0:
203,241,144170,38,0,B|102:235|141:284|27:276,1,170.999994781494,4|0,3:2|0:0,0:0:0:0:
39,276,144515,2,0,L|25:162,1,113.999996520996,10|0,0:0|0:0,0:0:0:0:
91,104,144773,1,0,0:0:0:0:
91,104,144859,1,2,0:0:0:0:
10,0,145032,1,0,3:0:0:0:
226,33,145204,2,0,L|212:147,1,113.999996520996,8|0,0:0|0:0,0:0:0:0:
268,213,145463,1,0,0:0:0:0:
268,213,145549,5,2,3:2:0:0:
173,338,145722,1,0,0:0:0:0:
314,104,145894,1,8,0:0:0:0:
467,272,146066,1,0,0:0:0:0:
286,340,146239,1,2,0:0:0:0:
230,353,146325,1,0,0:0:0:0:
173,338,146411,1,0,3:0:0:0:
132,296,146498,1,0,0:0:0:0:
118,240,146584,1,8,0:0:0:0:
314,104,146756,1,0,0:0:0:0:
314,104,146842,1,0,0:0:0:0:
314,104,146928,38,0,P|371:108|428:118,1,113.999996520996,2|0,3:2|0:0,0:0:0:0:
332,188,147187,1,0,0:0:0:0:
332,188,147273,2,0,P|275:184|218:174,1,113.999996520996,8|0,0:0|0:0,0:0:0:0:
493,0,147618,2,0,P|496:79|513:170,1,170.999994781494,2|0,0:0|0:0,0:0:0:0:
455,225,147963,1,8,0:0:0:0:
512,371,148135,5,0,0:0:0:0:
512,371,148222,1,0,0:0:0:0:
512,371,148308,38,0,P|504:333|503:321,1,42.7499986953736,0|0,3:0|0:0,0:0:0:0:
411,362,148480,6,0,P|416:323|419:311,1,47.5
329,297,148653,38,0,P|349:258|357:247,1,52.2500015945435,8|0,0:0|0:0,0:0:0:0:
258,213,148825,6,0,P|290:184|301:176,1,56.9999982604981
152,108,148997,38,0,P|172:69|179:58,1,52.2500015945435,2|0,3:2|0:0,0:0:0:0:
47,143,149170,6,0,P|52:100|56:87,1,47.5,0|0,3:0|0:0,0:0:0:0:
10,265,149342,38,0,P|0:222|0:209,1,42.7499986953736,10|0,0:0|0:0,0:0:0:0:
21,384,149515,6,0,P|-3:347|-7:334,1,38,2|0,0:0|0:0,0:0:0:0:
112,239,149687,37,4,3:1:0:0:
288,359,149859,1,0,0:0:0:0:
288,359,149946,1,0,0:0:0:0:
288,359,150032,2,0,P|344:368|400:372,1,113.999996520996,8|0,0:0|0:0,0:0:0:0:
381,291,150290,1,0,0:0:0:0:
381,291,150377,1,2,0:0:0:0:
353,241,150463,1,0,0:0:0:0:
303,212,150549,1,0,3:0:0:0:
246,212,150635,1,0,0:0:0:0:
197,242,150722,2,0,P|164:287|168:342,1,113.999996520996,8|0,0:0|0:0,0:0:0:0:
473,238,151066,5,2,3:2:0:0:
334,54,151239,1,0,0:0:0:0:
334,54,151325,1,0,0:0:0:0:
334,54,151411,2,0,P|277:57|220:67,1,113.999996520996,8|0,0:0|0:0,0:0:0:0:
112,34,151670,1,0,0:0:0:0:
112,34,151756,1,2,0:0:0:0:
168,36,151842,1,0,0:0:0:0:
213,69,151928,1,0,3:0:0:0:
232,123,152015,1,0,0:0:0:0:
277,157,152101,1,8,0:0:0:0:
333,161,152187,1,0,0:0:0:0:
383,134,152273,2,0,P|380:105|377:77,1,56.9999982604981
413,5,152446,38,0,B|466:-9|466:-9|512:25,1,113.999996520996,2|0,3:2|0:0,0:0:0:0:
486,250,152790,2,0,P|477:307|474:364,1,113.999996520996,8|0,0:0|0:0,0:0:0:0:
474,363,153049,1,0,0:0:0:0:
450,331,153135,1,2,0:0:0:0:
412,315,153222,1,0,0:0:0:0:
372,317,153308,1,0,3:0:0:0:
335,333,153394,1,0,0:0:0:0:
308,364,153480,1,10,0:0:0:0:
224,216,153653,1,0,0:0:0:0:
2,376,153825,6,0,P|58:372|115:364,1,113.999996520996,2|0,3:2|0:0,0:0:0:0:
69,90,154171,1,10,0:0:0:0:
90,96,154257,1,0,0:0:0:0:
109,107,154343,1,0,0:0:0:0:
122,125,154429,1,0,0:0:0:0:
128,146,154516,1,2,0:0:0:0:
49,178,154687,1,0,3:0:0:0:
0,26,154859,2,0,B|46:-9|46:-9|99:5,1,113.999996520996,10|0,0:0|0:0,0:0:0:0:
242,190,155204,22,0,P|239:203|237:218,1,28.4999991302491
146,266,155549,2,0,P|149:279|151:294,1,28.4999991302491
128,146,155894,2,0,P|86:136|44:130,1,85.4999973907472,2|0,0:0|0:0,0:0:0:0:
242,190,156584,38,0,P|245:203|247:218,1,28.4999991302491
336,112,156928,2,0,P|333:125|331:140,1,28.4999991302491
356,250,157273,2,0,P|397:241|439:235,1,85.4999973907472,2|0,0:0|0:0,0:0:0:0:
242,190,157963,6,0,P|229:193|214:195,1,28.4999991302491
119,280,158308,2,0,P|122:267|128:253,1,28.4999991302491
123,151,158653,2,0,P|116:108|107:67,1,85.4999973907472,2|0,0:0|0:0,0:0:0:0:
242,190,159342,38,0,P|255:193|270:195,1,28.4999991302491
365,280,159687,2,0,P|361:267|355:253,1,28.4999991302491
361,151,160032,2,0,P|368:108|377:67,1,85.4999973907472,2|0,0:0|0:0,0:0:0:0:
165,85,160722,22,0,B|190:127|190:127|161:245,1,170.999994781494,4|0,3:2|0:0,0:0:0:0:
148,256,161066,1,8,0:0:0:0:
168,215,161152,1,0,0:0:0:0:
203,187,161238,1,0,0:0:0:0:
247,177,161324,1,0,0:0:0:0:
291,188,161410,1,0,0:0:0:0:
327,216,161498,1,0,0:0:0:0:
371,227,161584,1,0,3:0:0:0:
415,217,161670,1,0,0:0:0:0:
450,189,161755,1,8,0:0:0:0:
445,171,161842,1,0,0:0:0:0:
428,168,161928,1,0,0:0:0:0:
422,185,162014,1,0,0:0:0:0:
435,196,162101,5,0,3:0:0:0:
463,214,162187,1,0,0:0:0:0:
475,245,162273,1,0,0:0:0:0:
465,277,162359,1,0,0:0:0:0:
439,297,162446,2,0,L|383:310,1,56.9999982604981,8|0,0:0|0:0,0:0:0:0:
351,195,162618,2,0,L|406:181,1,56.9999982604981
258,254,162790,1,0,0:0:0:0:
228,219,162876,1,0,0:0:0:0:
189,196,162962,1,0,3:0:0:0:
145,186,163048,1,0,0:0:0:0:
99,190,163135,2,0,P|74:240|88:294,1,113.999996520996,8|0,0:0|0:0,0:0:0:0:
228,219,163480,37,0,3:0:0:0:
246,177,163566,1,0,0:0:0:0:
280,147,163652,1,0,0:0:0:0:
323,133,163738,1,0,0:0:0:0:
368,137,163825,2,0,L|424:150,1,56.9999982604981,8|0,0:0|0:0,0:0:0:0:
300,27,163997,2,0,L|244:40,1,56.9999982604981
246,177,164170,2,0,P|178:127|94:130,1,170.999994781494
19,93,164515,2,0,P|12:148|42:195,1,113.999996520996,10|0,0:0|0:0,0:0:0:0:
222,279,164773,1,0,0:0:0:0:
222,279,164859,6,0,P|252:232|245:176,1,113.999996520996,0|0,3:0|0:0,0:0:0:0:
154,37,165204,1,10,0:0:0:0:
358,13,165377,1,0,0:0:0:0:
396,23,165463,1,0,0:0:0:0:
435,32,165549,1,0,0:0:0:0:
474,42,165635,1,0,0:0:0:0:
512,52,165721,1,0,3:0:0:0:
332,145,165894,1,10,0:0:0:0:
478,285,166066,1,0,0:0:0:0:
478,285,166153,1,0,0:0:0:0:
478,285,166239,38,0,B|503:243|503:243|474:125,1,170.999994781494,4|0,3:1|0:0,0:0:0:0:
459,125,166584,1,8,0:0:0:0:
415,113,166670,1,0,0:0:0:0:
370,120,166756,1,0,0:0:0:0:
332,145,166842,1,0,0:0:0:0:
308,183,166928,1,0,0:0:0:0:
270,208,167015,1,0,0:0:0:0:
225,215,167101,1,0,3:0:0:0:
181,203,167187,1,0,0:0:0:0:
147,171,167273,1,8,0:0:0:0:
152,153,167360,1,0,0:0:0:0:
169,150,167446,1,0,0:0:0:0:
175,167,167532,1,0,0:0:0:0:
162,178,167619,5,0,3:0:0:0:
134,196,167705,1,0,0:0:0:0:
122,227,167791,1,0,0:0:0:0:
132,259,167877,1,0,0:0:0:0:
158,279,167964,2,0,L|214:292,1,56.9999982604981,8|0,0:0|0:0,0:0:0:0:
115,384,168135,2,0,L|59:371,1,56.9999982604981
286,344,168308,1,0,0:0:0:0:
316,309,168394,1,0,0:0:0:0:
355,286,168480,1,0,3:0:0:0:
399,276,168566,1,0,0:0:0:0:
445,280,168653,2,0,P|469:330|455:384,1,113.999996520996,8|0,0:0|0:0,0:0:0:0:
286,221,168997,37,0,3:0:0:0:
268,179,169083,1,0,0:0:0:0:
234,149,169169,1,0,0:0:0:0:
191,135,169255,1,0,0:0:0:0:
146,139,169342,2,0,L|90:152,1,56.9999982604981,8|0,0:0|0:0,0:0:0:0:
58,37,169514,2,0,L|113:23,1,56.9999982604981
350,75,169687,2,0,P|293:137|286:221,1,170.999994781494
238,290,170032,2,0,P|292:303|342:279,1,113.999996520996,8|0,0:0|0:0,0:0:0:0:
350,75,170377,5,0,3:0:0:0:
324,63,170463,1,0,0:0:0:0:
295,61,170549,1,0,0:0:0:0:
268,69,170635,1,0,0:0:0:0:
245,85,170722,1,8,0:0:0:0:
281,101,170808,1,0,0:0:0:0:
320,103,170894,1,0,0:0:0:0:
358,92,170980,1,0,0:0:0:0:
391,69,171067,37,4,3:3:0:0:
350,37,171153,1,0,0:0:0:0:
302,22,171239,1,0,3:0:0:0:
250,24,171325,1,0,0:0:0:0:
201,43,171411,2,0,L|188:99,1,56.9999982604981,10|0,0:0|0:0,0:0:0:0:
20,55,171584,2,0,L|33:-1,1,56.9999982604981,2|0,0:0|0:0,0:0:0:0:
91,211,171756,6,0,B|133:236|133:236|251:207,1,170.999994781494,4|0,3:2|0:0,0:0:0:0:
259,189,172101,1,8,0:0:0:0:
216,204,172187,1,0,0:0:0:0:
185,237,172273,1,0,0:0:0:0:
174,280,172359,1,0,0:0:0:0:
184,324,172445,1,0,0:0:0:0:
213,359,172532,1,0,0:0:0:0:
255,375,172618,1,0,3:0:0:0:
300,370,172704,1,0,0:0:0:0:
337,345,172790,1,8,0:0:0:0:
332,326,172877,1,0,0:0:0:0:
315,322,172963,1,0,0:0:0:0:
309,339,173049,1,0,0:0:0:0:
321,350,173136,37,0,3:0:0:0:
483,241,173308,1,0,0:0:0:0:
287,196,173480,2,0,P|231:200|179:179,1,113.999996520996,8|0,0:0|0:0,0:0:0:0:
179,179,173739,1,0,0:0:0:0:
179,179,173825,1,0,0:0:0:0:
400,107,173997,1,0,3:0:0:0:
321,350,174170,2,0,P|259:293|175:285,1,170.999994781494,8|0,0:0|0:0,0:0:0:0:
171,298,174515,5,0,3:0:0:0:
35,195,174687,1,0,0:0:0:0:
125,384,174859,1,8,0:0:0:0:
170,139,175032,1,0,0:0:0:0:
170,139,175118,1,0,0:0:0:0:
170,139,175204,1,0,0:0:0:0:
170,139,175290,1,0,0:0:0:0:
170,139,175377,1,0,3:0:0:0:
12,283,175549,2,0,P|58:283|99:260,1,95,8|0,0:0|0:0,0:0:0:0:
257,161,175894,38,0,P|216:138|170:139,1,95,0|0,3:0|0:0,0:0:0:0:
328,294,176239,2,0,L|350:201,1,95,8|0,0:0|0:0,0:0:0:0:
355,173,176498,1,0,0:0:0:0:
362,145,176584,1,0,0:0:0:0:
369,118,176670,1,0,0:0:0:0:
376,90,176756,1,0,0:0:0:0:
256,32,176928,1,8,0:0:0:0:
480,128,177101,1,0,0:0:0:0:
226,227,177273,22,0,P|170:220|-10:196,1,227.999993041992,14|0,0:0|0:0,0:0:0:0:
129,119,178308,2,0,P|241:134|355:148,1,227.999993041992,2|0,0:0|0:0,0:0:0:0:
508,149,179342,2,0,P|506:108|390:78,1,170.999994781494,2|0,0:0|0:0,0:0:0:0:
355,148,180032,5,0,0:0:0:0:
399,70,180722,2,0,P|480:73|508:149,1,170.999994781494
474,223,181411,2,0,P|466:261|463:290,1,56.9999982604981,2|0,0:0|0:0,0:0:0:0:
383,309,181756,2,0,P|376:281|372:252,1,56.9999982604981
504,369,182101,2,0,P|476:362|447:358,1,56.9999982604981,2|0,0:0|0:0,0:0:0:0:
265,377,182446,2,0,P|293:373|321:366,1,56.9999982604981
383,309,182790,38,0,P|387:252|405:130,1,170.999994781494,2|0,0:0|0:0,0:0:0:0:
357,70,183480,1,2,0:0:0:0:
10,193,184170,2,0,P|6:221|-1:249,1,56.9999982604981,2|0,0:0|0:0,0:0:0:0:
10,193,184515,2,0,P|3:165|0:137,1,56.9999982604981
79,236,184859,2,0,P|75:264|68:292,1,56.9999982604981,2|0,0:0|0:0,0:0:0:0:
78,148,185204,2,0,P|71:120|67:92,1,56.9999982604981
152,194,185549,6,0,B|199:182|249:202|221:225|265:240|316:226,1,170.999994781494,2|0,0:0|0:0,0:0:0:0:
384,262,186239,1,2,0:0:0:0:
410,186,186411,1,0,0:0:0:0:
337,151,186584,1,0,0:0:0:0:
54,122,186928,1,0,0:0:0:0:
33,61,187100,1,0,0:0:0:0:
91,33,187273,1,0,0:0:0:0:
131,230,187618,1,0,0:0:0:0:
143,266,187790,1,0,0:0:0:0:
108,283,187963,1,0,0:0:0:0:
19,376,188308,38,0,P|93:371|204:363,1,170.999994781494,2|0,0:0|0:0,0:0:0:0:
284,346,188997,2,0,P|278:310|273:278,1,56.9999982604981
284,346,189342,2,0,P|227:355|196:259,1,170.999994781494,2|0,0:0|0:0,0:0:0:0:
242,145,190032,2,0,P|236:181|231:213,1,56.9999982604981
97,210,190377,2,0,P|133:204|165:199,1,56.9999982604981,2|0,0:0|0:0,0:0:0:0:
182,79,190722,2,0,P|146:73|114:68,1,56.9999982604981
79,131,191066,5,0,0:0:0:0:
79,131,191756,1,0,0:0:0:0:
0,3,192101,1,0,0:0:0:0:
0,3,192446,2,0,P|4:31|9:59,1,56.9999982604981,2|0,0:0|0:0,0:0:0:0:
79,131,192790,2,0,P|74:159|69:187,1,56.9999982604981
0,231,193135,2,0,P|4:259|9:287,1,56.9999982604981,2|0,0:0|0:0,0:0:0:0:
122,357,193480,2,0,P|126:328|131:300,1,56.9999982604981
0,384,193825,37,2,0:0:0:0:
0,384,194515,1,2,0:0:0:0:
0,384,195204,1,2,0:0:0:0:
92,354,195549,1,2,0:0:0:0:
236,349,195894,1,2,0:0:0:0:
236,349,196239,1,2,0:0:0:0:
195,219,196411,2,0,P|188:257|179:287,1,56.9999982604981,2|0,0:0|0:0,0:0:0:0:
270,178,196756,6,0,P|334:195|409:121,1,170.999994781494,2|0,0:0|0:0,0:0:0:0:
256,0,197618,1,2,0:0:0:0:
256,0,197963,1,2,0:0:0:0:
306,66,198308,1,0,0:0:0:0:
209,129,198653,1,2,0:0:0:0:
294,194,198825,1,0,0:0:0:0:
256,271,198997,1,2,0:0:0:0:
304,185,199342,38,0,L|473:164,1,170.999994781494,4|0,0:0|0:0,0:0:0:0:
229,119,200722,2,0,P|205:198|249:269,1,170.999994781494,2|0,0:0|0:0,0:0:0:0:
410,308,202101,5,2,0:0:0:0:
410,308,203480,2,0,L|439:312,1,28.4999991302491,2|0,0:0|0:0,0:0:0:0:
346,235,203825,2,0,L|335:209,1,28.4999991302491
314,327,204170,2,0,L|297:350,1,28.4999991302491,2|0,0:0|0:0,0:0:0:0:
438,311,204515,2,0,L|455:288,1,28.4999991302491
334,208,204859,38,0,P|269:259|187:244,1,170.999994781494,2|0,0:0|0:0,0:0:0:0:
83,68,206239,2,0,P|164:52|230:103,1,170.999994781494,2|0,0:0|0:0,0:0:0:0:
186,243,207618,5,2,0:0:0:0:
186,243,208653,1,2,0:0:0:0:
454,204,209342,1,2,0:0:0:0:
144,144,210377,37,0,0:0:0:0:
144,144,210722,2,0,L|199:136,1,56.9999982604981,2|0,0:0|0:0,0:0:0:0:
289,81,211067,2,0,P|236:143|254:223,1,170.999994781494
332,282,211756,2,0,L|388:289,1,56.9999982604981,2|0,0:0|0:0,0:0:0:0:
400,192,212101,2,0,L|343:185,1,56.9999982604981
212,313,212446,2,0,B|243:325|243:325|321:306,1,113.999996520996,2|0,0:0|0:0,0:0:0:0:
147,230,212963,1,0,0:0:0:0:
107,327,213135,6,0,L|99:383,1,56.9999982604981,2|0,0:0|0:0,0:0:0:0:
43,226,213480,2,0,L|50:169,1,56.9999982604981
147,230,213825,2,0,B|178:242|178:242|256:223,1,113.999996520996,2|0,0:0|0:0,0:0:0:0:
431,116,214515,1,2,0:0:0:0:
446,0,214687,1,0,0:0:0:0:
367,86,214860,1,0,0:0:0:0:
479,63,215031,1,0,0:0:0:0:
375,15,215204,2,0,L|406:140,1,113.999996520996,2|0,0:0|0:0,0:0:0:0:
474,206,215722,1,0,0:0:0:0:
377,247,215894,38,0,L|321:241,1,56.9999982604981
332,136,216239,2,0,L|389:144,1,56.9999982604981
236,178,216584,2,0,P|290:241|272:321,1,170.999994781494,2|0,0:0|0:0,0:0:0:0:
197,384,217273,6,0,L|155:378,1,42.7499986953736
272,320,217618,2,0,L|314:314,1,42.7499986953736
180,288,217963,2,0,B|158:259|158:259|148:167,1,128.249996086121,2|0,0:0|0:0,0:0:0:0:
188,81,218653,38,0,L|216:85,1,28.4999991302491
281,179,218998,2,0,L|253:183,1,28.4999991302491
330,100,219342,2,0,P|357:92|385:92,1,56.9999982604981,2|2,0:0|0:0,0:0:0:0:
400,110,220032,6,0,P|386:105|372:102,1,28.4999991302491
257,80,220377,38,0,P|267:61|281:44,1,42.7499986953736,2|0,0:0|0:0,0:0:0:0:
189,188,220722,6,0,P|205:212|225:234,1,56.9999982604981,2|0,0:0|0:0,0:0:0:0:
284,315,221066,38,0,P|247:330|208:341,1,71.2500027179719,2|0,0:0|0:0,0:0:0:0:
414,253,221411,22,0,P|423:201|454:20,1,227.999993041992,6|8,3:2|0:0,0:0:0:0:
166,75,221928,1,0,0:0:0:0:
190,107,222015,1,0,0:0:0:0:
226,125,222101,1,2,0:0:0:0:
266,129,222187,1,0,0:0:0:0:
304,116,222273,1,0,3:0:0:0:
253,33,222446,1,8,0:0:0:0:
35,194,222618,1,0,0:0:0:0:
35,194,222704,1,0,0:0:0:0:
35,194,222790,6,0,B|10:247|10:247|37:295,1,113.999996520996,2|0,3:2|0:0,0:0:0:0:
476,371,223135,2,0,P|419:361|363:357,1,113.999996520996,8|0,0:0|0:0,0:0:0:0:
283,374,223394,1,0,0:0:0:0:
283,374,223480,1,2,0:0:0:0:
370,232,223653,1,0,3:0:0:0:
370,232,223739,1,0,0:0:0:0:
370,232,223825,1,8,0:0:0:0:
421,255,223911,1,0,0:0:0:0:
476,242,223997,1,0,0:0:0:0:
506,193,224084,1,0,0:0:0:0:
500,136,224170,38,0,P|490:79|486:23,1,113.999996520996,2|0,3:2|0:0,0:0:0:0:
486,23,224428,1,0,0:0:0:0:
429,11,224515,1,8,0:0:0:0:
377,34,224601,1,0,0:0:0:0:
352,85,224687,1,0,0:0:0:0:
363,140,224773,1,0,0:0:0:0:
403,179,224859,1,2,0:0:0:0:
365,164,224946,1,0,0:0:0:0:
325,167,225032,1,0,3:0:0:0:
289,185,225118,1,0,0:0:0:0:
264,216,225204,1,8,0:0:0:0:
233,241,225290,1,0,0:0:0:0:
194,252,225377,1,0,0:0:0:0:
155,243,225463,1,0,0:0:0:0:
120,223,225549,6,0,L|136:99,1,113.999996520996,2|0,3:2|0:0,0:0:0:0:
440,251,225894,2,0,L|424:375,1,113.999996520996,8|0,0:0|0:0,0:0:0:0:
350,330,226153,1,0,0:0:0:0:
350,330,226239,2,0,L|289:337,1,56.9999982604981,2|0,0:0|0:0,0:0:0:0:
289,185,226411,2,0,L|345:191,1,56.9999982604981,0|0,3:0|0:0,0:0:0:0:
408,48,226584,2,0,P|447:86|503:82,1,113.999996520996,8|0,0:0|0:0,0:0:0:0:
494,5,226842,1,0,0:0:0:0:
494,5,226928,38,0,B|393:-1|432:48|330:40,1,170.999994781494,4|0,3:1|0:0,0:0:0:0:
258,6,227273,1,8,0:0:0:0:
155,137,227446,1,0,0:0:0:0:
130,168,227532,1,0,0:0:0:0:
123,207,227618,1,2,0:0:0:0:
134,245,227704,1,0,0:0:0:0:
163,272,227790,1,0,3:0:0:0:
330,259,227963,1,8,0:0:0:0:
263,89,228135,1,0,0:0:0:0:
281,344,228308,5,2,3:2:0:0:
336,356,228394,1,0,0:0:0:0:
389,337,228480,1,0,0:0:0:0:
422,291,228566,1,0,0:0:0:0:
423,233,228653,1,8,0:0:0:0:
167,196,228825,1,0,0:0:0:0:
481,104,228997,2,0,P|452:106|424:109,1,56.9999982604981
307,18,229170,2,0,P|335:20|363:23,1,56.9999982604981,0|0,3:0|0:0,0:0:0:0:
325,189,229342,1,8,0:0:0:0:
289,207,229428,1,0,0:0:0:0:
248,206,229515,1,0,0:0:0:0:
213,185,229601,1,0,0:0:0:0:
193,150,229687,37,2,3:2:0:0:
151,111,229773,1,0,0:0:0:0:
94,103,229859,1,0,0:0:0:0:
43,129,229946,1,0,0:0:0:0:
17,179,230032,2,0,P|13:236|4:292,1,113.999996520996,8|0,0:0|0:0,0:0:0:0:
91,281,230290,1,0,0:0:0:0:
91,281,230377,2,0,P|93:252|96:224,1,56.9999982604981,2|0,0:0|0:0,0:0:0:0:
195,384,230549,1,0,3:0:0:0:
448,297,230722,1,10,0:0:0:0:
490,257,230808,1,0,0:0:0:0:
506,202,230894,1,0,0:0:0:0:
496,146,230980,1,0,0:0:0:0:
460,102,231066,5,0,3:0:0:0:
280,38,231239,1,0,0:0:0:0:
280,38,231325,1,0,0:0:0:0:
280,38,231411,2,0,P|309:36|337:33,1,56.9999982604981,10|0,0:0|0:0,0:0:0:0:
419,1,231584,1,0,0:0:0:0:
402,171,231756,1,2,0:0:0:0:
370,182,231842,1,0,0:0:0:0:
370,214,231928,1,0,3:0:0:0:
402,225,232015,1,0,0:0:0:0:
421,198,232101,2,0,P|419:169|416:141,1,56.9999982604981,8|0,0:0|0:0,0:0:0:0:
174,45,232273,2,0,P|176:74|179:102,1,56.9999982604981,2|0,0:0|0:0,0:0:0:0:
2,294,232446,37,4,3:2:0:0:
130,177,232618,1,0,0:0:0:0:
130,177,232704,1,0,0:0:0:0:
130,177,232790,2,0,P|187:181|244:191,1,113.999996520996,10|0,0:0|0:0,0:0:0:0:
313,253,233049,1,0,0:0:0:0:
313,253,233135,2,0,B|342:202|342:202|319:152,1,113.999996520996,2|0,0:0|3:0,0:0:0:0:
109,278,233480,2,0,B|80:329|80:329|103:379,1,113.999996520996,8|0,0:0|0:0,0:0:0:0:
182,364,233739,1,0,0:0:0:0:
182,364,233825,6,0,P|210:360|238:359,1,56.9999982604981,2|0,3:2|0:0,0:0:0:0:
380,381,233997,2,0,P|408:379|436:376,1,56.9999982604981
471,283,234170,1,8,0:0:0:0:
433,239,234256,1,0,0:0:0:0:
376,230,234342,1,0,0:0:0:0:
323,251,234428,1,0,0:0:0:0:
289,297,234515,2,0,P|290:268|293:240,1,56.9999982604981,2|0,0:0|0:0,0:0:0:0:
158,129,234687,2,0,P|159:100|162:72,1,56.9999982604981,0|0,3:0|0:0,0:0:0:0:
220,5,234859,1,8,0:0:0:0:
233,23,234946,1,0,0:0:0:0:
242,43,235032,1,0,0:0:0:0:
246,65,235118,1,0,0:0:0:0:
241,87,235204,37,2,3:2:0:0:
77,116,235377,1,0,0:0:0:0:
292,240,235549,2,0,P|235:243|179:253,1,113.999996520996,8|0,0:0|0:0,0:0:0:0:
179,253,235808,1,0,0:0:0:0:
216,295,235894,1,2,0:0:0:0:
270,311,235980,1,0,0:0:0:0:
324,294,236066,1,0,3:0:0:0:
358,247,236153,1,0,0:0:0:0:
362,190,236239,1,8,0:0:0:0:
376,153,236325,1,0,0:0:0:0:
403,124,236411,1,0,0:0:0:0:
440,110,236497,1,0,0:0:0:0:
480,111,236584,6,0,P|481:140|484:168,1,56.9999982604981,2|0,3:2|0:0,0:0:0:0:
311,86,236756,2,0,P|312:57|315:29,1,56.9999982604981
155,170,236928,2,0,P|99:174|59:136,1,113.999996520996,10|0,0:0|0:0,0:0:0:0:
59,136,237187,1,0,0:0:0:0:
75,81,237273,1,2,3:2:0:0:
117,43,237359,1,0,0:0:0:0:
167,71,237446,1,0,3:0:0:0:
155,127,237532,1,0,0:0:0:0:
98,133,237618,1,10,0:0:0:0:
59,174,237704,1,0,0:0:0:0:
55,231,237791,1,2,0:0:0:0:
91,274,237877,1,0,0:0:0:0:
146,285,237963,38,0,P|202:276|258:261,1,113.999996520996,4|0,3:1|0:0,0:0:0:0:
299,187,238222,1,0,0:0:0:0:
299,187,238308,1,8,0:0:0:0:
128,205,238480,1,0,0:0:0:0:
287,333,238653,2,0,P|343:336|400:346,1,113.999996520996,2|0,0:0|3:0,0:0:0:0:
488,384,238911,1,0,0:0:0:0:
488,384,238997,2,0,B|515:336|515:336|490:283,1,113.999996520996,8|0,0:0|0:0,0:0:0:0:
256,11,239342,6,0,P|246:67|242:123,1,113.999996520996,2|0,3:2|0:0,0:0:0:0:
264,207,239601,1,0,0:0:0:0:
264,207,239687,1,8,0:0:0:0:
475,130,239859,1,0,0:0:0:0:
475,130,239946,1,0,0:0:0:0:
475,130,240032,2,0,P|475:102|472:74,1,56.9999982604981,2|0,0:0|0:0,0:0:0:0:
344,184,240204,2,0,P|344:156|341:128,1,56.9999982604981,0|0,3:0|0:0,0:0:0:0:
152,9,240377,2,0,P|96:5|56:43,1,113.999996520996,8|0,0:0|0:0,0:0:0:0:
60,124,240635,1,0,0:0:0:0:
60,124,240722,37,2,3:2:0:0:
152,9,240894,1,0,0:0:0:0:
153,224,241066,2,0,P|148:167|138:111,1,113.999996520996,8|0,0:0|0:0,0:0:0:0:
138,111,241325,1,0,0:0:0:0:
192,127,241411,1,2,0:0:0:0:
225,173,241497,1,0,0:0:0:0:
221,230,241584,1,0,3:0:0:0:
183,273,241670,1,0,0:0:0:0:
136,281,241756,21,12,0:0:0:0:
309,205,242101,1,2,0:2:0:0:
221,230,242446,1,2,0:2:0:0:
138,111,242790,1,2,0:2:0:0:
256,0,243135,1,2,0:2:0:0:
308,131,243480,38,0,B|266:156|266:156|147:127,1,170.999994781494,4|0,3:1|0:0,0:0:0:0:
138,111,243825,1,8,0:0:0:0:
180,125,243911,1,0,0:0:0:0:
211,158,243997,1,0,0:0:0:0:
222,202,244084,1,0,0:0:0:0:
211,246,244170,1,2,0:0:0:0:
222,290,244256,1,0,0:0:0:0:
253,323,244342,1,0,3:0:0:0:
296,337,244428,1,0,0:0:0:0:
342,326,244515,2,0,L|397:312,1,56.9999982604981,8|0,0:0|0:0,0:0:0:0:
289,196,244687,2,0,L|233:209,1,56.9999982604981
48,297,244859,37,2,3:2:0:0:
89,279,244945,1,0,0:0:0:0:
117,243,245031,1,0,0:0:0:0:
124,199,245117,1,0,0:0:0:0:
108,156,245203,1,8,0:0:0:0:
149,138,245291,1,0,0:0:0:0:
177,102,245377,1,0,0:0:0:0:
184,58,245463,1,0,0:0:0:0:
168,15,245549,2,0,L|112:1,1,56.9999982604981,2|0,0:0|0:0,0:0:0:0:
254,142,245722,2,0,L|309:128,1,56.9999982604981,2|0,3:2|0:0,0:0:0:0:
478,36,245894,2,0,P|428:104|431:188,1,170.999994781494,8|0,0:0|0:0,0:0:0:0:
394,263,246239,6,0,P|449:270|496:240,1,113.999996520996,0|0,3:0|0:0,0:0:0:0:
254,142,246584,1,8,0:0:0:0:
220,324,246756,1,0,0:0:0:0:
186,363,246842,1,0,0:0:0:0:
139,381,246928,1,2,0:0:0:0:
88,376,247014,1,0,0:0:0:0:
46,348,247100,1,0,3:0:0:0:
151,165,247273,2,0,P|198:135|254:142,1,113.999996520996,8|0,0:0|0:0,0:0:0:0:
418,246,247618,37,2,3:2:0:0:
413,264,247705,1,0,0:0:0:0:
396,267,247791,1,0,0:0:0:0:
390,250,247877,1,0,0:0:0:0:
403,239,247964,1,8,0:0:0:0:
431,221,248050,1,0,0:0:0:0:
443,190,248136,1,0,0:0:0:0:
433,158,248222,1,0,0:0:0:0:
407,138,248309,2,0,L|351:125,1,56.9999982604981,2|0,0:0|0:0,0:0:0:0:
457,29,248480,2,0,L|513:16,1,56.9999982604981,0|0,3:0|0:0,0:0:0:0:
263,78,248653,2,0,P|195:27|111:30,1,170.999994781494,8|0,0:0|0:0,0:0:0:0:
41,0,248997,6,0,L|0:165,1,170.999994781494,4|0,3:1|0:0,0:0:0:0:
7,179,249342,1,8,0:0:0:0:
43,206,249428,1,0,0:0:0:0:
87,213,249514,1,0,0:0:0:0:
130,198,249600,1,0,0:0:0:0:
161,165,249686,1,2,0:0:0:0:
172,121,249773,1,0,0:0:0:0:
203,88,249859,1,0,3:0:0:0:
246,73,249945,1,0,0:0:0:0:
290,80,250032,2,0,L|304:135,1,56.9999982604981,8|0,0:0|0:0,0:0:0:0:
441,206,250204,2,0,L|455:150,1,56.9999982604981
270,224,250377,37,2,3:2:0:0:
263,251,250463,1,0,0:0:0:0:
256,279,250549,1,0,0:0:0:0:
249,306,250635,1,0,0:0:0:0:
242,334,250722,1,8,0:0:0:0:
269,306,250808,1,0,0:0:0:0:
274,267,250894,1,0,0:0:0:0:
254,234,250980,1,0,0:0:0:0:
217,220,251066,1,2,0:0:0:0:
180,232,251153,1,0,0:0:0:0:
147,262,251239,1,0,3:0:0:0:
102,265,251325,1,0,0:0:0:0:
65,240,251411,2,0,L|50:184,1,56.9999982604981,8|0,0:0|0:0,0:0:0:0:
181,88,251584,2,0,L|166:143,1,56.9999982604981
0,44,251756,6,0,B|22:19|22:19|103:9,1,113.999996520996,2|0,3:2|0:0,0:0:0:0:
256,164,252101,2,0,B|233:188|233:188|152:198,1,113.999996520996,8|0,0:0|0:0,0:0:0:0:
153,199,252359,1,0,0:0:0:0:
153,199,252446,1,2,0:0:0:0:
356,63,252618,1,2,3:2:0:0:
309,253,252790,2,0,L|279:370,1,113.999996520996,8|0,0:0|0:0,0:0:0:0:
512,194,253135,38,0,P|428:196|360:146,1,170.999994781494,2|0,3:2|0:0,0:0:0:0:
356,63,253480,1,10,0:0:0:0:
407,304,253653,1,0,0:0:0:0:
373,343,253739,1,0,0:0:0:0:
326,361,253825,1,2,0:0:0:0:
275,356,253911,1,0,0:0:0:0:
233,328,253997,1,0,3:0:0:0:
93,128,254170,1,8,0:0:0:0:
293,191,254342,1,0,0:0:0:0:
293,191,254428,1,0,0:0:0:0:
293,191,254515,6,0,B|318:233|318:233|289:351,1,170.999994781494,6|0,3:2|0:0,0:0:0:0:
275,356,254859,1,8,0:0:0:0:
255,315,254945,1,0,0:0:0:0:
220,286,255031,1,0,0:0:0:0:
176,275,255117,1,0,0:0:0:0:
132,284,255204,1,2,0:0:0:0:
148,242,255290,1,0,0:0:0:0:
149,196,255376,1,0,3:0:0:0:
129,156,255462,1,0,0:0:0:0:
93,128,255549,2,0,L|37:113,1,56.9999982604981,8|0,0:0|0:0,0:0:0:0:
238,165,255722,2,0,L|293:150,1,56.9999982604981
405,5,255894,37,2,3:2:0:0:
447,21,255980,1,0,0:0:0:0:
474,56,256066,1,0,0:0:0:0:
479,101,256152,1,0,0:0:0:0:
460,142,256238,1,8,0:0:0:0:
423,167,256325,1,0,0:0:0:0:
378,169,256411,1,0,0:0:0:0:
338,148,256497,1,0,0:0:0:0:
293,150,256584,2,0,L|237:164,1,56.9999982604981,2|0,0:0|0:0,0:0:0:0:
363,258,256756,2,0,L|418:243,1,56.9999982604981,0|0,3:0|0:0,0:0:0:0:
248,350,256928,2,0,P|180:300|96:303,1,170.999994781494,8|0,0:0|0:0,0:0:0:0:
21,266,257273,6,0,P|14:321|44:368,1,113.999996520996,2|0,3:2|0:0,0:0:0:0:
237,164,257618,1,8,0:0:0:0:
62,174,257790,1,0,0:0:0:0:
23,139,257876,1,0,0:0:0:0:
5,93,257962,1,2,0:0:0:0:
10,42,258048,1,0,0:0:0:0:
38,0,258134,1,0,3:0:0:0:
237,164,258308,2,0,L|207:281,1,113.999996520996,8|0,0:0|0:0,0:0:0:0:
430,140,258653,37,0,3:0:0:0:
448,135,258740,1,0,0:0:0:0:
451,118,258826,1,0,0:0:0:0:
434,112,258912,1,0,0:0:0:0:
423,125,258997,1,8,0:0:0:0:
405,153,259085,1,0,0:0:0:0:
374,165,259171,1,0,0:0:0:0:
342,155,259257,1,0,0:0:0:0:
322,129,259342,6,0,L|309:73,1,56.9999982604981,2|0,0:0|0:0,0:0:0:0:
207,194,259515,2,0,L|220:250,1,56.9999982604981,0|0,3:0|0:0,0:0:0:0:
55,53,259687,37,10,0:0:0:0:
0,70,259773,5,0,0:0:0:0:
0,127,259859,37,2,0:0:0:0:
55,145,259946,5,0,0:0:0:0:
87,99,260032,37,4,3:1:0:0:
270,0,260204,1,0,0:0:0:0:
207,194,260377,2,0,P|253:224|309:217,1,113.999996520996,8|0,0:0|0:0,0:0:0:0:
335,195,260635,1,0,0:0:0:0:
338,223,260721,1,2,0:0:0:0:
342,251,260807,1,0,0:0:0:0:
345,280,260893,1,2,3:2:0:0:
485,127,261066,1,8,0:0:0:0:
215,85,261239,1,0,0:0:0:0:
215,85,261325,1,0,0:0:0:0:
215,85,261411,6,0,B|197:112|197:112|206:192,1,113.999996520996,2|0,3:2|0:0,0:0:0:0:
476,234,261756,2,0,B|494:207|494:207|485:127,1,113.999996520996,8|0,0:0|0:0,0:0:0:0:
457,128,262015,1,0,0:0:0:0:
428,121,262101,1,2,0:0:0:0:
401,114,262187,1,0,0:0:0:0:
373,107,262273,1,0,3:0:0:0:
242,303,262446,2,0,P|298:310|345:280,1,113.999996520996,8|0,0:0|0:0,0:0:0:0:
345,280,262704,1,0,0:0:0:0:
345,280,262790,37,2,3:2:0:0:
152,148,262963,1,0,0:0:0:0:
178,384,263135,1,8,0:0:0:0:
273,203,263308,1,0,0:0:0:0:
273,203,263394,1,0,0:0:0:0:
273,203,263480,1,2,0:0:0:0:
273,203,263566,1,0,0:0:0:0:
273,203,263653,1,0,3:0:0:0:
447,264,263825,2,0,L|424:170,1,95,10|0,0:0|0:0,0:0:0:0:
249,110,264170,6,0,L|272:202,1,95,2|0,3:2|0:0,0:0:0:0:
174,325,264515,2,0,P|126:324|86:302,1,95,10|0,0:0|0:0,0:0:0:0:
54,303,264773,1,0,0:0:0:0:
60,274,264859,1,2,0:0:0:0:
67,247,264945,1,0,0:0:0:0:
74,219,265031,1,0,0:0:0:0:
249,110,265204,1,10,0:0:0:0:
0,163,265377,1,2,0:0:0:0:
242,267,265549,38,0,P|340:252|446:240,1,199.499993911743,4|0,3:2|0:0,0:0:0:0:
512,233,265893,1,8,0:0:0:0:
455,223,265980,1,0,0:0:0:0:
415,181,266066,1,0,0:0:0:0:
404,124,266153,1,0,0:0:0:0:
429,73,266239,2,0,P|431:44|434:16,1,56.9999982604981
268,112,266411,1,0,3:0:0:0:
268,112,266497,1,0,0:0:0:0:
268,112,266584,2,0,P|264:140|263:168,1,56.9999982604981,8|0,0:0|0:0,0:0:0:0:
71,63,266756,2,0,P|72:34|75:6,1,56.9999982604981
138,235,266928,5,0,3:0:0:0:
156,240,267015,1,0,0:0:0:0:
159,257,267101,1,0,0:0:0:0:
142,263,267187,1,0,0:0:0:0:
131,250,267274,1,8,0:0:0:0:
162,226,267359,1,0,0:0:0:0:
202,222,267446,1,0,0:0:0:0:
240,233,267532,1,0,0:0:0:0:
270,258,267618,1,0,0:0:0:0:
316,290,267704,1,0,0:0:0:0:
372,291,267790,1,0,3:0:0:0:
420,260,267877,1,0,0:0:0:0:
439,206,267963,2,0,P|437:177|434:149,1,56.9999982604981,8|0,0:0|0:0,0:0:0:0:
512,347,268135,1,0,0:0:0:0:
512,347,268222,1,0,0:0:0:0:
512,347,268308,38,0,B|411:341|450:390|348:382,1,170.999994781494,0|0,3:0|0:0,0:0:0:0:
335,367,268653,1,8,0:0:0:0:
309,316,268739,1,0,0:0:0:0:
257,290,268825,1,0,0:0:0:0:
200,296,268911,1,0,0:0:0:0:
161,337,268997,1,0,0:0:0:0:
172,298,269084,1,0,0:0:0:0:
166,258,269170,1,0,3:0:0:0:
145,223,269256,1,0,0:0:0:0:
110,203,269342,1,8,0:0:0:0:
92,208,269429,1,0,0:0:0:0:
89,225,269515,1,0,0:0:0:0:
106,231,269601,1,0,0:0:0:0:
117,218,269687,6,0,P|89:214|61:213,1,56.9999982604981,0|0,3:0|0:0,0:0:0:0:
204,7,269859,2,0,P|175:7|147:11,1,56.9999982604981
8,93,270032,1,8,0:0:0:0:
57,120,270118,1,0,0:0:0:0:
112,132,270204,1,0,0:0:0:0:
168,126,270290,1,0,0:0:0:0:
220,102,270377,1,0,0:0:0:0:
212,93,270463,1,0,0:0:0:0:
203,85,270549,1,0,3:0:0:0:
192,82,270635,1,0,0:0:0:0:
180,83,270722,2,0,P|130:150|132:234,1,170.999994781494,8|0,0:0|0:0,0:0:0:0:
94,306,271066,38,0,P|149:312|196:282,1,113.999996520996,4|0,3:1|0:0,0:0:0:0:
472,13,271411,2,0,P|475:69|485:126,1,113.999996520996,8|0,0:0|0:0,0:0:0:0:
485,126,271670,1,0,0:0:0:0:
460,157,271756,1,0,0:0:0:0:
421,167,271842,1,0,0:0:0:0:
382,158,271928,1,0,3:0:0:0:
353,129,272015,1,0,0:0:0:0:
341,90,272101,1,8,0:0:0:0:
472,13,272273,1,0,0:0:0:0:
490,287,272446,6,0,P|433:290|377:299,1,113.999996520996,0|0,3:0|0:0,0:0:0:0:
56,18,272790,2,0,P|25:64|31:120,1,113.999996520996,8|0,0:0|0:0,0:0:0:0:
31,120,273049,1,0,0:0:0:0:
69,163,273135,1,0,0:0:0:0:
124,176,273222,1,0,0:0:0:0:
178,158,273308,1,0,3:0:0:0:
211,112,273394,1,0,0:0:0:0:
213,55,273480,1,8,0:0:0:0:
255,298,273653,1,0,0:0:0:0:
255,298,273739,1,0,0:0:0:0:
255,298,273825,38,0,P|264:211|309:68,1,199.499993911743,0|0,3:0|0:0,0:0:0:0:
342,45,274170,1,8,0:0:0:0:
188,213,274342,1,0,0:0:0:0:
188,213,274428,1,0,0:0:0:0:
188,213,274515,2,0,P|180:185|177:157,1,56.9999982604981
361,303,274687,2,0,P|358:331|350:358,1,56.9999982604981,0|0,3:0|0:0,0:0:0:0:
425,255,274859,1,10,0:0:0:0:
250,113,275032,1,0,0:0:0:0:
250,113,275204,6,0,P|277:208|289:307,1,170.999994781494,0|0,3:0|0:0,0:0:0:0:
361,303,275549,2,0,P|407:334|463:328,1,113.999996520996,10|0,0:0|0:0,0:0:0:0:
278,33,275894,2,0,B|224:19|224:19|179:56,1,113.999996520996,0|0,0:0|3:0,0:0:0:0:
425,255,276239,2,0,P|434:198|438:141,1,113.999996520996,10|0,0:0|0:0,0:0:0:0:
87,182,276584,38,0,P|78:239|74:296,1,113.999996520996,4|0,3:2|0:0,0:0:0:0:
74,295,276842,1,0,0:0:0:0:
37,278,276928,1,8,0:0:0:0:
17,243,277015,1,0,0:0:0:0:
13,203,277101,1,0,0:0:0:0:
30,167,277187,1,0,0:0:0:0:
62,144,277273,2,0,P|60:115|57:87,1,56.9999982604981
217,214,277446,2,0,P|219:185|222:157,1,56.9999982604981,0|0,3:0|0:0,0:0:0:0:
331,27,277618,1,8,0:0:0:0:
313,32,277705,1,0,0:0:0:0:
310,49,277791,1,0,0:0:0:0:
327,55,277877,1,0,0:0:0:0:
338,42,277964,5,0,3:0:0:0:
482,224,278135,1,0,0:0:0:0:
482,224,278222,1,0,0:0:0:0:
482,224,278308,1,8,0:0:0:0:
450,271,278394,1,0,0:0:0:0:
396,291,278480,1,0,0:0:0:0:
341,276,278566,1,0,0:0:0:0:
303,232,278653,2,0,P|305:203|308:175,1,56.9999982604981
143,119,278825,2,0,P|141:90|138:62,1,56.9999982604981,0|0,3:0|0:0,0:0:0:0:
27,263,278997,37,8,0:0:0:0:
21,320,279083,5,0,0:0:0:0:
75,341,279170,37,0,0:0:0:0:
110,297,279255,5,0,0:0:0:0:
81,248,279342,37,0,3:0:0:0:
370,356,279515,1,0,0:0:0:0:
370,356,279601,1,0,0:0:0:0:
370,356,279687,2,0,P|372:327|375:299,1,56.9999982604981,8|0,0:0|0:0,0:0:0:0:
302,260,279859,1,0,0:0:0:0:
413,51,280032,1,0,0:0:0:0:
368,16,280118,1,0,0:0:0:0:
311,11,280204,1,0,3:0:0:0:
262,41,280290,1,0,0:0:0:0:
238,93,280377,1,8,0:0:0:0:
493,152,280549,1,0,0:0:0:0:
512,29,280722,6,0,B|458:15|458:15|413:52,1,113.999996520996,0|0,3:0|0:0,0:0:0:0:
289,373,281066,2,0,P|293:316|301:259,1,113.999996520996,8|0,0:0|0:0,0:0:0:0:
8,11,281411,38,0,P|16:49|17:61,1,38,4|0,3:3|0:0,0:0:0:0:
116,110,281584,6,0,P|110:148|107:160,1,47.5,0|0,3:0|0:0,0:0:0:0:
188,288,281756,38,0,P|167:326|159:337,1,56.9999982604981,10|0,0:0|0:0,0:0:0:0:
300,259,281928,6,0,P|293:302|290:315,1,47.5,2|0,0:0|0:0,0:0:0:0:
354,193,282101,37,4,3:1:0:0:
431,323,282273,1,0,0:0:0:0:
494,153,282446,2,0,B|486:134|486:134|507:19,1,113.999996520996,8|0,0:0|0:0,0:0:0:0:
485,36,282704,1,0,0:0:0:0:
447,50,282790,1,0,0:0:0:0:
420,80,282877,1,0,0:0:0:0:
413,119,282963,1,0,3:0:0:0:
422,157,283049,1,0,0:0:0:0:
449,185,283135,1,8,0:0:0:0:
482,206,283222,1,0,0:0:0:0:
501,240,283308,1,0,0:0:0:0:
502,279,283394,1,0,0:0:0:0:
483,314,283480,6,0,P|426:318|369:326,1,113.999996520996,0|0,3:0|0:0,0:0:0:0:
105,79,283825,2,0,P|74:125|80:181,1,113.999996520996,8|0,0:0|0:0,0:0:0:0:
79,180,284084,1,0,0:0:0:0:
133,197,284170,1,0,0:0:0:0:
185,174,284256,1,0,0:0:0:0:
209,122,284342,1,0,3:0:0:0:
192,67,284428,1,0,0:0:0:0:
143,36,284515,2,0,P|114:37|86:40,1,56.9999982604981,8|0,0:0|0:0,0:0:0:0:
89,303,284687,1,0,0:0:0:0:
89,303,284773,1,0,0:0:0:0:
89,303,284859,38,0,P|92:274|92:246,1,56.9999982604981,0|0,3:0|0:0,0:0:0:0:
172,261,285032,1,0,0:0:0:0:
7,305,285204,2,0,P|48:372|142:357,1,170.999994781494,8|0,0:0|0:0,0:0:0:0:
172,261,285549,2,0,L|152:98,1,113.999996520996,0|0,0:0|3:0,0:0:0:0:
512,0,285894,2,0,L|498:113,1,113.999996520996,10|0,0:0|0:0,0:0:0:0:
474,304,286239,5,0,3:0:0:0:
474,304,286325,1,0,0:0:0:0:
474,304,286411,1,0,0:0:0:0:
233,105,286584,1,10,0:0:0:0:
254,156,286670,1,0,0:0:0:0:
301,186,286756,1,0,0:0:0:0:
358,184,286842,1,0,0:0:0:0:
403,150,286928,1,0,0:0:0:0:
339,304,287101,1,0,3:0:0:0:
270,30,287273,2,0,P|213:25|163:59,1,113.999996520996,10|0,0:0|0:0,0:0:0:0:
256,192,291756,12,0,292963,0:0:0:0:
395,13,293135,38,0,B|370:55|370:55|399:173,1,170.999994781494,4|0,3:2|0:0,0:0:0:0:
391,187,293480,1,8,0:0:0:0:
347,175,293566,1,0,0:0:0:0:
302,182,293652,1,0,0:0:0:0:
264,207,293738,1,0,0:0:0:0:
240,245,293824,1,0,0:0:0:0:
202,270,293911,1,0,0:0:0:0:
157,277,293997,1,0,3:0:0:0:
113,265,294083,1,0,0:0:0:0:
79,233,294169,1,8,0:0:0:0:
84,215,294256,1,0,0:0:0:0:
101,212,294342,1,0,0:0:0:0:
107,229,294428,1,0,0:0:0:0:
94,240,294515,5,0,3:0:0:0:
66,258,294601,1,0,0:0:0:0:
54,289,294687,1,0,0:0:0:0:
64,321,294773,1,0,0:0:0:0:
90,341,294860,2,0,L|146:354,1,56.9999982604981,8|0,0:0|0:0,0:0:0:0:
240,245,295032,2,0,L|184:232,1,56.9999982604981
323,321,295204,1,0,0:0:0:0:
353,286,295290,1,0,0:0:0:0:
392,263,295376,1,0,3:0:0:0:
436,253,295462,1,0,0:0:0:0:
482,257,295549,2,0,P|507:307|493:361,1,113.999996520996,8|0,0:0|0:0,0:0:0:0:
240,245,295894,37,0,3:0:0:0:
210,210,295980,1,0,0:0:0:0:
171,187,296066,1,0,0:0:0:0:
127,177,296152,1,0,0:0:0:0:
81,181,296239,2,0,L|25:194,1,56.9999982604981,8|0,0:0|0:0,0:0:0:0:
138,53,296411,2,0,L|193:66,1,56.9999982604981
240,245,296584,2,0,P|308:195|392:198,1,170.999994781494
467,161,296929,2,0,P|474:216|444:263,1,113.999996520996,10|0,0:0|0:0,0:0:0:0:
263,347,297187,1,0,0:0:0:0:
263,347,297273,6,0,P|233:300|240:245,1,113.999996520996,0|0,3:0|0:0,0:0:0:0:
346,111,297618,1,10,0:0:0:0:
131,174,297790,1,0,0:0:0:0:
92,140,297876,1,0,0:0:0:0:
74,93,297962,1,0,0:0:0:0:
79,42,298048,1,0,0:0:0:0:
107,0,298134,1,0,3:0:0:0:
346,111,298308,1,10,0:0:0:0:
185,269,298480,1,0,0:0:0:0:
185,269,298566,1,0,0:0:0:0:
185,269,298653,38,0,B|160:227|160:227|189:108,1,170.999994781494,4|0,3:1|0:0,0:0:0:0:
202,102,298997,1,8,0:0:0:0:
233,69,299083,1,0,0:0:0:0:
277,59,299169,1,0,0:0:0:0:
319,74,299255,1,0,0:0:0:0:
346,111,299341,1,0,0:0:0:0:
348,155,299428,1,0,0:0:0:0:
326,194,299514,1,0,3:0:0:0:
328,238,299601,1,0,0:0:0:0:
355,275,299686,1,8,0:0:0:0:
371,280,299773,1,0,0:0:0:0:
384,266,299859,1,0,0:0:0:0:
374,254,299945,1,0,0:0:0:0:
356,257,300032,5,0,3:0:0:0:
326,271,300118,1,0,0:0:0:0:
294,263,300204,1,0,0:0:0:0:
272,238,300290,1,0,0:0:0:0:
271,204,300377,2,0,L|285:144,1,56.9999982604981,8|0,0:0|0:0,0:0:0:0:
160,244,300549,2,0,L|173:299,1,56.9999982604981
199,91,300722,1,0,0:0:0:0:
169,56,300808,1,0,0:0:0:0:
130,33,300894,1,0,3:0:0:0:
86,23,300980,1,0,0:0:0:0:
40,27,301067,2,0,P|16:77|30:131,1,113.999996520996,8|0,0:0|0:0,0:0:0:0:
199,91,301411,37,0,3:0:0:0:
217,49,301497,1,0,0:0:0:0:
251,19,301583,1,0,0:0:0:0:
294,5,301669,1,0,0:0:0:0:
342,6,301756,2,0,B|369:23|369:23|449:14,1,113.999996520996,8|0,0:0|0:0,0:0:0:0:
289,189,302101,2,0,P|221:139|137:142,1,170.999994781494
62,105,302446,2,0,P|55:160|85:207,1,113.999996520996,8|0,0:0|0:0,0:0:0:0:
303,282,302789,5,0,3:0:0:0:
321,287,302876,1,0,0:0:0:0:
324,304,302962,1,0,0:0:0:0:
307,310,303048,1,0,0:0:0:0:
296,297,303135,1,8,0:0:0:0:
278,269,303221,1,0,0:0:0:0:
247,257,303307,1,0,0:0:0:0:
215,267,303393,1,0,0:0:0:0:
195,293,303480,38,0,L|182:349,1,56.9999982604981,4|0,3:3|0:0,0:0:0:0:
85,207,303653,6,0,L|98:151,1,56.9999982604981,0|0,3:0|0:0,0:0:0:0:
10,358,303825,38,0,L|66:345,1,56.9999982604981,10|0,0:0|0:0,0:0:0:0:
270,167,303997,6,0,L|214:154,1,56.9999982604981,2|0,0:0|0:0,0:0:0:0:
394,286,304170,38,0,L|435:121,1,170.999994781494,4|0,3:2|0:0,0:0:0:0:
452,126,304515,1,8,0:0:0:0:
456,169,304601,1,0,0:0:0:0:
440,212,304687,1,0,0:0:0:0:
406,240,304773,1,0,0:0:0:0:
363,251,304859,1,0,0:0:0:0:
319,240,304946,1,0,0:0:0:0:
285,209,305032,1,0,3:0:0:0:
270,167,305118,1,0,0:0:0:0:
277,123,305204,1,8,0:0:0:0:
296,119,305291,1,0,0:0:0:0:
307,132,305377,1,0,0:0:0:0:
294,145,305463,1,0,0:0:0:0:
279,139,305550,5,0,3:0:0:0:
63,137,305722,1,0,0:0:0:0:
205,253,305894,2,0,B|319:240,1,113.999996520996,8|0,0:0|0:0,0:0:0:0:
319,240,306153,1,0,0:0:0:0:
319,240,306239,1,0,0:0:0:0:
109,339,306411,1,0,3:0:0:0:
170,104,306584,2,0,P|243:63|327:76,1,170.999994781494,8|0,0:0|0:0,0:0:0:0:
328,89,306929,37,0,3:0:0:0:
413,260,307101,1,0,0:0:0:0:
469,32,307273,1,8,0:0:0:0:
317,199,307446,1,0,0:0:0:0:
317,199,307532,1,0,0:0:0:0:
317,199,307618,1,0,0:0:0:0:
317,199,307704,1,0,0:0:0:0:
317,199,307791,1,0,3:0:0:0:
220,58,307963,2,0,L|127:35,1,95,10|0,0:0|0:0,0:0:0:0:
224,222,308308,6,0,L|316:199,1,95,0|0,3:0|0:0,0:0:0:0:
86,349,308653,2,0,P|61:309|62:262,1,95,10|0,0:0|0:0,0:0:0:0:
80,238,308911,1,0,0:0:0:0:
86,210,308997,1,0,0:0:0:0:
93,183,309083,1,0,0:0:0:0:
100,154,309169,1,0,0:0:0:0:
220,58,309342,1,10,0:0:0:0:
0,115,309515,1,0,0:0:0:0:
256,192,309687,1,14,0:0:0:0:
