osu file format v14

[General]
AudioFilename: audio.mp3
AudioLeadIn: 0
PreviewTime: 39268
Countdown: 0
SampleSet: Soft
StackLeniency: 0.7
Mode: 0
LetterboxInBreaks: 0
WidescreenStoryboard: 0

[Editor]
DistanceSpacing: 0.9
BeatDivisor: 1
GridSize: 4
TimelineZoom: 1

[Metadata]
Title:Walk you home
TitleUnicode:같은 시간 같은 자리
Artist:NCT DREAM
ArtistUnicode:엔시티 드림
Creator:FunnyA
Version:Easy
Source:
Tags:The First Mini Album Summer Hot and Young Neo Culture Technology 마크 리 이민형 黄仁俊 런쥔 이제노 제노 이동혁 해찬 나재민 재민 钟辰乐 천러 박지성 지성 Mark Lee Min Hyung Huang Ren Jun Renjun Moomin Lee Je No Jeno Lee Dong Hyuk Haechan Dongsookie Na Jae Min Jaemin Zhong Chen Le Chenle Park Ji Sung Jisung SM Entertaintment SM엔터테인먼트 S.M.Entertainment Korean Pop K-pop Kpop 2017 ulfanirahmi
BeatmapID:1521408
BeatmapSetID:720588

[Difficulty]
HPDrainRate:2
CircleSize:2.7
OverallDifficulty:2.5
ApproachRate:3
SliderMultiplier:1.4
SliderTickRate:2

[Events]
//Background and Video events
0,0,"Walk you home.jpg",0,0
//Break Periods
2,59013,62471
2,112891,121246
//Storyboard Layer 0 (Background)
//Storyboard Layer 1 (Fail)
//Storyboard Layer 2 (Pass)
//Storyboard Layer 3 (Foreground)
//Storyboard Sound Samples

[TimingPoints]
238,612.244897959184,4,2,1,75,1,0
37125,-100,4,2,1,5,0,0
38044,-100,4,2,1,65,0,0
39421,-100,4,2,1,85,0,1
54115,-100,4,2,1,45,0,0
59013,-100,4,2,1,75,0,0
71258,-100,4,2,1,65,0,0
71411,-100,4,2,1,5,0,0
72942,-100,4,2,1,65,0,0
73707,-100,4,2,1,75,0,0
91003,-100,4,2,1,5,0,0
91309,-100,4,2,1,75,0,0
91615,-100,4,2,1,5,0,0
91921,-100,4,2,1,75,0,0
92686,-100,4,2,1,65,0,0
93299,-100,4,2,1,85,0,1
107993,-100,4,2,1,45,0,0
122686,-100,4,2,5,75,0,0
132482,-100,4,2,1,85,0,1
147176,-100,4,2,1,65,0,0
151462,-100,4,2,2,75,0,0
152074,-100,4,2,1,85,0,1
166768,-100,4,2,2,45,0,0
169217,-100,4,2,1,45,0,0

[Colours]
Combo1 : 255,0,128
Combo2 : 16,212,243
Combo3 : 128,128,255
Combo4 : 255,128,192

[HitObjects]
56,260,10033,6,0,B|104:296|104:296|200:296,1,140,6|2,0:3|0:3,0:3:0:0:
300,348,11258,2,0,P|312:276|272:208,1,140,2|2,0:3|0:3,0:3:0:0:
172,160,12482,2,0,L|24:144,2,140,2|2|2,0:3|0:3|0:3,0:3:0:0:
284,217,14319,1,2,0:3:0:0:
396,272,14931,6,0,B|429:211|429:211|432:131,1,140,2|2,0:3|0:3,0:3:0:0:
320,85,16156,2,0,B|287:146|287:146|284:226,1,140,2|2,0:3|0:3,0:3:0:0:
168,264,17380,2,0,P|100:288|20:260,2,140,2|2|2,0:3|0:3|0:3,0:3:0:0:
96,160,19217,1,2,0:3:0:0:
24,56,19829,6,0,P|92:32|172:60,1,140,2|2,0:3|0:3,0:3:0:0:
268,104,21054,2,0,P|334:120|400:97,1,140,2|2,0:3|0:3,0:3:0:0:
452,212,22278,2,0,B|476:288|424:280|460:368,2,140,2|2|2,0:3|0:3|0:3,0:3:0:0:
336,164,24115,1,2,0:3:0:0:
254,260,24727,6,0,B|209:313|209:313|134:324,1,140,2|2,0:3|0:3,0:3:0:0:
13,335,25952,2,0,P|25:267|73:215,1,140,2|2,0:3|0:3,0:3:0:0:
186,163,27176,2,0,B|232:146|232:146|281:158|281:158|332:138,2,140,2|2|2,0:3|0:3|0:3,0:3:0:0:
71,216,29013,1,2,0:3:0:0:
179,283,29625,6,0,B|274:318|274:318|386:309,2,210,2|2|2,0:3|0:0|0:3,0:3:0:0:
189,158,32074,2,0,B|296:148|296:148|392:184,2,210,2|2|2,0:3|0:0|0:3,0:3:0:0:
91,239,34523,6,0,P|61:173|118:51,2,210,2|2|2,0:3|0:0|0:3,0:3:0:0:
194,310,36972,2,0,B|335:365|325:254|470:305,1,280,2|2,0:0|0:0,0:0:0:0:
455,179,38809,1,2,0:0:0:0:
368,90,39421,6,0,B|298:76|298:76|228:102,1,140,6|8,0:3|0:3,0:0:0:0:
160,204,40646,2,0,B|229:217|229:217|293:193,1,140,2|8,0:3|0:3,0:3:0:0:
421,201,41870,2,0,P|447:270|428:336,2,140,2|8|2,0:3|0:3|0:3,0:3:0:0:
319,275,43707,1,8,0:3:0:0:
198,310,44319,6,0,B|146:314|146:314|112:301|112:301|57:306,1,140,2|8,0:3|0:3,0:3:0:0:
90,182,45544,2,0,B|141:177|141:177|175:190|175:190|230:185,1,140,2|8,0:3|0:3,0:3:0:0:
338,124,46768,2,0,P|356:194|329:261,2,140,2|8|2,0:3|0:3|0:3,0:3:0:0:
261,27,48605,1,8,0:3:0:0:
140,62,49217,6,0,L|-2:98,1,140,2|8,0:3|0:3,0:3:0:0:
87,191,50442,2,0,P|125:259|123:332,1,140,2|8,0:3|0:3,0:3:0:0:
249,289,51666,2,0,L|390:252,1,140,2|8,0:3|0:3,0:3:0:0:
301,160,52891,2,0,P|262:91|264:18,1,140,2|8,0:3|0:3,0:3:0:0:
383,59,54115,5,2,0:3:0:0:
256,192,54421,12,4,56564,0:1:0:0:
444,160,63911,6,0,B|457:230|457:230|434:309,1,140,6|2,0:3|0:3,0:3:0:0:
320,251,65135,2,0,B|253:227|177:252,1,140,2|2,0:3|0:3,0:3:0:0:
80,324,66360,2,0,P|57:258|72:190,2,140,2|2|2,0:3|0:3|0:3,0:3:0:0:
182,250,68197,1,2,0:3:0:0:
307,245,68809,6,0,B|376:238|376:238|424:186,1,140,2|2,0:3|0:3,0:3:0:0:
335,96,70033,2,0,B|266:105|266:105|187:90,1,140,2|2,0:3|0:3,0:3:0:0:
83,36,71258,2,0,B|55:88|79:144|79:144|55:204|71:232|71:272|163:344|163:224|271:280,1,420,2|0,0:0|0:3,0:3:0:0:
375,348,73707,6,0,P|395:296|371:204,1,140,2|2,0:3|0:3,0:3:0:0:
291,124,74931,2,0,L|143:116,1,140,2|2,0:3|0:3,0:3:0:0:
236,23,76156,2,0,L|376:30,2,140,2|2|2,0:3|0:3|0:3,0:3:0:0:
148,114,77993,1,2,0:3:0:0:
111,234,78605,6,0,B|91:302|91:302|111:378,1,140,2|2,0:3|0:3,0:3:0:0:
231,338,79829,2,0,B|300:321|300:321|356:266,1,140,2|2,0:3|0:3,0:3:0:0:
263,182,81054,2,0,B|215:130|215:130|139:110,2,140,2|2|2,0:3|0:3|0:3,0:3:0:0:
349,272,82891,1,2,0:3:0:0:
231,314,83503,6,0,B|161:327|161:327|99:302|99:302|14:315,2,210,2|2|2,0:3|0:0|0:3,0:3:0:0:
292,202,85952,2,0,B|363:191|363:191|425:216|425:216|494:202,2,210,2|2|2,0:3|0:0|0:3,0:3:0:0:
169,236,88401,6,0,P|176:148|275:76,2,210,2|2|2,0:3|0:0|0:3,0:3:0:0:
271,313,90850,2,0,P|337:336|414:318,2,140,2|2|2,0:3|0:3|0:3,0:3:0:0:
346,211,92686,1,2,0:0:0:0:
268,112,93299,6,0,B|216:99|216:99|184:152|117:138,1,140,6|8,0:3|0:3,0:3:0:0:
38,76,94523,2,0,P|19:150|42:212,1,140,2|8,0:3|0:3,0:3:0:0:
147,273,95748,2,0,P|165:198|142:136,2,140,2|8|2,0:3|0:3|0:3,0:3:0:0:
40,206,97584,1,8,0:3:0:0:
145,140,98197,6,0,B|196:144|196:144|227:163|227:163|287:168,1,140,2|8,0:3|0:3,0:3:0:0:
396,219,99421,2,0,B|409:288|409:288|383:358,1,140,2|8,0:3|0:3,0:3:0:0:
269,301,100646,2,0,B|255:231|255:231|281:161,2,140,2|8|2,0:3|0:3|0:3,0:3:0:0:
384,354,102482,1,8,0:3:0:0:
450,247,103095,6,0,P|474:171|451:98,1,140,2|8,0:3|0:3,0:3:0:0:
340,77,104319,2,0,B|271:54|275:105|175:60,1,140,2|8,0:3|0:3,0:3:0:0:
119,165,105544,2,0,B|105:235|105:235|124:303,1,140,2|8,0:3|0:3,0:3:0:0:
246,327,106768,2,0,B|260:257|260:257|241:189,1,140,2|8,0:3|0:3,0:3:0:0:
202,71,107993,5,2,0:3:0:0:
256,192,108299,12,4,110442,0:1:0:0:
144,248,122686,6,0,B|192:248|192:248|240:284|300:268,1,140,2|8,0:3|0:3,0:3:0:0:
264,148,123911,2,0,B|236:80|284:76|252:4,1,140,2|8,0:3|0:3,0:3:0:0:
136,47,125135,2,0,B|108:67|68:63|68:63|64:111|32:143,2,140,2|8|2,0:3|0:3|0:3,0:3:0:0:
255,11,126972,1,8,0:3:0:0:
376,47,127584,6,0,B|404:67|444:63|444:63|448:111|480:143,1,140,2|8,0:3|0:3,0:3:0:0:
372,211,128809,2,0,P|352:275|376:347,1,140,2|8,0:3|0:3,0:3:0:0:
480,279,130033,1,8,0:3:0:0:
499,154,130646,1,8,0:3:0:0:
387,96,131258,1,8,0:3:0:0:
297,185,131870,1,8,0:3:0:0:
188,248,132482,6,0,P|120:260|54:233,1,140,6|8,0:3|0:3,0:0:0:0:
132,132,133707,2,0,P|120:64|147:-2,1,140,2|8,0:3|0:3,0:3:0:0:
244,77,134931,2,0,P|312:65|378:92,2,140,2|8|2,0:3|0:3|0:3,0:3:0:0:
299,190,136768,1,8,0:3:0:0:
252,307,137380,6,0,B|183:318|183:318|98:296,1,140,2|8,0:3|0:3,0:3:0:0:
162,183,138605,2,0,B|231:172|231:172|316:194,1,140,2|8,0:3|0:3,0:3:0:0:
399,266,139829,2,0,P|416:233|406:128,2,140,2|8|2,0:3|0:3|0:3,0:3:0:0:
287,324,141666,1,8,0:3:0:0:
187,246,142278,6,0,P|173:178|198:113,1,140,2|8,0:3|0:3,0:3:0:0:
299,39,143503,2,0,B|350:34|350:34|388:47|388:47|447:42,1,140,2|8,0:3|0:3,0:3:0:0:
466,165,144727,2,0,B|481:233|481:233|462:300,1,140,2|8,0:3|0:3,0:3:0:0:
343,257,145952,2,0,B|273:243|277:290|191:266,1,140,2|8,0:3|0:3,0:3:0:0:
91,218,147176,5,2,0:0:0:0:
25,110,147789,1,2,0:0:0:0:
132,44,148401,2,0,B|201:29|201:29|270:40,1,140,2|2,0:0|0:0,0:0:0:0:
278,165,149625,2,0,B|208:179|208:179|139:168,2,140,2|0|0,0:0|0:0|0:0,0:0:0:0:
401,140,151462,1,2,0:3:0:0:
484,234,152074,6,0,P|438:262|345:254,1,140,6|8,0:3|0:3,0:3:0:0:
268,165,153299,2,0,P|313:136|406:144,1,140,2|8,0:3|0:3,0:3:0:0:
484,234,154523,2,0,B|492:285|492:285|481:318|481:318|489:369,2,140,2|8|2,0:3|0:3|0:3,0:3:0:0:
455,111,156360,1,8,0:3:0:0:
337,66,156972,6,8,B|268:48|268:48|183:69,1,140,2|8,0:3|0:3,0:3:0:0:
131,170,158197,2,0,B|198:185|198:185|266:169,1,140,2|8,0:3|0:3,0:3:0:0:
376,231,159421,2,0,P|396:297|375:366,2,140,2|8|2,0:3|0:3|0:3,0:3:0:0:
269,299,161258,1,8,0:3:0:0:
162,365,161870,6,0,P|142:299|162:229,1,140,2|8,0:3|0:3,0:3:0:0:
238,133,163095,2,0,L|391:127,1,140,2|8,0:3|0:3,0:3:0:0:
306,23,164319,2,0,L|166:28,1,140,2|8,0:3|0:3,0:3:0:0:
100,135,165544,1,2,0:3:0:0:
105,260,166156,1,8,0:3:0:0:
194,348,166768,5,2,0:0:0:0:
256,192,167074,12,4,169217,0:1:0:0:
