osu file format v14

[General]
AudioFilename: audio.mp3
AudioLeadIn: 0
PreviewTime: 53650
Countdown: 0
SampleSet: Soft
StackLeniency: 0.3
Mode: 0
LetterboxInBreaks: 0
WidescreenStoryboard: 0

[Editor]
Bookmarks: 9761,13650,47539,49206,54206,54761,55317,55873,56150,69761,71428,109761,111428,115873,160873,169761,178650,180317,182539,184761,189206,193650,195873
DistanceSpacing: 1.1
BeatDivisor: 6
GridSize: 4
TimelineZoom: 2.799999

[Metadata]
Title:My First and Last
TitleUnicode:마지막 첫사랑
Artist:NCT DREAM
ArtistUnicode:엔시티 드림
Creator:FunnyA
Version:You.. You.. You!
Source:
Tags:The First Single 마크 리 이민형 黄仁俊 런쥔 이제노 이동혁 해찬 나재민 钟辰乐 천러 박지성 Mark Lee Min Hyung Huang Ren Jun Moomin Lee Je No JeNo-Jam Lee Dong Hyuk Haechan Dongsookie Na Jae Min Zhong Chen Le Park Ji Sung SM Entertaintment K-pop Kpop 2017 ulfanirahmi
BeatmapID:1527847
BeatmapSetID:620345

[Difficulty]
HPDrainRate:5
CircleSize:4
OverallDifficulty:6
ApproachRate:7
SliderMultiplier:1.9
SliderTickRate:2

[Events]
//Background and Video events
Video,3,"NCT DREAM - My First and Last.avi"
0,0,"My First and Last.jpg",0,0
//Break Periods
//Storyboard Layer 0 (Background)
//Storyboard Layer 1 (Fail)
//Storyboard Layer 2 (Pass)
//Storyboard Layer 3 (Foreground)
//Storyboard Sound Samples

[TimingPoints]
873,555.555555555556,4,2,2,70,1,8
9669,-100,4,2,4,70,0,8
9900,-100,4,2,2,70,0,8
13650,-76.9230769230769,4,2,2,70,0,8
14206,-100,4,2,2,70,0,8
18650,-90.9090909090909,4,2,4,70,0,8
18928,-90.9090909090909,4,2,2,70,0,8
36428,-90.9090909090909,4,2,3,70,0,8
36567,-90.9090909090909,4,2,2,70,0,8
47539,-111.111111111111,4,2,2,70,0,8
49206,-76.9230769230769,4,2,2,70,0,8
49761,-90.9090909090909,4,2,2,70,0,8
53373,-90.9090909090909,4,2,1,70,0,8
53650,-76.9230769230769,4,2,1,70,0,8
54206,-80,4,2,3,80,0,9
54484,-80,4,2,2,80,0,9
71428,-76.9230769230769,4,2,2,80,0,9
71984,-100,4,2,1,70,0,8
78650,-90.9090909090909,4,2,2,70,0,8
80734,-90.9090909090909,4,2,4,70,0,8
81011,-90.9090909090909,4,2,2,70,0,8
98650,-90.9090909090909,4,2,3,70,0,8
98928,-90.9090909090909,4,2,2,70,0,8
109761,-111.111111111111,4,2,2,70,0,8
111428,-76.9230769230769,4,2,2,70,0,8
111984,-90.9090909090909,4,2,2,70,0,8
115595,-90.9090909090909,4,2,1,70,0,8
115873,-76.9230769230769,4,2,1,70,0,8
116428,-80,4,2,3,80,0,9
116567,-80,4,2,2,80,0,9
134206,-90.9090909090909,4,2,4,70,0,8
134345,-90.9090909090909,4,2,2,70,0,8
142261,-90.9090909090909,4,2,1,70,0,8
143095,-90.9090909090909,4,2,3,70,0,8
143234,-90.9090909090909,4,2,2,70,0,8
160317,-76.9230769230769,4,2,4,70,0,8
160873,-125,4,2,3,70,0,8
161428,-125,4,2,2,70,0,8
168373,-100,4,2,2,70,0,8
169206,-83.3333333333333,4,2,2,70,0,8
169761,-80,4,2,3,80,0,9
169900,-80,4,2,2,80,0,9
177817,-80,4,2,1,80,0,9
178650,-90.9090909090909,4,2,3,70,0,8
178789,-90.9090909090909,4,2,2,80,0,8
195317,-90.9090909090909,4,2,1,80,0,8
195873,-76.9230769230769,4,2,2,80,0,8
196428,-100,4,2,1,40,0,8

[Colours]
Combo1 : 255,128,192
Combo2 : 243,7,67
Combo3 : 255,255,53
Combo4 : 10,245,124
Combo5 : 38,253,250
Combo6 : 205,5,248
SliderBorder : 38,253,250
SliderTrackOverride : 9,22,26

[HitObjects]
332,84,873,6,0,P|380:68|436:80,1,95,4|0,0:3|0:3,0:3:0:0:
480,172,1428,2,0,P|432:188|376:176,1,95,8|0,0:3|0:3,0:3:0:0:
292,240,1984,2,0,P|286:286|301:331,1,95,4|0,0:3|0:3,0:3:0:0:
398,273,2539,2,0,P|403:226|388:181,1,95,2|0,0:3|0:3,0:3:0:0:
288,124,3095,6,0,L|184:120,1,95,4|0,0:3|0:3,0:3:0:0:
256,216,3650,2,0,L|152:212,1,95,8|0,0:3|0:3,0:3:0:0:
48,192,4206,2,0,P|44:224|60:264,1,63.3333333333333,4|0,0:3|0:3,0:3:0:0:
68,288,4484,1,0,0:3:0:0:
168,344,4761,2,0,B|200:356|232:344|232:344|268:356,1,95,2|0,0:3|0:3,0:3:0:0:
232,244,5317,70,0,B|224:196|224:196|236:148,1,95,4|0,0:3|0:3,0:3:0:0:
192,44,5873,2,0,B|240:36|240:36|288:48,1,95,8|0,0:3|0:3,0:3:0:0:
392,4,6428,2,0,B|400:52|400:52|388:100,1,95,4|0,0:3|0:3,0:3:0:0:
432,204,6984,2,0,B|384:212|384:212|336:200,1,95,2|0,0:3|0:3,0:3:0:0:
236,152,7539,6,0,P|225:201|242:255,1,95,4|0,0:3|0:3,0:3:0:0:
280,348,8095,2,0,P|230:337|176:354,1,95,8|0,0:3|0:3,0:3:0:0:
76,356,8650,2,0,P|92:320|84:272,1,63.3333333333333,4|0,0:3|0:3,0:3:0:0:
88,260,8928,1,0,0:3:0:0:
28,164,9206,2,0,P|77:174|131:157,1,95,2|0,0:3|0:3,0:3:0:0:
228,72,9761,70,0,B|344:72|344:72|280:116,1,190,10|8,0:0|0:3,0:3:0:0:
200,192,10595,2,0,P|194:227|200:260,1,63.3333333333333,0|0,0:3|0:3,0:3:0:0:
211,284,10873,1,4,0:3:0:0:
308,224,11150,1,0,0:3:0:0:
400,288,11428,2,0,B|444:308|444:308|500:304,1,95,2|0,0:3|0:3,0:3:0:0:
464,192,11984,37,0,0:0:0:0:
308,28,12539,2,0,P|272:20|236:24,1,63.3333333333333,2|0,0:0|0:0,0:0:0:0:
208,32,12817,1,2,0:0:0:0:
260,132,13095,1,0,0:0:0:0:
260,132,13373,1,0,0:0:0:0:
372,280,13650,2,0,B|376:368|376:368|328:340,1,123.499994346619,2|0,0:3|0:3,0:3:0:0:
236,320,14206,38,0,B|188:308|188:308|140:320,1,95,4|0,0:3|0:3,0:3:0:0:
172,208,14761,2,0,P|180:162|167:117,1,95,8|0,0:3|0:3,0:3:0:0:
64,168,15317,2,0,P|55:214|68:259,1,95,4|0,0:3|0:3,0:3:0:0:
172,208,15873,2,0,L|235:202,1,63.3333333333333,2|0,0:3|0:3,0:3:0:0:
268,199,16150,1,0,0:3:0:0:
360,132,16428,53,0,0:0:0:0:
376,244,16706,1,2,0:0:0:0:
284,312,16984,2,0,L|220:318,1,63.3333333333333,0|0,0:0|0:0,0:0:0:0:
188,320,17261,1,2,0:0:0:0:
136,220,17539,5,0,0:0:0:0:
27,184,17817,1,2,0:1:0:0:
27,70,18095,1,0,0:0:0:0:
136,35,18373,1,2,0:1:0:0:
203,127,18650,6,0,P|253:138|302:122,1,104.500003189087,6|0,0:0|0:3,0:3:0:0:
348,16,19206,2,0,P|297:4|248:20,1,104.500003189087,8|0,0:3|0:3,0:3:0:0:
203,127,19761,2,0,L|191:231,1,104.500003189087,4|0,0:3|0:3,0:3:0:0:
280,303,20317,2,0,L|292:208,1,69.6666687927247,2|0,0:3|0:3,0:3:0:0:
295,196,20595,1,0,0:3:0:0:
404,228,20873,6,0,P|451:250|502:248,1,104.500003189087,4|0,0:3|0:3,0:3:0:0:
473,139,21428,2,0,P|425:116|374:118,1,104.500003189087,8|0,0:3|0:3,0:3:0:0:
295,196,21984,2,0,L|283:300,1,104.500003189087,4|0,0:3|0:3,0:3:0:0:
191,230,22539,2,0,L|203:135,1,69.6666687927247,2|0,0:3|0:3,0:3:0:0:
206,123,22817,1,0,0:3:0:0:
92,144,23095,70,0,B|40:156|40:156|-8:140,1,104.500003189087,4|0,0:3|0:3,0:3:0:0:
28,32,23650,2,0,B|80:20|80:20|128:36,1,104.500003189087,8|0,0:3|0:3,0:3:0:0:
206,123,24206,2,0,B|254:139|254:139|306:127,1,104.500003189087,4|0,0:3|0:3,0:3:0:0:
344,236,24761,2,0,P|352:280|340:312,1,69.6666687927247,2|0,0:3|0:3,0:3:0:0:
328,336,25039,1,0,0:3:0:0:
232,272,25317,6,0,P|189:256|150:197,1,104.500003189087,4|0,0:3|0:3,0:3:0:0:
260,160,25873,2,0,P|294:131|365:126,1,104.500003189087,8|0,0:3|0:3,0:3:0:0:
344,236,26428,2,0,P|352:280|320:344,1,104.500003189087,4|0,0:3|0:3,0:3:0:0:
216,372,26984,2,0,P|208:328|220:296,1,69.6666687927247,2|0,0:3|0:3,0:3:0:0:
232,272,27262,1,0,0:3:0:0:
344,236,27539,70,0,B|388:239|388:239|406:251|406:251|462:256,1,104.500003189087,4|0,0:3|0:3,0:3:0:0:
508,160,28095,1,8,0:3:0:0:
416,92,28373,2,0,L|404:12,1,69.6666687927247,0|0,0:3|0:3,0:3:0:0:
368,36,28650,2,0,B|316:44|316:44|248:28,1,104.500003189087,4|0,0:3|0:3,0:3:0:0:
152,4,29206,2,0,P|146:44|159:79,1,69.6666687927247,2|0,0:3|0:3,0:3:0:0:
168,108,29484,2,0,P|176:140|170:174,1,69.6666687927247,0|0,0:3|0:3,0:3:0:0:
156,212,29761,6,0,P|207:201|260:216,1,104.500003189087,4|0,0:3|0:3,0:3:0:0:
308,320,30317,2,0,P|272:332|232:328,1,69.6666687927247,8|0,0:3|0:3,0:3:0:0:
204,316,30595,1,0,0:3:0:0:
92,284,30873,2,0,P|60:240|60:188,1,104.500003189087,4|0,0:3|0:3,0:3:0:0:
136,108,31428,2,0,L|184:52,1,69.6666687927247,2|0,0:3|0:3,0:3:0:0:
208,28,31706,1,0,0:3:0:0:
288,112,31984,70,0,L|335:161,1,69.6666687927247,4|0,0:3|0:3,0:3:0:0:
369,143,32261,2,0,L|435:163,1,69.6666687927247,0|0,0:3|0:3,0:3:0:0:
470,146,32539,1,8,0:3:0:0:
496,260,32817,2,0,L|508:328,1,69.6666687927247,0|0,0:3|0:3,0:3:0:0:
472,344,33095,2,0,P|420:356|356:332,1,104.500003189087,4|0,0:3|0:3,0:3:0:0:
300,252,33650,2,0,P|250:238|199:250,1,104.500003189087,2|0,0:3|0:3,0:3:0:0:
248,356,34206,53,4,0:3:0:0:
340,188,34669,1,4,0:3:0:0:
356,156,34761,1,4,0:3:0:0:
168,120,35224,1,4,0:3:0:0:
132,122,35316,1,4,0:3:0:0:
196,304,35780,1,4,0:3:0:0:
215,334,35872,1,4,0:3:0:0:
340,188,36335,1,4,0:3:0:0:
356,156,36428,22,0,P|408:168|460:152,1,104.500003189087,4|0,0:3|0:3,0:3:0:0:
404,52,36984,1,8,0:3:0:0:
292,32,37261,2,0,B|255:25|255:25|208:40,1,69.6666687927247,0|0,0:3|0:3,0:3:0:0:
188,52,37539,2,0,B|136:68|136:68|84:57,1,104.500003189087,4|0,0:3|0:3,0:3:0:0:
28,156,38095,2,0,P|20:192|44:240,1,69.6666687927247,2|0,0:3|0:3,0:3:0:0:
52,252,38373,2,0,P|61:285|53:318,1,69.6666687927247,0|0,0:3|0:3,0:3:0:0:
92,316,38650,6,0,B|132:312|132:312|156:320|156:320|212:316,1,104.500003189087,4|0,0:3|0:3,0:3:0:0:
300,268,39206,2,0,P|314:299|312:333,1,69.6666687927247,8|0,0:3|0:3,0:3:0:0:
302,372,39484,1,0,0:3:0:0:
194,317,39761,2,0,P|175:272|194:205,1,104.500003189087,4|0,0:3|0:3,0:3:0:0:
280,152,40317,2,0,P|316:148|348:160,1,69.6666687927247,2|0,0:3|0:3,0:3:0:0:
380,140,40595,2,0,P|376:104|388:72,1,69.6666687927247,0|0,0:3|0:3,0:3:0:0:
412,44,40873,70,0,L|298:33,1,104.500003189087,4|0,0:3|0:3,0:3:0:0:
196,64,41428,1,8,0:3:0:0:
84,96,41706,2,0,P|92:136|80:168,1,69.6666687927247,0|0,0:3|0:3,0:3:0:0:
64,196,41984,2,0,P|52:244|77:312,1,104.500003189087,4|0,0:3|0:3,0:3:0:0:
168,244,42539,2,0,L|252:232,1,69.6666687927247,2|0,0:3|0:3,0:3:0:0:
268,256,42817,2,0,L|352:244,1,69.6666687927247,0|0,0:3|0:3,0:3:0:0:
368,268,43095,6,0,L|404:164,1,104.500003189087,4|0,0:3|0:3,0:3:0:0:
296,128,43650,2,0,L|260:24,1,104.500003189087,8|0,0:3|0:3,0:3:0:0:
152,68,44206,2,0,B|100:80|100:80|24:60,1,104.500003189087,4|0,0:3|0:3,0:3:0:0:
76,180,44761,2,0,P|79:216|62:259,1,69.6666687927247,2|0,0:3|0:3,0:3:0:0:
108,244,45039,2,0,P|144:243|186:264,1,69.6666687927247,0|0,0:3|0:3,0:3:0:0:
208,276,45317,70,0,P|256:293|310:285,1,104.500003189087,4|0,0:3|0:3,0:3:0:0:
404,220,45873,1,8,0:3:0:0:
324,136,46150,2,0,P|316:100|328:52,1,69.6666687927247,0|0,0:3|0:3,0:3:0:0:
300,36,46428,2,0,P|252:46|187:33,1,104.500003189087,4|0,0:3|0:3,0:3:0:0:
228,148,46984,2,0,P|235:181|231:216,1,69.6666687927247,2|0,0:3|0:3,0:3:0:0:
212,248,47261,2,0,P|207:282|215:316,1,69.6666687927247,0|0,0:3|0:3,0:3:0:0:
236,348,47539,37,0,0:0:0:0:
320,276,47817,1,2,0:0:0:0:
404,204,48095,2,0,L|452:163,1,56.9999982604981,2|0,0:0|0:0,0:0:0:0:
440,132,48373,2,0,L|461:72,1,56.9999982604981,0|0,0:0|0:0,0:0:0:0:
448,44,48650,1,0,0:0:0:0:
340,68,48928,2,0,P|304:73|271:62,1,56.9999982604981,2|0,0:0|0:0,0:0:0:0:
248,56,49206,2,0,B|177:65|177:65|142:46|142:46|42:60,1,185.249991519928,2|0,0:3|0:3,0:3:0:0:
69,57,49761,38,0,B|80:108|80:108|65:165,1,104.500003189087,4|0,0:3|0:3,0:3:0:0:
32,268,50317,1,8,0:3:0:0:
140,228,50595,2,0,P|176:220|220:236,1,69.6666687927247,0|0,0:3|0:3,0:3:0:0:
240,248,50873,2,0,L|248:132,1,104.500003189087,4|0,0:3|0:3,0:3:0:0:
220,32,51428,2,0,P|260:28|287:37,1,69.6666687927247,2|0,0:3|0:3,0:3:0:0:
320,52,51706,2,0,P|353:61|387:57,1,69.6666687927247,0|0,0:3|0:3,0:3:0:0:
420,72,51984,54,0,P|410:105|414:139,1,69.6666687927247,4|4,0:3|0:3,0:3:0:0:
472,240,52447,1,4,0:3:0:0:
492,272,52539,2,0,P|500:311|480:353,1,69.6666687927247,4|4,0:3|0:3,0:3:0:0:
460,360,52817,2,0,L|380:365,1,69.6666687927247,4|4,0:3|0:3,0:3:0:0:
380,328,53095,2,0,L|303:305,1,69.6666687927247,4|4,0:3|0:3,0:3:0:0:
304,272,53373,2,0,L|240:224,1,69.6666687927247,8|4,0:3|0:3,0:3:0:0:
240,196,53650,2,0,P|191:151|69:208,1,205.833323911032,4|0,0:3|0:3,0:3:0:0:
68,232,54206,38,0,B|64:316|64:316|92:288,1,118.75,4|0,0:3|0:3,0:3:0:0:
160,128,54761,2,0,B|164:44|164:44|136:72,1,118.75,8|0,0:3|0:3,0:3:0:0:
156,216,55317,2,0,P|216:195|245:133,1,118.75,4|0,0:3|0:3,0:3:0:0:
376,32,55873,2,0,P|320:32|280:60,1,79.1666666666667,2|0,0:3|0:3,0:3:0:0:
268,68,56150,1,0,0:3:0:0:
360,184,56428,6,0,B|377:227|377:227|374:255|374:255|396:302,1,118.75,4|0,0:3|0:3,0:3:0:0:
215,281,56984,2,0,B|196:240|196:240|199:212|199:212|182:169,1,118.75,8|0,0:3|0:3,0:3:0:0:
296,266,57539,2,0,P|286:326|227:360,1,118.75,4|0,0:3|0:3,0:3:0:0:
103,260,58095,2,0,P|142:254|195:276,1,79.1666666666667,2|0,0:3|0:3,0:3:0:0:
219,284,58373,1,0,0:3:0:0:
82,342,58650,70,0,P|32:303|22:244,1,118.75,4|0,0:3|0:3,0:3:0:0:
101,89,59206,2,0,B|160:62|161:106|228:76,1,118.75,8|0,0:3|0:3,0:3:0:0:
297,206,59761,2,0,B|314:245|314:245|301:337,1,118.75,4|0,0:3|0:3,0:3:0:0:
248,152,60317,2,0,P|287:134|323:137,1,79.1666666666667,2|0,0:3|0:3,0:3:0:0:
360,168,60595,1,0,0:3:0:0:
460,281,60873,6,0,B|477:237|477:237|462:148,1,118.75,4|0,0:3|0:3,0:3:0:0:
361,23,61428,2,0,B|342:65|342:65|357:154,1,118.75,8|0,0:3|0:3,0:3:0:0:
380,283,61984,1,4,0:3:0:0:
238,328,62261,2,0,P|199:337|160:328,1,79.1666666666667,0|0,0:3|0:3,0:3:0:0:
121,313,62539,2,0,P|82:304|43:313,1,79.1666666666667,2|0,0:3|0:3,0:3:0:0:
59,271,62817,2,0,P|66:232|57:194,1,79.1666666666667,0|0,0:3|0:3,0:3:0:0:
96,177,63095,70,0,B|139:163|139:163|171:166|171:166|223:148,1,118.75,4|0,0:3|0:3,0:3:0:0:
377,219,63650,2,0,B|337:232|337:232|305:229|305:229|261:243,1,118.75,8|0,0:3|0:3,0:3:0:0:
375,143,64206,2,0,P|418:152|455:217,1,118.75,4|0,0:3|0:3,0:3:0:0:
313,317,64761,2,0,B|273:330|273:330|225:328,1,79.1666666666667,2|0,0:3|0:3,0:3:0:0:
194,326,65039,1,0,0:3:0:0:
63,254,65317,6,0,L|36:174,1,79.1666666666667,4|0,0:3|0:3,0:3:0:0:
71,154,65595,2,0,L|87:71,1,79.1666666666667,0|0,0:3|0:3,0:3:0:0:
129,84,65873,2,0,P|169:86|216:64,1,79.1666666666667,8|0,0:3|0:3,0:3:0:0:
240,48,66150,2,0,P|276:33|315:36,1,79.1666666666667,0|0,0:3|0:3,0:3:0:0:
355,52,66428,2,0,B|368:87|368:87|361:131,1,79.1666666666667,4|0,0:3|0:3,0:3:0:0:
328,152,66706,2,0,B|321:192|321:192|334:227,1,79.1666666666667,0|0,0:3|0:3,0:3:0:0:
307,262,66984,2,0,L|223:284,1,79.1666666666667,2|0,0:3|0:3,0:3:0:0:
197,310,67261,2,0,L|113:332,1,79.1666666666667,0|0,0:3|0:3,0:3:0:0:
86,361,67539,70,0,P|100:312|73:241,1,118.75,4|0,0:3|0:3,0:3:0:0:
13,84,68095,2,0,P|-1:132|25:203,1,118.75,8|0,0:3|0:3,0:3:0:0:
155,135,68650,2,0,B|199:137|199:137|265:191,1,118.75,4|0,0:3|0:3,0:3:0:0:
310,354,69206,2,0,B|269:351|269:351|224:320,1,79.1666666666667,2|0,0:3|0:3,0:3:0:0:
204,301,69484,1,0,0:3:0:0:
155,135,69761,37,4,0:3:0:0:
402,98,70224,1,4,0:3:0:0:
444,93,70317,1,4,0:3:0:0:
454,340,70780,1,4,0:3:0:0:
457,382,70873,1,4,0:3:0:0:
211,369,71335,1,4,0:3:0:0:
174,370,71428,2,0,P|88:308|181:216,1,246.999988693238,4|4,0:3|0:0,0:0:0:0:
32,352,73650,21,8,0:0:0:0:
480,192,75873,53,8,0:0:0:0:
32,32,78095,5,8,0:0:0:0:
216,168,78650,69,4,0:3:0:0:
368,284,79113,1,4,0:3:0:0:
400,308,79206,1,4,0:3:0:0:
212,340,79669,1,4,0:3:0:0:
175,355,79762,1,4,0:3:0:0:
216,168,80224,1,4,0:3:0:0:
212,128,80317,2,0,B|261:147|261:147|321:143,1,104.500003189087,4|4,0:3|0:3,0:0:0:0:
376,48,80873,22,0,B|327:29|327:29|267:33,1,104.500003189087,6|0,0:0|0:0,0:0:0:0:
160,48,81428,1,8,0:3:0:0:
84,136,81706,2,0,P|52:148|12:148,1,69.6666687927247,0|0,0:3|0:3,0:3:0:0:
36,180,81984,2,0,P|52:236|36:288,1,104.500003189087,4|0,0:3|0:3,0:3:0:0:
140,336,82539,2,0,P|184:356|228:356,1,69.6666687927247,2|0,0:3|0:3,0:3:0:0:
244,356,82817,1,0,0:3:0:0:
208,248,83095,6,0,P|266:244|318:276,1,104.500003189087,4|0,0:3|0:3,0:3:0:0:
288,152,83650,2,0,P|281:117|288:83,1,69.6666687927247,8|0,0:3|0:3,0:3:0:0:
304,48,83928,1,0,0:3:0:0:
396,116,84206,2,0,P|399:167|382:216,1,104.500003189087,4|0,0:3|0:3,0:3:0:0:
280,268,84761,2,0,B|244:276|244:276|204:304,1,69.6666687927247,2|0,0:3|0:3,0:3:0:0:
192,316,85039,1,0,0:3:0:0:
88,368,85317,70,0,P|76:328|92:260,1,104.500003189087,4|0,0:3|0:3,0:3:0:0:
128,160,85873,1,8,0:3:0:0:
212,80,86150,2,0,P|252:88|288:80,1,69.6666687927247,0|0,0:3|0:3,0:3:0:0:
316,76,86428,2,0,B|332:108|332:108|316:144|336:192,1,104.500003189087,4|0,0:3|0:3,0:3:0:0:
444,152,86984,2,0,P|444:196|432:232,1,69.6666687927247,2|0,0:3|0:3,0:3:0:0:
420,248,87261,1,0,0:3:0:0:
308,276,87539,6,0,B|272:268|272:268|248:276|248:276|200:264,1,104.500003189087,4|0,0:3|0:3,0:3:0:0:
100,224,88095,2,0,L|24:192,1,69.6666687927247,8|0,0:3|0:3,0:3:0:0:
24,160,88373,1,0,0:3:0:0:
112,88,88650,2,0,B|173:114|173:114|190:148,1,104.500003189087,4|0,0:3|0:3,0:3:0:0:
206,265,89206,2,0,L|216:344,1,69.6666687927247,2|0,0:3|0:3,0:3:0:0:
248,356,89484,1,0,0:3:0:0:
356,312,89761,70,0,B|404:292|404:292|468:296,1,104.500003189087,4|0,0:3|0:3,0:3:0:0:
392,200,90317,1,8,0:3:0:0:
344,96,90595,2,0,P|336:56|348:20,1,69.6666687927247,0|0,0:3|0:3,0:3:0:0:
304,36,90873,2,0,P|240:44|192:32,1,104.500003189087,4|0,0:3|0:3,0:3:0:0:
124,120,91428,2,0,L|108:196,1,69.6666687927247,2|0,0:3|0:3,0:3:0:0:
76,204,91706,2,0,L|60:280,1,69.6666687927247,0|0,0:3|0:3,0:3:0:0:
96,288,91984,6,0,P|144:300|200:284,1,104.500003189087,4|0,0:3|0:3,0:3:0:0:
304,244,92539,2,0,P|352:240|380:248,1,69.6666687927247,8|0,0:3|0:3,0:3:0:0:
408,256,92817,2,0,L|428:188,1,69.6666687927247,0|0,0:3|0:3,0:3:0:0:
412,156,93095,2,0,B|400:116|400:116|412:44,1,104.500003189087,4|0,0:3|0:3,0:3:0:0:
300,20,93650,2,0,P|264:12|208:24,1,69.6666687927247,2|0,0:3|0:3,0:3:0:0:
196,28,93928,1,0,0:3:0:0:
256,128,94206,70,0,P|264:172|252:204,1,69.6666687927247,4|0,0:3|0:3,0:3:0:0:
240,228,94484,2,0,P|233:261|242:295,1,69.6666687927247,0|0,0:3|0:3,0:3:0:0:
260,328,94761,1,8,0:3:0:0:
152,288,95039,2,0,L|64:280,1,69.6666687927247,0|0,0:3|0:3,0:3:0:0:
48,300,95317,2,0,P|60:248|36:184,1,104.500003189087,4|0,0:3|0:3,0:3:0:0:
4,92,95873,2,0,P|48:100|84:92,1,69.6666687927247,2|0,0:3|0:3,0:3:0:0:
108,88,96150,1,0,0:3:0:0:
212,136,96428,53,4,0:3:0:0:
372,240,96891,1,4,0:3:0:0:
404,264,96984,1,4,0:3:0:0:
212,252,97447,1,4,0:3:0:0:
180,228,97540,1,4,0:3:0:0:
4,304,98002,1,4,0:3:0:0:
36,328,98095,1,4,0:3:0:0:
212,252,98558,1,4,0:3:0:0:
244,272,98650,22,0,P|296:284|352:264,1,104.500003189087,4|0,0:3|0:3,0:3:0:0:
380,160,99206,1,8,0:3:0:0:
460,240,99484,2,0,B|472:272|472:272|472:312,1,69.6666687927247,0|0,0:3|0:3,0:3:0:0:
448,336,99761,2,0,B|396:340|396:340|332:376,1,104.500003189087,4|0,0:3|0:3,0:3:0:0:
240,336,100317,2,0,L|156:316,1,69.6666687927247,2|0,0:3|0:3,0:3:0:0:
156,284,100595,2,0,L|72:264,1,69.6666687927247,0|0,0:3|0:3,0:3:0:0:
56,288,100873,6,0,P|72:240|48:172,1,104.500003189087,4|0,0:3|0:3,0:3:0:0:
24,80,101428,2,0,P|68:72|96:80,1,69.6666687927247,8|0,0:3|0:3,0:3:0:0:
124,92,101706,1,0,0:3:0:0:
228,140,101984,2,0,P|276:160|336:152,1,104.500003189087,4|0,0:3|0:3,0:3:0:0:
292,264,102539,2,0,L|268:336,1,69.6666687927247,2|0,0:3|0:3,0:3:0:0:
240,316,102817,2,0,L|165:331,1,69.6666687927247,0|0,0:3|0:3,0:3:0:0:
148,304,103095,70,0,P|132:252|144:200,1,104.500003189087,4|0,0:3|0:3,0:3:0:0:
196,100,103650,1,8,0:3:0:0:
84,124,103928,2,0,P|43:128|8:113,1,69.6666687927247,0|0,0:3|0:3,0:3:0:0:
16,156,104206,2,0,L|20:260,1,104.500003189087,4|0,0:3|0:3,0:3:0:0:
120,320,104761,2,0,P|156:328|192:320,1,69.6666687927247,2|0,0:3|0:3,0:3:0:0:
224,304,105039,2,0,P|258:297|291:305,1,69.6666687927247,0|0,0:3|0:3,0:3:0:0:
328,320,105317,6,0,L|368:200,1,104.500003189087,4|0,0:3|0:3,0:3:0:0:
256,172,105873,2,0,L|216:52,1,104.500003189087,8|0,0:3|0:3,0:3:0:0:
116,112,106428,2,0,B|64:128|64:128|-4:120,1,104.500003189087,4|0,0:3|0:3,0:3:0:0:
36,236,106984,2,0,L|52:320,1,69.6666687927247,2|0,0:3|0:3,0:3:0:0:
84,288,107261,2,0,P|128:280|172:292,1,69.6666687927247,0|0,0:3|0:3,0:3:0:0:
188,296,107539,70,0,P|244:308|300:288,1,104.500003189087,4|0,0:3|0:3,0:3:0:0:
316,184,108095,1,8,0:3:0:0:
236,100,108373,2,0,L|200:40,1,69.6666687927247,0|0,0:3|0:3,0:3:0:0:
180,8,108650,2,0,L|116:112,1,104.500003189087,4|0,0:3|0:3,0:3:0:0:
148,212,109206,2,0,B|152:248|152:248|140:284,1,69.6666687927247,2|0,0:3|0:3,0:3:0:0:
180,272,109484,2,0,B|216:268|216:268|252:280,1,69.6666687927247,0|0,0:3|0:3,0:3:0:0:
280,296,109761,37,0,0:0:0:0:
384,256,110039,1,2,0:0:0:0:
452,168,110317,2,0,P|423:153|374:148,1,56.9999982604981,2|0,0:0|0:0,0:0:0:0:
364,148,110595,2,0,P|335:140|310:127,1,56.9999982604981,0|0,0:0|0:0,0:0:0:0:
284,100,110873,1,0,0:0:0:0:
176,68,111150,2,0,P|183:100|170:131,1,56.9999982604981,2|0,0:0|0:0,0:0:0:0:
156,152,111428,2,0,P|168:248|260:248,1,205.833323911032,2|0,0:3|0:3,0:3:0:0:
296,232,111984,38,0,P|282:285|302:337,1,104.500003189087,4|0,0:3|0:3,0:3:0:0:
408,364,112539,1,8,0:3:0:0:
444,256,112817,2,0,B|452:220|452:220|440:188,1,69.6666687927247,0|0,0:3|0:3,0:3:0:0:
404,184,113095,2,0,B|356:180|356:180|283:137,1,104.500003189087,4|0,0:3|0:3,0:3:0:0:
208,96,113650,2,0,L|137:79,1,69.6666687927247,2|0,0:3|0:3,0:3:0:0:
119,112,113928,2,0,L|49:132,1,69.6666687927247,0|0,0:3|0:3,0:3:0:0:
60,171,114206,54,0,L|10:223,1,69.6666687927247,4|4,0:3|0:3,0:3:0:0:
72,320,114669,1,4,0:3:0:0:
108,332,114761,2,0,P|144:336|176:324,1,69.6666687927247,4|4,0:3|0:3,0:3:0:0:
208,304,115039,2,0,P|240:292|274:296,1,69.6666687927247,4|4,0:3|0:3,0:3:0:0:
312,304,115317,2,0,L|324:212,1,69.6666687927247,4|4,0:3|0:3,0:3:0:0:
356,220,115595,2,0,L|368:128,1,69.6666687927247,8|4,0:3|0:3,0:3:0:0:
400,160,115873,2,0,P|463:164|495:43,1,205.833323911032,4|0,0:3|0:3,0:3:0:0:
468,32,116428,38,0,B|412:12|412:12|341:24,1,118.75,4|0,0:3|0:3,0:3:0:0:
188,88,116984,2,0,B|244:108|244:108|315:96,1,118.75,8|0,0:3|0:3,0:3:0:0:
400,212,117539,2,0,P|406:271|375:325,1,118.75,4|0,0:3|0:3,0:3:0:0:
352,156,118095,2,0,P|392:140|432:148,1,79.1666666666667,2|0,0:3|0:3,0:3:0:0:
460,172,118373,1,0,0:3:0:0:
324,228,118650,6,0,B|244:240|244:240|204:220,1,118.75,4|0,0:3|0:3,0:3:0:0:
72,112,119206,2,0,B|152:100|152:100|192:120,1,118.75,8|0,0:3|0:3,0:3:0:0:
300,212,119761,2,0,B|220:224|220:224|180:204,1,118.75,4|0,0:3|0:3,0:3:0:0:
360,164,120317,2,0,P|376:208|364:256,1,79.1666666666667,2|0,0:3|0:3,0:3:0:0:
348,276,120595,1,0,0:3:0:0:
212,332,120873,70,0,B|154:361|150:321|77:351,1,118.75,4|0,0:3|0:3,0:3:0:0:
160,180,121428,2,0,B|214:156|218:196|276:166,1,118.75,8|0,0:3|0:3,0:3:0:0:
160,256,121984,2,0,P|120:244|88:164,1,118.75,4|0,0:3|0:3,0:3:0:0:
160,16,122539,2,0,P|200:28|228:88,1,79.1666666666667,2|0,0:3|0:3,0:3:0:0:
236,96,122817,1,0,0:3:0:0:
272,240,123095,6,0,B|289:327|289:327|308:295,1,118.75,4|0,0:3|0:3,0:3:0:0:
376,140,123650,2,0,B|360:52|360:52|340:84,1,118.75,8|0,0:3|0:3,0:3:0:0:
260,200,124206,1,4,0:3:0:0:
176,300,124484,2,0,P|136:292|96:304,1,79.1666666666667,0|0,0:3|0:3,0:3:0:0:
112,260,124761,2,0,P|120:220|108:180,1,79.1666666666667,2|0,0:3|0:3,0:3:0:0:
92,144,125039,2,0,P|132:152|172:140,1,79.1666666666667,0|0,0:3|0:3,0:3:0:0:
204,116,125317,70,0,P|256:100|320:120,1,118.75,4|0,0:3|0:3,0:3:0:0:
314,297,125873,2,0,P|274:259|259:194,1,118.75,8|0,0:3|0:3,0:3:0:0:
404,176,126428,2,0,P|443:213|458:278,1,118.75,4|0,0:3|0:3,0:3:0:0:
280,300,126984,2,0,P|245:302|200:308,1,79.1666666666667,2|0,0:3|0:3,0:3:0:0:
160,312,127261,1,0,0:3:0:0:
92,200,127539,6,0,L|76:108,1,79.1666666666667,4|0,0:3|0:3,0:3:0:0:
120,116,127817,2,0,L|152:28,1,79.1666666666667,0|0,0:3|0:3,0:3:0:0:
188,60,128095,2,0,L|280:44,1,79.1666666666667,8|0,0:3|0:3,0:3:0:0:
272,88,128373,2,0,L|359:120,1,79.1666666666667,0|0,0:3|0:3,0:3:0:0:
368,152,128650,2,0,P|380:196|364:236,1,79.1666666666667,4|0,0:3|0:3,0:3:0:0:
344,260,128928,2,0,P|334:297|346:334,1,79.1666666666667,0|0,0:3|0:3,0:3:0:0:
304,324,129206,2,0,B|265:314|265:314|224:320,1,79.1666666666667,2|0,0:3|0:3,0:3:0:0:
184,328,129484,2,0,B|145:334|145:334|106:324,1,79.1666666666667,0|0,0:3|0:3,0:3:0:0:
68,304,129761,70,0,B|56:260|56:260|64:232|64:232|52:172,1,118.75,4|0,0:3|0:3,0:3:0:0:
176,104,130317,2,0,B|184:147|184:147|176:175|176:175|188:219,1,118.75,8|0,0:3|0:3,0:3:0:0:
100,100,130873,2,0,P|116:56|180:28,1,118.75,4|0,0:3|0:3,0:3:0:0:
320,140,131428,2,0,P|304:184|260:208,1,79.1666666666667,2|0,0:3|0:3,0:3:0:0:
236,216,131706,1,0,0:3:0:0:
100,100,131984,37,4,0:3:0:0:
216,316,132447,1,4,0:3:0:0:
240,352,132539,1,4,0:3:0:0:
332,124,133002,1,4,0:3:0:0:
356,88,133094,1,4,0:3:0:0:
456,316,133558,1,4,0:3:0:0:
480,352,133650,1,4,0:3:0:0:
248,356,134206,22,0,P|224:363|176:356,1,69.6666687927247,6|0,0:0|0:3,0:3:0:0:
148,336,134484,2,0,P|115:329|81:338,1,69.6666687927247,0|0,0:3|0:3,0:3:0:0:
52,312,134761,2,0,L|38:192,1,104.500003189087,8|0,0:3|0:3,0:3:0:0:
120,124,135317,2,0,L|107:20,1,104.500003189087,4|0,0:3|0:3,0:3:0:0:
216,60,135873,2,0,B|268:68|268:68|312:100,1,104.500003189087,2|0,0:3|0:3,0:3:0:0:
348,208,136428,70,0,B|379:229|379:229|431:238,1,69.6666687927247,4|0,0:3|0:3,0:3:0:0:
428,200,136706,2,0,B|466:194|466:194|510:162,1,69.6666687927247,0|0,0:3|0:3,0:3:0:0:
508,140,136984,2,0,L|492:28,1,104.500003189087,8|0,0:3|0:3,0:3:0:0:
380,12,137539,1,4,0:3:0:0:
276,60,137817,2,0,P|236:64|204:56,1,69.6666687927247,0|0,0:3|0:3,0:3:0:0:
172,40,138095,2,0,P|132:36|100:44,1,69.6666687927247,2|0,0:3|0:3,0:3:0:0:
68,60,138373,1,0,0:3:0:0:
140,148,138650,5,4,0:3:0:0:
148,264,138928,2,0,B|152:348|152:348,1,69.6666687927247,0|0,0:3|0:3,0:3:0:0:
188,324,139206,2,0,B|252:308|252:308|316:312,1,104.500003189087,8|0,0:3|0:3,0:3:0:0:
400,344,139761,2,0,P|408:308|400:276,1,69.6666687927247,4|0,0:3|0:3,0:3:0:0:
380,244,140039,2,0,P|373:210|381:176,1,69.6666687927247,0|0,0:3|0:3,0:3:0:0:
420,176,140317,2,0,P|468:152|496:96,1,104.500003189087,2|0,0:3|0:3,0:3:0:0:
388,64,140873,54,0,L|316:64,1,69.6666687927247,4|0,0:3|0:3,0:3:0:0:
284,76,141150,1,0,0:3:0:0:
176,112,141428,1,4,0:3:0:0:
96,196,141706,2,0,L|84:271,1,69.6666687927247,0|4,0:3|0:3,0:3:0:0:
108,296,141984,2,0,L|96:371,1,69.6666687927247,4|4,0:3|0:3,0:3:0:0:
136,356,142261,2,0,B|172:348|172:348|234:366,1,69.6666687927247,8|4,0:3|0:3,0:3:0:0:
241,369,142539,1,4,0:3:0:0:
448,264,143095,6,0,P|456:224|440:180,1,69.6666687927247,4|0,0:3|0:3,0:3:0:0:
432,160,143373,1,0,0:3:0:0:
332,104,143650,2,0,L|252:88,1,69.6666687927247,8|0,0:3|0:3,0:3:0:0:
228,104,143928,2,0,L|148:88,1,69.6666687927247,0|0,0:3|0:3,0:3:0:0:
124,104,144206,2,0,P|140:156|116:216,1,104.500003189087,4|0,0:3|0:3,0:3:0:0:
16,172,144761,2,0,P|9:211|30:257,1,69.6666687927247,2|0,0:3|0:3,0:3:0:0:
36,272,145039,2,0,P|44:305|37:339,1,69.6666687927247,0|0,0:3|0:3,0:3:0:0:
52,376,145317,70,0,L|168:352,1,104.500003189087,4|0,0:3|0:3,0:3:0:0:
240,276,145873,2,0,L|172:262,1,69.6666687927247,8|0,0:3|0:3,0:3:0:0:
138,254,146150,1,0,0:3:0:0:
56,172,146428,2,0,L|124:158,1,69.6666687927247,4|0,0:3|0:3,0:3:0:0:
158,150,146705,1,0,0:3:0:0:
244,72,146984,2,0,L|176:58,1,69.6666687927247,2|0,0:3|0:3,0:3:0:0:
142,50,147261,1,0,0:3:0:0:
48,120,147539,6,0,P|36:172|60:228,1,104.500003189087,4|0,0:3|0:3,0:3:0:0:
8,324,148095,2,0,P|60:336|116:311,1,104.500003189087,8|0,0:3|0:3,0:3:0:0:
212,364,148650,2,0,P|224:312|199:255,1,104.500003189087,4|0,0:3|0:3,0:3:0:0:
316,300,149206,2,0,P|352:312|384:308,1,69.6666687927247,2|0,0:3|0:3,0:3:0:0:
415,295,149484,1,0,0:3:0:0:
360,196,149761,69,4,0:3:0:0:
276,120,150039,2,0,P|240:112|196:132,1,69.6666687927247,0|0,0:3|0:3,0:3:0:0:
176,140,150317,2,0,P|128:156|72:140,1,104.500003189087,8|0,0:3|0:3,0:3:0:0:
36,252,150873,2,0,P|84:236|140:252,1,104.500003189087,4|0,0:3|0:3,0:3:0:0:
240,292,151428,2,0,P|252:256|248:224,1,69.6666687927247,2|0,0:3|0:3,0:3:0:0:
235,193,151706,1,0,0:3:0:0:
348,204,151984,6,0,B|420:208|420:208|456:184,1,104.500003189087,4|0,0:3|0:3,0:3:0:0:
392,88,152539,1,8,0:3:0:0:
284,52,152817,2,0,P|248:52|212:68,1,69.6666687927247,0|0,0:3|0:3,0:3:0:0:
228,100,153095,2,0,B|228:140|208:176|208:176|176:156,1,104.500003189087,4|0,0:3|0:3,0:3:0:0:
80,120,153650,2,0,P|72:156|76:192,1,69.6666687927247,2|0,0:3|0:3,0:3:0:0:
92,224,153928,1,0,0:3:0:0:
192,280,154206,70,0,B|244:300|248:272|300:288,1,104.500003189087,4|0,0:3|0:3,0:3:0:0:
396,340,154761,2,0,L|416:268,1,69.6666687927247,8|0,0:3|0:3,0:3:0:0:
452,260,155039,2,0,L|472:188,1,69.6666687927247,0|0,0:3|0:3,0:3:0:0:
508,180,155317,1,4,0:3:0:0:
440,88,155595,1,0,0:3:0:0:
332,52,155873,2,0,P|292:44|256:52,1,69.6666687927247,2|0,0:3|0:3,0:3:0:0:
228,64,156150,1,0,0:3:0:0:
292,160,156428,6,0,B|304:208|304:208|288:288,1,104.500003189087,4|0,0:3|0:3,0:3:0:0:
188,212,156984,2,0,B|141:198|141:198|80:144,1,104.500003189087,8|0,0:3|0:3,0:3:0:0:
196,96,157539,1,4,0:3:0:0:
300,48,157817,2,0,P|336:40|372:48,1,69.6666687927247,0|0,0:3|0:3,0:3:0:0:
400,64,158095,2,0,P|434:70|467:62,1,69.6666687927247,2|0,0:3|0:3,0:3:0:0:
500,40,158373,1,0,0:3:0:0:
484,152,158650,69,4,0:3:0:0:
420,332,159113,1,4,0:3:0:0:
404,368,159206,1,4,0:3:0:0:
312,200,159669,1,4,0:3:0:0:
296,164,159762,1,4,0:3:0:0:
144,200,160224,1,4,0:3:0:0:
135,236,160317,2,0,B|98:372|98:372|152:337,1,205.833323911032,10|0,0:0|0:3,0:3:0:0:
188,320,160873,70,0,B|251:296|263:352|335:312,1,152,0|8,0:1|0:1,0:1:0:0:
400,92,161984,2,0,P|364:80|312:88,1,76,0|0,0:1|0:1,0:1:0:0:
276,184,162539,2,0,P|312:196|364:188,1,76,8|0,0:1|0:1,0:1:0:0:
464,176,163095,70,0,B|480:280|480:280|428:256,1,152,0|8,0:1|0:1,0:1:0:0:
264,112,164206,2,0,P|220:104|184:116,1,76,0|0,0:1|0:1,0:1:0:0:
156,220,164761,2,0,P|200:228|236:216,1,76,8|0,0:1|0:1,0:1:0:0:
332,272,165317,6,0,P|360:314|285:344,1,152,0|8,0:1|0:1,0:1:0:0:
64,300,166428,2,0,P|54:262|63:225,1,76,0|0,0:1|0:1,0:1:0:0:
172,260,166984,1,8,0:1:0:0:
172,260,167261,70,0,B|212:248|212:248|244:260|276:248|276:248|328:264,1,152,0|0,0:1|0:1,0:1:0:0:
408,192,168095,1,8,0:1:0:0:
408,192,168373,2,0,P|420:132|404:80,1,95,0|0,0:1|0:1,0:1:0:0:
304,12,168928,1,0,0:1:0:0:
304,12,169206,2,0,P|255:27|276:73,1,113.999996520996,0|0,0:1|0:1,0:1:0:0:
136,128,169761,70,0,B|76:152|80:108|4:136,1,118.75,4|0,0:3|0:3,0:3:0:0:
32,308,170317,2,0,P|61:252|44:197,1,118.75,8|0,0:3|0:3,0:3:0:0:
196,216,170873,2,0,B|272:224|272:224|260:176,1,118.75,4|0,0:3|0:3,0:3:0:0:
184,24,171428,2,0,L|104:20,1,79.1666666666667,2|0,0:3|0:3,0:3:0:0:
60,16,171706,1,0,0:3:0:0:
28,160,171984,6,0,P|20:204|36:244,1,79.1666666666667,4|0,0:3|0:3,0:3:0:0:
52,272,172261,2,0,P|62:309|54:347,1,79.1666666666667,0|0,0:3|0:3,0:3:0:0:
96,360,172539,2,0,L|180:344,1,79.1666666666667,8|0,0:3|0:3,0:3:0:0:
216,356,172817,2,0,L|300:340,1,79.1666666666667,0|0,0:3|0:3,0:3:0:0:
276,300,173095,2,0,B|264:260|264:260|280:220,1,79.1666666666667,4|0,0:3|0:3,0:3:0:0:
300,188,173373,2,0,B|311:150|311:150|299:113,1,79.1666666666667,0|0,0:3|0:3,0:3:0:0:
284,72,173650,2,0,L|192:68,1,79.1666666666667,2|0,0:3|0:3,0:3:0:0:
200,120,173928,2,0,L|118:162,1,79.1666666666667,0|0,0:3|0:3,0:3:0:0:
144,196,174206,70,0,B|160:272|160:272|108:252,1,118.75,4|0,0:3|0:3,0:3:0:0:
16,112,174761,2,0,B|0:36|0:36|52:56,1,118.75,8|0,0:3|0:3,0:3:0:0:
176,112,175317,2,0,B|220:128|220:128|252:116|252:116|300:128,1,118.75,4|0,0:3|0:3,0:3:0:0:
428,236,175873,2,0,P|440:278|424:320,1,79.1666666666667,2|0,0:3|0:3,0:3:0:0:
412,350,176150,1,0,0:3:0:0:
288,268,176428,37,4,0:3:0:0:
144,304,176706,1,0,0:3:0:0:
180,160,176984,2,0,L|164:80,1,79.1666666666667,8|0,0:3|0:3,0:3:0:0:
152,40,177261,1,0,0:3:0:0:
32,128,177539,2,0,L|12:216,1,79.1666666666667,4|0,0:3|0:3,0:3:0:0:
56,216,177817,2,0,L|76:304,1,79.1666666666667,8|0,0:3|0:3,0:3:0:0:
116,300,178095,1,4,0:3:0:0:
116,300,178650,5,4,0:3:0:0:
228,268,178928,2,0,P|263:260|300:267,1,69.6666687927247,0|0,0:3|0:3,0:3:0:0:
332,276,179206,2,0,P|320:216|340:156,1,104.500003189087,8|0,0:3|0:3,0:3:0:0:
388,76,179761,2,0,P|336:61|275:74,1,104.500003189087,4|0,0:3|0:3,0:3:0:0:
148,140,180317,2,0,P|199:154|260:141,1,104.500003189087,2|0,0:3|0:3,0:3:0:0:
272,260,180873,54,0,B|280:328|280:328|264:364,1,104.500003189087,4|0,0:3|0:3,0:3:0:0:
156,328,181428,2,0,B|148:260|148:260|164:224,1,104.500003189087,8|0,0:3|0:3,0:3:0:0:
272,260,181984,2,0,B|320:276|320:276|388:272,1,104.500003189087,4|0,0:3|0:3,0:3:0:0:
464,144,182539,2,0,B|416:128|416:128|348:132,1,104.500003189087,2|0,0:3|0:3,0:3:0:0:
248,144,183095,21,4,0:3:0:0:
132,156,183373,2,0,L|48:164,1,69.6666687927247,0|0,0:3|0:3,0:3:0:0:
28,148,183650,2,0,P|44:196|28:256,1,104.500003189087,8|0,0:3|0:3,0:3:0:0:
136,296,184206,2,0,B|181:316|181:316|257:309,1,104.500003189087,4|0,0:3|0:3,0:3:0:0:
314,176,184761,2,0,B|268:155|268:155|192:162,1,104.500003189087,2|0,0:3|0:3,0:3:0:0:
112,216,185317,54,0,P|96:168|116:104,2,104.500003189087,4|0|8,0:3|0:3|0:3,0:3:0:0:
208,280,186150,1,0,0:3:0:0:
324,276,186428,1,4,0:3:0:0:
432,312,186706,2,0,P|440:272|432:244,1,69.6666687927247,0|0,0:3|0:3,0:3:0:0:
412,212,186984,2,0,P|404:178|412:144,1,69.6666687927247,2|0,0:3|0:3,0:3:0:0:
392,112,187261,2,0,L|304:112,1,69.6666687927247,0|0,0:3|0:3,0:3:0:0:
300,144,187539,21,4,0:3:0:0:
240,244,187817,2,0,P|196:240|160:252,1,69.6666687927247,0|0,0:3|0:3,0:3:0:0:
136,264,188095,2,0,P|140:208|112:160,1,104.500003189087,8|0,0:3|0:3,0:3:0:0:
28,236,188650,2,0,P|24:292|52:340,1,104.500003189087,4|0,0:3|0:3,0:3:0:0:
200,356,189206,2,0,B|240:368|240:368|268:360|268:360|312:372,1,104.500003189087,2|0,0:3|0:3,0:3:0:0:
404,320,189761,54,0,P|412:280|400:248,1,69.6666687927247,4|0,0:3|0:3,0:3:0:0:
376,228,190039,2,0,P|366:194|375:161,1,69.6666687927247,0|0,0:3|0:3,0:3:0:0:
348,136,190317,2,0,L|280:120,1,69.6666687927247,8|0,0:3|0:3,0:3:0:0:
252,92,190595,2,0,L|184:76,1,69.6666687927247,0|0,0:3|0:3,0:3:0:0:
152,96,190873,2,0,B|140:128|140:128|148:172,1,69.6666687927247,4|0,0:3|0:3,0:3:0:0:
156,200,191150,2,0,B|162:234|162:234|150:266,1,69.6666687927247,0|0,0:3|0:3,0:3:0:0:
128,300,191428,2,0,L|204:332,1,69.6666687927247,2|0,0:3|0:3,0:3:0:0:
232,320,191706,2,0,L|308:352,1,69.6666687927247,0|0,0:3|0:3,0:3:0:0:
332,340,191984,21,4,0:3:0:0:
308,228,192261,2,0,P|300:192|316:152,1,69.6666687927247,0|0,0:3|0:3,0:3:0:0:
272,164,192539,2,0,B|212:168|212:168|172:148,1,104.500003189087,8|0,0:3|0:3,0:3:0:0:
260,72,193095,2,0,B|320:68|320:68|360:88,1,104.500003189087,4|0,0:3|0:3,0:3:0:0:
392,240,193650,2,0,B|404:316|404:316|384:352,1,104.500003189087,2|0,0:3|0:3,0:3:0:0:
280,368,194206,69,4,0:3:0:0:
152,224,194669,1,4,0:3:0:0:
126,191,194761,1,4,0:3:0:0:
311,153,195224,1,4,0:3:0:0:
352,146,195317,1,8,0:3:0:0:
295,329,195780,1,4,0:3:0:0:
280,368,195873,2,0,P|182:321|37:393,1,246.999988693238,4|0,0:3|0:3,0:3:0:0:
