osu file format v14

[General]
AudioFilename: audio.mp3
AudioLeadIn: 0
PreviewTime: 111084
Countdown: 0
SampleSet: Soft
StackLeniency: 0.3
Mode: 0
LetterboxInBreaks: 0
WidescreenStoryboard: 0

[Editor]
Bookmarks: 7238,9546,11277,11854,13007,14161,15892,16469,18777,21661,23392,24546,25700,27430,28584,29738,32046,34642,37238,46469,48777,51084,55700,57430,64930,67238,69257,106469,106902,107334,111084,120315,131854,136469,138777,141084,180315,184930,187238
DistanceSpacing: 1.6
BeatDivisor: 4
GridSize: 4
TimelineZoom: 1.8

[Metadata]
Title:Chewing Gum
TitleUnicode:Chewing Gum
Artist:NCT DREAM
ArtistUnicode:엔시티 드림
Creator:FunnyA
Version:Gummy Yummy
Source:
Tags:The First Single Neo Culture Technology 마크 리 이민형 黄仁俊 런쥔 이제노 이동혁 해찬 나재민 钟辰乐 천러 박지성 Mark Lee Min Hyung Huang Ren Jun Moomin Lee Je No JeNo-Jam Lee Dong Hyuk Haechan Dongsookie Na Jae Min Zhong Chen Le Park Ji Sung SM Entertaintment K-pop Kpop 2016 ulfanirahmi
BeatmapID:1617052
BeatmapSetID:725546

[Difficulty]
HPDrainRate:6
CircleSize:4.2
OverallDifficulty:7.5
ApproachRate:8
SliderMultiplier:2.75
SliderTickRate:2

[Events]
//Background and Video events
0,0,"Chewing Gum.jpg",0,0
Video,-109,"NCT DREAM_Chewing Gum_Music Video.mp4"
//Break Periods
//Storyboard Layer 0 (Background)
//Storyboard Layer 1 (Fail)
//Storyboard Layer 2 (Pass)
//Storyboard Layer 3 (Foreground)
//Storyboard Sound Samples

[TimingPoints]
315.570523704565,576.923076923077,4,2,1,70,1,0
9546,-111.111111111111,4,2,1,70,0,0
17623,-166.666666666666,4,2,1,70,0,0
18777,-111.111111111111,4,2,1,70,0,0
35796,-125,4,2,1,70,0,0
37238,-111.111111111111,4,2,1,70,0,0
41854,-100,4,2,1,70,0,0
45604,-166.666666666667,4,2,1,70,0,0
46469,-83.3333333333333,4,2,1,85,0,1
53392,-100,4,2,1,70,0,0
55700,-83.3333333333333,4,2,1,85,0,1
62623,-100,4,2,1,70,0,0
64930,-111.111111111111,4,2,1,70,0,0
71854,-166.666666666666,4,2,1,70,0,0
74161,-100,4,2,1,70,0,0
78200,-83.3333333333333,4,2,1,70,0,0
78777,-111.111111111111,4,2,1,70,0,0
82238,-166.666666666666,4,2,1,70,0,0
83392,-111.111111111111,4,2,1,70,0,0
100411,-125,4,2,1,70,0,0
101854,-111.111111111111,4,2,1,70,0,0
106469,-100,4,2,1,70,0,0
110219,-166.666666666667,4,2,1,70,0,0
111084,-83.3333333333333,4,2,1,85,0,1
118007,-100,4,2,1,70,0,0
120315,-83.3333333333333,4,2,1,85,0,1
127238,-100,4,2,1,70,0,0
129546,-111.111111111111,4,2,1,70,0,0
136469,-166.666666666666,4,2,1,70,0,0
138777,-111.111111111111,4,2,5,70,0,0
140507,-166.666666666667,4,2,5,70,0,0
141084,-111.111111111111,4,2,5,70,0,0
146854,-166.666666666666,4,2,5,70,0,0
148007,-111.111111111111,4,2,5,70,0,0
152623,-100,4,2,1,70,0,0
156373,-166.666666666667,4,2,1,70,0,0
157238,-83.3333333333333,4,2,1,85,0,1
164161,-100,4,2,1,70,0,0
166469,-83.3333333333333,4,2,1,85,0,1
173392,-100,4,2,1,70,0,0
175700,-111.111111111111,4,2,1,70,0,0
183488,-166.666666666667,4,2,1,70,0,0
184930,-111.111111111111,4,2,1,70,0,0
191854,-166.666666666666,4,2,1,70,0,0

[Colours]
Combo1 : 0,13,215
Combo2 : 249,191,189
Combo3 : 255,0,128
Combo4 : 46,186,231
SliderBorder : 250,30,193
SliderTrackOverride : 42,57,80

[HitObjects]
32,52,7238,5,4,0:1:0:0:
32,52,7382,2,0,L|48:148,1,68.75,4|0,0:1|0:1,0:1:0:0:
120,208,7671,5,4,0:1:0:0:
120,208,7815,2,0,L|136:112,1,68.75,4|0,0:1|0:1,0:1:0:0:
220,92,8104,5,4,0:1:0:0:
220,92,8248,2,0,L|236:188,1,68.75,4|0,0:1|0:1,0:1:0:0:
308,248,8537,5,4,0:1:0:0:
308,248,8681,2,0,L|324:152,1,68.75,4|0,0:1|0:1,0:1:0:0:
344,60,8969,5,4,0:1:0:0:
344,60,9257,1,4,0:1:0:0:
440,260,9546,5,6,0:0:0:0:
220,300,9834,2,0,P|208:264|212:236,1,61.8749981117249
244,160,10123,2,0,P|245:129|234:100,1,61.8749981117249,8|0,0:0|0:0,0:0:0:0:
164,52,10411,1,2,0:0:0:0:
52,184,10700,2,0,L|40:256,1,61.8749981117249
126,226,10988,2,0,L|116:288,1,61.8749981117249,2|0,0:0|0:0,0:0:0:0:
251,268,11277,2,0,B|290:248|290:248|210:240,1,123.74999622345,8|0,0:0|0:0,0:0:0:0:
128,148,11854,6,0,P|152:128|196:120,1,61.8749981117249,2|0,0:0|0:0,0:0:0:0:
313,123,12142,2,0,P|289:143|260:152,1,61.8749981117249
252,64,12430,2,0,P|276:44|320:36,1,61.8749981117249,8|0,0:0|0:0,0:0:0:0:
437,39,12718,2,0,P|413:59|384:68,1,61.8749981117249,2|0,0:0|0:0,0:0:0:0:
396,180,13007,2,0,B|400:272|400:272|424:248,1,123.74999622345,0|2,0:0|0:0,0:0:0:0:
443,77,13584,2,0,P|403:65|367:75,1,61.8749981117249,8|0,0:0|0:0,0:0:0:0:
313,123,13873,1,0,0:0:0:0:
176,296,14161,5,2,0:0:0:0:
128,128,14450,2,0,L|148:200,1,61.8749981117249
224,152,14738,2,0,L|239:92,1,61.8749981117249,8|0,0:0|0:0,0:0:0:0:
312,140,15027,1,2,0:0:0:0:
336,312,15315,2,0,P|296:316|260:300,1,61.8749981117249
308,228,15604,2,0,P|348:224|384:240,1,61.8749981117249,2|0,0:0|0:0,0:0:0:0:
216,372,15892,2,0,P|188:320|208:256,1,123.74999622345,8|0,0:0|0:0,0:0:0:0:
289,84,16469,6,0,P|257:88|225:112,1,61.8749981117249,2|0,0:0|0:0,0:0:0:0:
376,171,16757,2,0,P|407:168|433:152,1,61.8749981117249
289,171,17047,2,0,P|292:202|308:228,1,61.8749981117249,8|0,0:0|0:0,0:0:0:0:
377,84,17334,2,0,P|373:52|349:20,1,61.8749981117249,2|0,0:0|0:0,0:0:0:0:
288,84,17623,5,0,0:0:0:0:
259,88,17767,1,0,0:0:0:0:
230,92,17911,1,0,0:0:0:0:
202,96,18055,1,0,0:0:0:0:
173,100,18199,1,0,0:0:0:0:
12,184,18488,1,0,0:0:0:0:
176,356,18777,5,2,0:0:0:0:
344,320,19065,2,0,L|264:336,1,61.8749981117249
216,276,19354,2,0,L|242:198,1,61.8749981117249,8|0,0:0|0:0,0:0:0:0:
320,232,19642,1,2,0:0:0:0:
440,108,19930,2,0,P|448:144|436:176,1,61.8749981117249
376,64,20219,2,0,P|403:39|436:33,1,61.8749981117249,2|0,0:0|0:0,0:0:0:0:
364,140,20507,2,0,P|324:120|304:40,1,123.74999622345,8|0,0:0|0:0,0:0:0:0:
132,80,21084,6,0,L|56:92,1,61.8749981117249,2|0,0:0|0:0,0:0:0:0:
120,160,21373,2,0,L|180:171,1,61.8749981117249
301,48,21661,2,0,L|225:60,1,61.8749981117249,8|0,0:0|0:0,0:0:0:0:
289,128,21950,2,0,L|349:139,1,61.8749981117249,2|0,0:0|0:0,0:0:0:0:
432,108,22238,1,0,0:0:0:0:
436,153,22382,1,0,0:0:0:0:
417,195,22526,1,2,0:0:0:0:
256,348,22815,2,0,P|260:300|281:271,1,61.8749981117249,8|0,0:0|0:0,0:0:0:0:
344,332,23104,1,0,0:0:0:0:
432,108,23392,6,0,B|384:80|384:80|316:88,1,123.74999622345,2|0,0:1|0:1,0:1:0:0:
232,100,23825,1,0,0:0:0:0:
180,171,23969,2,0,B|172:215|172:215|180:243|180:243|172:311,1,123.74999622345,8|2,0:0|0:0,0:1:0:0:
392,236,24546,2,0,P|355:237|326:253,1,61.8749981117249,0|0,0:1|0:1,0:1:0:0:
459,288,24834,2,0,P|475:261|479:231,1,61.8749981117249,8|0,0:1|0:1,0:1:0:0:
379,319,25123,1,0,0:1:0:0:
406,357,25267,1,0,0:1:0:0:
448,373,25411,1,8,0:1:0:0:
404,156,25700,6,0,P|344:152|276:185,1,123.74999622345,2|0,0:1|0:0,0:1:0:0:
212,216,26132,1,0,0:1:0:0:
224,128,26277,2,0,P|228:68|195:0,1,123.74999622345,8|2,0:0|0:0,0:1:0:0:
132,220,26854,2,0,P|140:256|168:284,1,61.8749981117249,0|0,0:1|0:1,0:1:0:0:
212,216,27142,1,8,0:1:0:0:
436,208,27430,5,8,0:1:0:0:
324,212,27575,1,2,0:1:0:0:
448,176,27719,1,8,0:1:0:0:
336,180,27864,1,2,0:1:0:0:
460,144,28007,5,2,0:0:0:0:
344,16,28296,2,0,P|308:16|268:32,1,61.8749981117249
171,103,28584,2,0,P|202:104|232:96,1,61.8749981117249,8|0,0:0|0:0,0:0:0:0:
192,20,28873,1,2,0:0:0:0:
40,104,29161,2,0,L|56:180,1,61.8749981117249
136,184,29450,2,0,L|152:260,1,61.8749981117249,2|0,0:0|0:0,0:0:0:0:
343,251,29738,2,0,P|292:218|232:224,1,123.74999622345,8|0,0:0|0:0,0:0:0:0:
76,300,30315,5,2,0:0:0:0:
152,144,30604,2,0,L|176:64,1,61.8749981117249
236,28,30892,2,0,L|293:88,1,61.8749981117249,8|0,0:0|0:0,0:0:0:0:
236,148,31180,1,2,0:0:0:0:
184,312,31469,1,0,0:0:0:0:
226,323,31613,1,0,0:0:0:0:
268,316,31757,1,2,0:0:0:0:
112,240,32046,2,0,P|84:284|100:368,1,123.74999622345,8|0,0:0|0:0,0:0:0:0:
236,184,32623,5,2,0:0:0:0:
408,156,32911,2,0,L|328:168,1,61.8749981117249
392,64,33200,2,0,L|472:76,1,61.8749981117249,8|0,0:0|0:0,0:0:0:0:
492,152,33488,1,2,0:0:0:0:
352,252,33777,2,0,P|316:248|284:224,1,61.8749981117249
253,93,34065,2,0,P|267:121|268:151,1,61.8749981117249,2|0,0:0|0:0,0:0:0:0:
160,256,34354,2,0,P|181:226|218:211,1,61.8749981117249,8|0,0:0|0:0,0:0:0:0:
294,235,34642,1,0,0:0:0:0:
164,348,34930,6,0,P|104:328|72:260,1,123.74999622345,2|0,0:0|0:0,0:0:0:0:
84,104,35507,1,8,0:0:0:0:
276,56,35796,5,2,0:0:0:0:
303,59,35940,1,0,0:0:0:0:
330,62,36084,1,0,0:0:0:0:
357,65,36228,1,0,0:0:0:0:
428,136,36373,5,0,0:0:0:0:
400,140,36517,1,0,0:0:0:0:
373,143,36661,1,0,0:0:0:0:
346,146,36805,1,0,0:0:0:0:
388,232,36950,5,0,0:0:0:0:
208,360,37238,5,2,0:0:0:0:
80,244,37527,2,0,L|100:180,1,61.8749981117249
221,182,37815,2,0,L|176:224,1,61.8749981117249,8|0,0:0|0:0,0:0:0:0:
144,304,38104,1,2,0:0:0:0:
372,254,38392,2,0,L|312:268,1,61.8749981117249
436,359,38680,2,0,L|377:341,1,61.8749981117249,2|0,0:0|0:0,0:0:0:0:
312,268,38969,2,0,B|296:220|308:184|308:184|336:184|360:172,1,123.74999622345,8|0,0:0|0:0,0:0:0:0:
308,8,39546,5,2,0:0:0:0:
176,120,39834,2,0,L|252:132,1,61.8749981117249
192,204,40123,2,0,L|143:263,1,61.8749981117249,8|0,0:0|0:0,0:0:0:0:
108,180,40411,2,0,L|80:108,1,61.8749981117249,2|0,0:0|0:0,0:0:0:0:
176,120,40700,1,0,0:0:0:0:
224,127,40844,1,0,0:0:0:0:
273,134,40988,1,2,0:0:0:0:
109,180,41277,2,0,P|84:124|103:66,1,123.74999622345,8|0,0:0|0:0,0:0:0:0:
348,40,41854,5,4,0:1:0:0:
348,40,41998,2,0,L|432:48,1,68.75,4|0,0:1|0:1,0:1:0:0:
312,116,42286,5,4,0:1:0:0:
316,120,42430,2,0,L|232:128,1,68.75,4|0,0:1|0:1,0:1:0:0:
336,216,42719,5,4,0:1:0:0:
336,216,42863,2,0,L|420:224,1,68.75,4|0,0:1|0:1,0:1:0:0:
304,296,43151,5,4,0:1:0:0:
304,296,43296,2,0,L|220:304,1,68.75,4|0,0:1|0:1,0:1:0:0:
112,316,43584,5,0,0:1:0:0:
112,316,43873,1,4,0:1:0:0:
36,80,44161,5,4,0:1:0:0:
36,80,44305,2,0,L|56:8,1,68.75,4|0,0:1|0:1,0:1:0:0:
132,112,44594,5,4,0:1:0:0:
132,112,44738,2,0,L|152:184,1,68.75,4|0,0:1|0:1,0:1:0:0:
224,80,45027,5,4,0:1:0:0:
224,80,45171,2,0,L|244:8,1,68.75,4|0,0:1|0:1,0:1:0:0:
340,92,45459,5,4,0:1:0:0:
340,92,45604,2,0,P|360:116|280:168,1,164.9999949646,4|4,0:1|0:3,0:0:0:0:
4,48,46469,6,0,B|56:40|56:40|112:52|112:52|172:40,1,164.9999949646,6|0,0:0|0:0,0:0:0:0:
248,0,46902,1,0,0:0:0:0:
248,0,47046,2,0,P|260:44|244:88,1,82.4999974822999,8|0,0:0|0:0,0:0:0:0:
176,128,47334,1,2,0:0:0:0:
156,296,47623,6,0,P|148:256|164:216,1,82.4999974822999
310,230,47911,2,0,P|280:257|240:264,1,82.4999974822999,2|0,0:0|0:0,0:0:0:0:
175,127,48200,1,8,0:0:0:0:
214,140,48344,1,0,0:0:0:0:
239,171,48488,1,0,0:0:0:0:
8,140,48777,5,2,0:0:0:0:
8,140,48921,2,0,L|4:52,1,82.4999974822999
125,18,49209,1,0,0:0:0:0:
125,18,49354,2,0,L|88:92,1,82.4999974822999,8|0,0:0|0:0,0:0:0:0:
144,164,49642,2,0,P|192:172|248:148,1,82.4999974822999,2|0,0:0|0:0,0:0:0:0:
368,99,49930,6,0,P|327:91|288:100,1,82.4999974822999
128,148,50220,2,0,P|176:156|232:132,1,82.4999974822999,2|0,0:0|0:0,0:0:0:0:
352,83,50507,1,8,0:0:0:0:
311,74,50651,1,0,0:0:0:0:
271,83,50795,1,0,0:0:0:0:
424,256,51084,5,2,0:0:0:0:
252,312,51373,1,0,0:0:0:0:
236,274,51517,1,0,0:0:0:0:
240,233,51661,2,0,P|243:192|228:154,1,82.4999974822999,8|0,0:0|0:0,0:0:0:0:
144,124,51950,2,0,P|141:165|156:203,1,82.4999974822999,2|0,0:0|0:0,0:0:0:0:
240,232,52238,6,0,B|280:240|280:240|332:236,1,82.4999974822999
384,172,52527,2,0,B|425:168|425:168|465:176,1,82.4999974822999,2|0,0:0|0:0,0:0:0:0:
322,237,52815,1,8,0:0:0:0:
299,202,52959,1,0,0:0:0:0:
294,162,53103,1,0,0:0:0:0:
307,123,53247,1,0,0:0:0:0:
224,72,53392,5,2,0:3:0:0:
224,72,53536,2,0,L|148:76,1,68.75,2|0,0:3|0:3,0:3:0:0:
56,152,53825,5,2,0:3:0:0:
56,152,53969,2,0,L|132:156,1,68.75,2|0,0:3|0:3,0:3:0:0:
224,228,54257,5,2,0:3:0:0:
224,228,54401,2,0,L|148:232,1,68.75,2|0,0:3|0:3,0:3:0:0:
56,308,54690,5,2,0:3:0:0:
56,308,54834,2,0,L|132:312,1,68.75,2|0,0:3|0:3,0:3:0:0:
248,316,55123,5,2,0:3:0:0:
248,316,55411,1,2,0:3:0:0:
412,68,55700,6,0,B|332:44|332:96|220:56,1,164.9999949646,6|0,0:0|0:0,0:0:0:0:
164,36,56132,1,0,0:0:0:0:
164,36,56277,2,0,P|160:84|180:120,1,82.4999974822999,8|0,0:0|0:0,0:0:0:0:
256,152,56565,1,2,0:0:0:0:
424,148,56854,6,0,L|508:168,1,82.4999974822999
444,236,57142,2,0,L|360:256,1,82.4999974822999,2|0,0:0|0:0,0:0:0:0:
256,152,57430,1,8,0:0:0:0:
296,161,57574,1,0,0:0:0:0:
336,171,57718,1,0,0:0:0:0:
104,184,58007,5,2,0:0:0:0:
104,184,58152,2,0,P|92:140|106:103,1,82.4999974822999
192,228,58440,1,0,0:0:0:0:
192,228,58585,2,0,P|203:271|189:308,1,82.4999974822999,8|0,0:0|0:0,0:0:0:0:
280,304,58873,2,0,L|376:296,1,82.4999974822999,2|0,0:0|0:0,0:0:0:0:
482,209,59161,6,0,L|400:216,1,82.4999974822999
300,324,59450,2,0,L|396:316,1,82.4999974822999,2|0,0:0|0:0,0:0:0:0:
502,229,59738,1,8,0:0:0:0:
460,232,59882,1,0,0:0:0:0:
419,235,60026,1,0,0:0:0:0:
188,256,60315,5,2,0:0:0:0:
12,200,60604,1,0,0:0:0:0:
17,159,60748,1,0,0:0:0:0:
23,118,60892,2,0,B|76:132|76:132|196:104,1,164.9999949646,8|2,0:0|0:0,0:0:0:0:
364,136,61469,6,0,L|282:122,1,82.4999974822999
244,40,61757,2,0,L|340:24,1,82.4999974822999,2|0,0:0|0:0,0:0:0:0:
412,60,62046,1,8,0:0:0:0:
439,90,62190,1,0,0:0:0:0:
451,129,62334,1,0,0:0:0:0:
445,170,62478,1,0,0:0:0:0:
392,252,62623,5,2,0:3:0:0:
392,252,62767,2,0,B|360:264|360:264|304:260,1,68.75,2|0,0:3|0:3,0:3:0:0:
216,316,63055,5,2,0:3:0:0:
216,316,63199,2,0,B|204:284|204:284|208:228,1,68.75,2|0,0:3|0:3,0:3:0:0:
152,136,63488,5,2,0:3:0:0:
152,136,63632,2,0,B|184:124|184:124|240:128,1,68.75,2|0,0:3|0:3,0:3:0:0:
328,72,63921,5,2,0:3:0:0:
328,72,64065,2,0,B|340:104|340:104|336:160,1,68.75,2|0,0:3|0:3,0:3:0:0:
36,352,64930,6,0,L|112:348,1,61.8749981117249,2|0,0:0|0:0,0:0:0:0:
180,272,65219,2,0,L|104:268,1,61.8749981117249
36,192,65507,2,0,L|112:188,1,61.8749981117249,8|0,0:0|0:0,0:0:0:0:
160,112,65796,2,0,L|84:108,1,61.8749981117249,2|0,0:0|0:0,0:0:0:0:
184,28,66084,6,0,P|230:60|244:127,1,123.74999622345,0|2,0:0|0:0,0:0:0:0:
188,204,66517,1,0,0:0:0:0:
188,204,66661,2,0,P|220:220|252:220,1,61.8749981117249,8|0,0:0|0:0,0:0:0:0:
320,180,66950,1,0,0:0:0:0:
508,40,67238,6,0,P|516:80|504:112,1,61.8749981117249,2|0,0:0|0:0,0:0:0:0:
416,136,67527,2,0,P|408:96|420:64,1,61.8749981117249
500,188,67815,2,0,P|508:228|496:260,1,61.8749981117249,8|0,0:0|0:0,0:0:0:0:
408,284,68104,2,0,P|400:244|412:212,1,61.8749981117249,2|0,0:0|0:0,0:0:0:0:
464,352,68392,6,0,P|408:372|336:332,1,123.74999622345,0|2,0:0|0:0,0:0:0:0:
280,300,68825,1,0,0:0:0:0:
212,248,68969,2,0,P|200:216|208:176,1,61.8749981117249,8|0,0:0|0:0,0:0:0:0:
280,300,69257,1,0,0:0:0:0:
396,140,69546,5,2,0:0:0:0:
396,140,69834,1,0,0:0:0:0:
202,188,70123,1,0,0:0:0:0:
202,188,70411,1,2,0:0:0:0:
8,236,70700,6,0,L|0:104,1,123.74999622345,0|2,0:0|0:0,0:0:0:0:
115,105,71132,2,0,P|60:128|-9:105,1,123.74999622345,0|2,0:0|0:0,0:0:0:0:
176,60,71565,2,0,P|192:100|180:136,1,61.8749981117249
140,184,71854,6,0,B|140:228|140:228|160:268,1,82.4999974822999,2|0,0:0|0:0,0:0:0:0:
316,300,72430,1,0,0:0:0:0:
268,140,72719,1,2,0:0:0:0:
256,192,72863,12,0,74161,0:0:0:0:
218,260,74738,5,8,0:1:0:0:
187,154,75892,5,8,0:1:0:0:
293,123,77046,5,8,0:1:0:0:
324,229,78200,6,0,B|340:344|340:344|296:320,1,164.9999949646,8|0,0:0|0:0,0:0:0:0:
112,196,78777,5,2,0:0:0:0:
224,64,79065,2,0,B|256:60|256:60|300:76,1,61.8749981117249
240,144,79354,2,0,B|208:148|208:148|164:132,1,61.8749981117249,8|0,0:0|0:0,0:0:0:0:
136,64,79642,1,2,0:0:0:0:
192,228,79930,2,0,P|196:268|180:300,1,61.8749981117249
104,312,80219,2,0,P|100:272|116:240,1,61.8749981117249,2|0,0:0|0:0,0:0:0:0:
309,220,80507,2,0,P|251:240|192:228,1,123.74999622345,8|0,0:0|0:0,0:0:0:0:
376,104,81084,6,0,L|444:120,1,61.8749981117249,2|0,0:0|0:0,0:0:0:0:
396,272,81373,2,0,L|335:257,1,61.8749981117249
464,200,81661,2,0,L|481:259,1,61.8749981117249,8|0,0:0|0:0,0:0:0:0:
308,176,81950,2,0,L|287:109,1,61.8749981117249,2|0,0:0|0:0,0:0:0:0:
208,152,82238,5,0,0:0:0:0:
176,157,82382,1,0,0:0:0:0:
147,154,82526,1,0,0:0:0:0:
118,142,82670,1,0,0:0:0:0:
94,122,82814,1,0,0:0:0:0:
252,32,83104,1,0,0:0:0:0:
332,240,83392,5,2,0:0:0:0:
168,300,83680,2,0,B|136:296|136:296|88:304,1,61.8749981117249
200,380,83969,2,0,P|232:360|244:268,1,123.74999622345,8|2,0:0|0:0,0:0:0:0:
172,124,84546,2,0,P|164:88|180:48,1,61.8749981117249
252,92,84834,2,0,P|260:128|244:168,1,61.8749981117249,2|0,0:0|0:0,0:0:0:0:
48,68,85123,2,0,B|88:56|88:56|172:64,1,123.74999622345,8|0,0:0|0:0,0:0:0:0:
315,160,85700,6,0,L|231:148,1,61.8749981117249,2|0,0:0|0:0,0:0:0:0:
152,232,85988,2,0,L|236:220,1,61.8749981117249
360,244,86277,2,0,L|276:232,1,61.8749981117249,8|0,0:0|0:0,0:0:0:0:
197,316,86565,2,0,L|281:304,1,61.8749981117249,2|0,0:0|0:0,0:0:0:0:
344,320,86854,1,0,0:0:0:0:
386,316,86998,1,0,0:0:0:0:
420,290,87142,1,2,0:0:0:0:
336,136,87430,2,0,P|332:180|344:204,1,61.8749981117249,8|0,0:0|0:0,0:0:0:0:
416,160,87719,1,0,0:0:0:0:
204,100,88007,6,0,B|152:96|152:96|128:108|128:108|72:100,1,123.74999622345,2|0,0:1|0:1,0:1:0:0:
15,151,88440,1,0,0:1:0:0:
75,215,88584,2,0,P|100:156|75:91,1,123.74999622345,8|2,0:0|0:0,0:1:0:0:
236,16,89161,2,0,L|312:24,1,61.8749981117249,0|0,0:1|0:1,0:1:0:0:
184,116,89450,2,0,L|158:59,1,61.8749981117249,8|0,0:1|0:1,0:1:0:0:
300,108,89738,1,0,0:1:0:0:
273,142,89882,1,0,0:1:0:0:
247,177,90026,1,8,0:1:0:0:
104,348,90315,5,2,0:1:0:0:
16,144,90604,1,0,0:1:0:0:
45,148,90748,1,0,0:1:0:0:
76,153,90892,1,8,0:0:0:0:
247,177,91180,1,2,0:0:0:0:
104,348,91469,5,0,0:1:0:0:
16,144,91757,1,8,0:1:0:0:
247,177,92046,5,8,0:1:0:0:
356,192,92190,1,2,0:1:0:0:
268,200,92334,1,8,0:1:0:0:
377,215,92478,1,2,0:1:0:0:
292,228,92623,5,2,0:0:0:0:
460,184,92911,2,0,L|408:120,1,61.8749981117249
316,143,93200,2,0,L|368:207,1,61.8749981117249,8|0,0:0|0:0,0:0:0:0:
420,136,93488,1,2,0:0:0:0:
256,76,93777,2,0,L|184:88,1,61.8749981117249
144,156,94065,2,0,L|216:168,1,61.8749981117249,2|0,0:0|0:0,0:0:0:0:
96,216,94354,2,0,P|68:148|92:100,1,123.74999622345,8|0,0:0|0:0,0:0:0:0:
256,76,94930,5,2,0:0:0:0:
364,212,95219,2,0,B|372:244|372:244|364:288,1,61.8749981117249
448,176,95507,2,0,B|460:224|460:224|452:300,1,123.74999622345,8|2,0:0|0:0,0:0:0:0:
278,216,96084,1,0,0:0:0:0:
321,214,96228,1,0,0:0:0:0:
364,212,96372,1,2,0:0:0:0:
216,284,96661,2,0,P|188:252|196:168,1,123.74999622345,8|0,0:0|0:0,0:0:0:0:
340,8,97238,5,2,0:0:0:0:
188,88,97527,2,0,L|112:84,1,61.8749981117249
192,174,97815,2,0,L|268:178,1,61.8749981117249,8|0,0:0|0:0,0:0:0:0:
280,96,98104,1,2,0:0:0:0:
144,278,98392,2,0,B|168:294|168:294|200:304,1,61.8749981117249
254,177,98680,2,0,B|227:189|227:189|204:212,1,61.8749981117249,2|0,0:0|0:0,0:0:0:0:
285,324,98969,2,0,B|288:296|288:296|280:264,1,61.8749981117249,8|0,0:0|0:0,0:0:0:0:
255,177,99257,1,0,0:0:0:0:
394,72,99546,6,0,B|330:64|330:64|274:100,2,123.74999622345,2|0|8,0:0|0:0|0:0,0:0:0:0:
428,224,100411,5,2,0:0:0:0:
435,250,100555,1,0,0:0:0:0:
435,277,100699,1,0,0:0:0:0:
427,304,100843,1,0,0:0:0:0:
336,340,100988,5,0,0:0:0:0:
328,313,101132,1,0,0:0:0:0:
328,286,101276,1,0,0:0:0:0:
336,259,101420,1,0,0:0:0:0:
420,208,101565,5,0,0:0:0:0:
288,28,101854,5,2,0:0:0:0:
86,117,102142,2,0,L|148:128,1,61.8749981117249
265,206,102430,2,0,L|204:196,1,61.8749981117249,8|0,0:0|0:0,0:0:0:0:
148,128,102719,1,2,0:0:0:0:
232,280,103007,1,0,0:0:0:0:
274,287,103151,1,0,0:0:0:0:
313,270,103295,1,2,0:0:0:0:
252,56,103584,2,0,L|260:144,1,61.8749981117249,8|0,0:0|0:0,0:0:0:0:
264,204,103873,1,0,0:0:0:0:
488,204,104161,6,0,P|432:168|368:172,1,123.74999622345,2|0,0:0|0:0,0:0:0:0:
396,334,104738,2,0,P|408:306|404:276,1,61.8749981117249,8|0,0:0|0:0,0:0:0:0:
320,292,105027,2,0,P|308:320|312:350,1,61.8749981117249,2|0,0:0|0:0,0:0:0:0:
228,372,105315,1,0,0:0:0:0:
184,372,105459,1,0,0:0:0:0:
144,356,105603,1,2,0:0:0:0:
184,136,105892,2,0,B|212:168|212:168|205:248,1,123.74999622345,8|0,0:0|0:0,0:0:0:0:
68,44,106469,5,4,0:1:0:0:
68,44,106613,2,0,L|156:72,1,68.75,4|0,0:1|0:1,0:1:0:0:
249,115,106902,5,4,0:1:0:0:
249,115,107046,2,0,L|183:135,1,68.75,4|0,0:1|0:1,0:1:0:0:
236,24,107334,5,4,0:1:0:0:
236,24,107478,2,0,L|324:52,1,68.75,4|0,0:1|0:1,0:1:0:0:
417,95,107767,5,4,0:1:0:0:
417,95,107911,2,0,L|351:115,1,68.75,4|0,0:1|0:1,0:1:0:0:
232,144,108200,5,0,0:1:0:0:
232,144,108488,1,4,0:1:0:0:
196,360,108777,5,4,0:1:0:0:
196,360,108921,2,0,P|229:367|269:355,1,68.75,4|0,0:1|0:1,0:1:0:0:
380,324,109209,5,4,0:1:0:0:
380,324,109353,2,0,P|369:291|339:262,1,68.75,4|0,0:1|0:1,0:1:0:0:
260,176,109642,5,4,0:1:0:0:
260,176,109786,2,0,P|237:201|227:241,1,68.75,4|0,0:1|0:1,0:1:0:0:
346,266,110075,5,4,0:1:0:0:
346,266,110219,2,0,B|420:252|420:252|495:195,1,164.9999949646,4|4,0:1|0:3,0:0:0:0:
212,92,111084,6,0,B|138:106|138:106|63:163,1,164.9999949646,6|0,0:0|0:0,0:0:0:0:
104,236,111517,1,0,0:0:0:0:
104,236,111661,2,0,P|52:244|12:224,1,82.4999974822999,8|0,0:0|0:0,0:0:0:0:
66,160,111950,1,2,0:0:0:0:
224,200,112238,6,0,P|232:228|220:284,1,82.4999974822999
102,315,112527,2,0,P|94:287|106:231,1,82.4999974822999,2|0,0:0|0:0,0:0:0:0:
224,200,112815,1,8,0:0:0:0:
264,207,112959,1,0,0:0:0:0:
305,214,113103,1,0,0:0:0:0:
456,116,113392,5,2,0:0:0:0:
456,116,113536,2,0,L|400:184,1,82.4999974822999
384,268,113825,1,0,0:0:0:0:
384,268,113969,2,0,L|412:345,1,82.4999974822999,8|0,0:0|0:0,0:0:0:0:
324,364,114257,2,0,P|276:372|236:360,1,82.4999974822999,2|0,0:0|0:0,0:0:0:0:
107,291,114546,6,0,P|147:283|188:292,1,82.4999974822999
24,332,114834,2,0,P|14:292|24:251,1,82.4999974822999,2|0,0:0|0:0,0:0:0:0:
103,128,115123,1,8,0:0:0:0:
113,168,115267,1,0,0:0:0:0:
104,208,115411,1,0,0:0:0:0:
56,16,115700,6,0,B|150:-7|130:44|217:12,1,164.9999949646,2|0,0:0|0:0,0:0:0:0:
296,60,116132,1,0,0:0:0:0:
296,60,116277,2,0,P|304:100|292:144,1,82.4999974822999,8|0,0:0|0:0,0:0:0:0:
236,208,116565,2,0,P|226:247|234:287,1,82.4999974822999,2|0,0:0|0:0,0:0:0:0:
317,250,116854,6,0,B|356:244|356:244|421:258,1,82.4999974822999
392,344,117142,2,0,B|353:350|353:350|288:336,1,82.4999974822999,2|0,0:0|0:0,0:0:0:0:
234,287,117430,1,8,0:0:0:0:
196,271,117574,1,0,0:0:0:0:
155,268,117718,1,0,0:0:0:0:
115,278,117862,1,0,0:0:0:0:
28,320,118007,5,2,0:3:0:0:
28,320,118152,2,0,L|16:228,1,68.75,2|0,0:3|0:3,0:3:0:0:
72,140,118440,5,2,0:3:0:0:
72,140,118585,2,0,L|84:232,1,68.75,2|0,0:3|0:3,0:3:0:0:
164,300,118873,5,2,0:3:0:0:
164,300,119018,2,0,L|152:208,1,68.75,2|0,0:3|0:3,0:3:0:0:
208,120,119306,5,2,0:3:0:0:
208,120,119451,2,0,L|216:188,1,68.75,2|0,0:3|0:3,0:3:0:0:
292,288,119738,5,2,0:3:0:0:
292,288,120027,1,2,0:3:0:0:
144,32,120315,6,0,P|216:12|308:76,1,164.9999949646,6|0,0:0|0:0,0:0:0:0:
360,112,120748,1,0,0:0:0:0:
360,112,120892,2,0,P|400:132|444:128,1,82.4999974822999,8|0,0:0|0:0,0:0:0:0:
416,44,121180,1,2,0:0:0:0:
296,180,121469,6,0,L|232:252,1,82.4999974822999
128,132,121757,2,0,L|208:148,1,82.4999974822999,2|0,0:0|0:0,0:0:0:0:
172,300,122046,1,8,0:0:0:0:
159,260,122190,1,0,0:0:0:0:
146,221,122334,1,0,0:0:0:0:
264,24,122623,5,2,0:0:0:0:
264,24,122767,2,0,L|344:40,1,82.4999974822999
464,100,123055,1,0,0:0:0:0:
464,100,123199,2,0,L|384:116,1,82.4999974822999,8|0,0:0|0:0,0:0:0:0:
312,172,123488,2,0,B|304:216|304:216|320:272,1,82.4999974822999,2|0,0:0|0:0,0:0:0:0:
400,288,123777,6,0,B|408:244|408:244|392:188,1,82.4999974822999
312,172,124065,2,0,P|268:164|224:176,1,82.4999974822999,2|0,0:0|0:0,0:0:0:0:
95,244,124354,1,8,0:0:0:0:
135,252,124498,1,0,0:0:0:0:
176,244,124642,1,0,0:0:0:0:
172,12,124930,6,0,B|132:40|132:40|138:155,1,164.9999949646,2|0,0:0|0:0,0:0:0:0:
176,244,125363,1,0,0:0:0:0:
176,244,125507,2,0,P|216:260|272:248,1,82.4999974822999,8|0,0:0|0:0,0:0:0:0:
227,169,125796,1,2,0:0:0:0:
338,312,126084,6,0,P|354:272|342:216,1,82.4999974822999
402,160,126373,2,0,P|362:144|306:156,1,82.4999974822999,2|0,0:0|0:0,0:0:0:0:
227,169,126661,1,8,0:0:0:0:
185,173,126805,1,0,0:0:0:0:
144,166,126949,1,0,0:0:0:0:
109,147,127093,1,0,0:0:0:0:
16,172,127238,5,2,0:3:0:0:
16,172,127382,2,0,L|20:256,1,68.75,2|0,0:3|0:3,0:3:0:0:
104,332,127671,5,2,0:3:0:0:
104,332,127815,2,0,L|100:248,1,68.75,2|0,0:3|0:3,0:3:0:0:
185,173,128104,5,2,0:3:0:0:
185,173,128248,2,0,L|189:257,1,68.75,2|0,0:3|0:3,0:3:0:0:
273,333,128536,5,2,0:3:0:0:
273,333,128680,2,0,L|269:249,1,68.75,2|0,0:3|0:3,0:3:0:0:
480,72,129546,6,0,P|444:60|400:72,1,61.8749981117249,2|0,0:0|0:0,0:0:0:0:
296,154,129834,2,0,P|325:165|356:164,1,61.8749981117249
345,18,130123,2,0,P|334:47|336:78,1,61.8749981117249,8|0,0:0|0:0,0:0:0:0:
430,207,130411,2,0,P|441:178|439:147,1,61.8749981117249,2|0,0:0|0:0,0:0:0:0:
337,78,130700,6,0,L|197:70,1,123.74999622345,0|2,0:0|0:0,0:0:0:0:
168,144,131132,1,0,0:0:0:0:
168,144,131277,2,0,L|256:156,1,61.8749981117249,8|0,0:0|0:0,0:0:0:0:
176,220,131565,1,0,0:0:0:0:
368,336,131854,6,0,B|374:307|374:307|366:275,1,61.8749981117249,2|0,0:0|0:0,0:0:0:0:
256,296,132142,2,0,B|249:324|249:324|257:356,1,61.8749981117249
427,266,132430,2,0,L|366:275,1,61.8749981117249,8|0,0:0|0:0,0:0:0:0:
300,184,132719,2,0,L|361:192,1,61.8749981117249,2|0,0:0|0:0,0:0:0:0:
300,100,133007,2,0,L|161:122,1,123.74999622345,0|2,0:0|0:0,0:0:0:0:
100,156,133440,1,0,0:0:0:0:
100,156,133584,2,0,P|92:188|104:224,1,61.8749981117249,8|0,0:0|0:0,0:0:0:0:
178,119,133873,1,0,0:0:0:0:
360,40,134161,5,2,0:0:0:0:
360,40,134450,1,0,0:0:0:0:
352,236,134738,1,0,0:0:0:0:
352,236,135027,1,2,0:0:0:0:
170,315,135315,6,0,P|108:316|56:272,1,123.74999622345,0|2,0:0|0:0,0:0:0:0:
224,244,135748,2,0,P|255:297|243:364,1,123.74999622345,0|2,0:0|0:0,0:0:0:0:
136,232,136180,2,0,P|148:196|184:168,1,61.8749981117249
252,164,136469,6,0,P|276:136|284:88,1,82.4999974822999,2|0,0:0|0:0,0:0:0:0:
108,48,137046,1,0,0:0:0:0:
284,8,137334,2,0,P|324:16|360:128,2,164.9999949646,2|0|0,0:0|0:0|0:0,0:0:0:0:
100,136,138777,6,0,B|96:180|96:180|108:220|108:220|104:276,1,123.74999622345,6|0,0:0|0:0,0:0:0:0:
96,344,139209,1,0,0:0:0:0:
96,344,139354,2,0,P|128:332|180:340,1,61.8749981117249,8|0,0:0|0:0,0:0:0:0:
240,352,139642,2,0,P|270:351|299:340,1,61.8749981117249,2|0,0:0|0:0,0:0:0:0:
348,268,139930,6,0,P|368:208|332:132,1,123.74999622345,0|2,0:0|0:0,0:0:0:0:
143,202,140507,6,0,B|206:223|210:191|265:207,1,123.74999622345,8|0,0:0|0:0,0:0:0:0:
348,268,141084,6,0,P|368:208|332:132,1,123.74999622345,2|0,0:0|0:0,0:0:0:0:
143,202,141661,2,0,P|123:262|159:338,1,123.74999622345,8|2,0:0|0:0,0:0:0:0:
216,360,142094,1,0,0:0:0:0:
216,360,142238,2,0,B|264:364|264:364|296:352|296:352|352:356,1,123.74999622345,0|2,0:0|0:0,0:0:0:0:
508,212,142815,2,0,B|460:216|460:216|428:204|428:204|372:208,1,123.74999622345,8|0,0:0|0:0,0:0:0:0:
300,216,143248,1,0,0:0:0:0:
231,262,143392,6,0,P|217:206|252:148,1,123.74999622345,2|0,0:0|0:0,0:0:0:0:
336,140,143825,1,0,0:0:0:0:
386,206,143969,2,0,P|399:261|365:320,1,123.74999622345,8|2,0:0|0:0,0:0:0:0:
281,328,144402,1,0,0:0:0:0:
231,262,144546,5,0,0:0:0:0:
217,227,144690,1,0,0:0:0:0:
220,191,144834,1,2,0:0:0:0:
238,159,144978,1,0,0:0:0:0:
152,164,145123,2,0,B|88:166|88:166|27:135,1,123.74999622345,8|0,0:0|0:0,0:0:0:0:
244,64,145700,6,0,B|307:61|307:61|368:92,1,123.74999622345,2|0,0:0|0:0,0:0:0:0:
432,144,146132,1,0,0:0:0:0:
432,144,146277,2,0,L|420:212,1,61.8749981117249,8|0,0:0|0:0,0:0:0:0:
356,260,146565,2,0,L|345:199,1,61.8749981117249,2|0,0:0|0:0,0:0:0:0:
264,228,146854,6,0,P|200:240|172:228,1,82.4999974822999
100,240,147286,2,0,P|121:178|146:160,1,82.4999974822999
216,148,147719,1,0,0:0:0:0:
432,208,148007,5,2,0:0:0:0:
272,364,148296,1,0,0:0:0:0:
263,327,148440,1,0,0:0:0:0:
254,291,148584,1,8,0:0:0:0:
245,255,148728,1,0,0:0:0:0:
236,220,148873,2,0,L|304:216,1,61.8749981117249,2|0,0:0|0:0,0:0:0:0:
364,160,149161,6,0,P|384:108|344:32,1,123.74999622345,0|2,0:0|0:0,0:0:0:0:
284,8,149594,1,0,0:0:0:0:
208,44,149738,2,0,B|140:72|148:32|68:60,1,123.74999622345,8|0,0:0|0:0,0:0:0:0:
40,128,150171,1,0,0:0:0:0:
116,172,150315,6,0,B|136:208|136:208|116:296,1,123.74999622345,2|0,0:0|0:0,0:0:0:0:
80,368,150748,1,0,0:0:0:0:
80,368,150892,2,0,P|116:376|152:365,1,61.8749981117249,8|0,0:0|0:0,0:0:0:0:
204,316,151180,2,0,P|234:311|263:320,1,61.8749981117249,2|0,0:0|0:0,0:0:0:0:
332,268,151469,6,0,P|348:224|324:140,1,123.74999622345,0|2,0:0|0:0,0:0:0:0:
168,204,152046,2,0,P|197:211|228:208,1,61.8749981117249,8|0,0:0|0:0,0:0:0:0:
204,124,152334,1,0,0:0:0:0:
12,280,152623,5,4,0:1:0:0:
12,280,152767,2,0,L|20:360,1,68.75,4|0,0:1|0:1,0:1:0:0:
88,244,153055,5,4,0:1:0:0:
88,244,153199,2,0,L|96:164,1,68.75,4|0,0:1|0:1,0:1:0:0:
164,280,153488,5,4,0:1:0:0:
164,280,153632,2,0,L|172:360,1,68.75,4|0,0:1|0:1,0:1:0:0:
240,244,153920,5,4,0:1:0:0:
240,244,154064,2,0,L|248:164,1,68.75,4|0,0:1|0:1,0:1:0:0:
260,52,154354,5,4,0:1:0:0:
260,52,154642,1,4,0:1:0:0:
488,148,154930,5,4,0:1:0:0:
488,148,155075,2,0,P|495:183|483:220,1,68.75,4|0,0:1|0:1,0:1:0:0:
448,332,155363,5,4,0:1:0:0:
448,332,155508,2,0,P|413:321|387:291,1,68.75,4|0,0:1|0:1,0:1:0:0:
300,216,155796,5,4,0:1:0:0:
300,216,155941,2,0,P|326:191|365:183,1,68.75,4|0,0:1|0:1,0:1:0:0:
312,296,156229,5,4,0:1:0:0:
312,296,156373,2,0,P|244:276|224:192,1,164.9999949646,4|4,0:1|0:3,0:0:0:0:
508,48,157238,6,0,B|456:40|456:40|400:52|400:52|340:40,1,164.9999949646,6|0,0:0|0:0,0:0:0:0:
264,0,157671,1,0,0:0:0:0:
264,0,157815,2,0,P|252:44|268:88,1,82.4999974822999,8|0,0:0|0:0,0:0:0:0:
336,128,158103,1,2,0:0:0:0:
356,296,158392,6,0,P|364:256|348:216,1,82.4999974822999
202,230,158680,2,0,P|232:257|272:264,1,82.4999974822999,2|0,0:0|0:0,0:0:0:0:
337,127,158969,1,8,0:0:0:0:
298,140,159113,1,0,0:0:0:0:
273,171,159257,1,0,0:0:0:0:
504,140,159546,5,2,0:0:0:0:
504,140,159690,2,0,L|508:52,1,82.4999974822999
387,18,159978,1,0,0:0:0:0:
387,18,160123,2,0,L|424:92,1,82.4999974822999,8|0,0:0|0:0,0:0:0:0:
368,164,160411,2,0,P|320:172|264:148,1,82.4999974822999,2|0,0:0|0:0,0:0:0:0:
144,99,160699,6,0,P|185:91|224:100,1,82.4999974822999
384,148,160988,2,0,P|336:156|280:132,1,82.4999974822999,2|0,0:0|0:0,0:0:0:0:
160,83,161276,1,8,0:0:0:0:
201,74,161420,1,0,0:0:0:0:
241,83,161564,1,0,0:0:0:0:
88,256,161853,5,2,0:0:0:0:
260,312,162142,1,0,0:0:0:0:
276,274,162286,1,0,0:0:0:0:
272,233,162430,2,0,P|269:192|284:154,1,82.4999974822999,8|0,0:0|0:0,0:0:0:0:
368,124,162719,2,0,P|371:165|356:203,1,82.4999974822999,2|0,0:0|0:0,0:0:0:0:
272,232,163007,6,0,B|232:240|232:240|180:236,1,82.4999974822999
128,172,163296,2,0,B|87:168|87:168|47:176,1,82.4999974822999,2|0,0:0|0:0,0:0:0:0:
190,237,163584,1,8,0:0:0:0:
213,202,163728,1,0,0:0:0:0:
218,162,163872,1,0,0:0:0:0:
205,123,164016,1,0,0:0:0:0:
288,72,164161,5,2,0:3:0:0:
288,72,164305,2,0,L|364:76,1,68.75,2|0,0:3|0:1,0:1:0:0:
456,152,164594,5,2,0:3:0:0:
456,152,164738,2,0,L|380:156,1,68.75,2|0,0:3|0:1,0:1:0:0:
288,228,165026,5,2,0:3:0:0:
288,228,165170,2,0,L|364:232,1,68.75,2|0,0:3|0:1,0:1:0:0:
456,308,165459,5,2,0:3:0:0:
456,308,165603,2,0,L|380:312,1,68.75,2|0,0:1|0:1,0:1:0:0:
264,316,165892,5,2,0:3:0:0:
264,316,166180,1,2,0:3:0:0:
100,68,166469,6,0,B|180:44|180:96|292:56,1,164.9999949646,6|0,0:0|0:0,0:0:0:0:
348,36,166901,1,0,0:0:0:0:
348,36,167046,2,0,P|352:84|332:120,1,82.4999974822999,8|0,0:0|0:0,0:0:0:0:
256,152,167334,1,2,0:0:0:0:
88,148,167623,6,0,L|4:168,1,82.4999974822999
68,236,167911,2,0,L|152:256,1,82.4999974822999,2|0,0:0|0:0,0:0:0:0:
256,152,168199,1,8,0:0:0:0:
216,161,168343,1,0,0:0:0:0:
176,171,168487,1,0,0:0:0:0:
408,184,168776,5,2,0:0:0:0:
408,184,168921,2,0,P|420:140|406:103,1,82.4999974822999
320,228,169209,1,0,0:0:0:0:
320,228,169354,2,0,P|309:271|323:308,1,82.4999974822999,8|0,0:0|0:0,0:0:0:0:
232,304,169642,2,0,L|136:296,1,82.4999974822999,2|0,0:0|0:0,0:0:0:0:
30,209,169930,6,0,L|112:216,1,82.4999974822999
212,324,170219,2,0,L|116:316,1,82.4999974822999,2|0,0:0|0:0,0:0:0:0:
10,229,170507,1,8,0:0:0:0:
52,232,170651,1,0,0:0:0:0:
93,235,170795,1,0,0:0:0:0:
324,256,171084,5,2,0:0:0:0:
500,200,171373,1,0,0:0:0:0:
495,159,171517,1,0,0:0:0:0:
489,118,171661,2,0,B|436:132|436:132|316:104,1,164.9999949646,8|2,0:0|0:0,0:0:0:0:
148,136,172238,6,0,L|230:122,1,82.4999974822999
268,40,172526,2,0,L|172:24,1,82.4999974822999,2|0,0:0|0:0,0:0:0:0:
100,60,172815,1,8,0:0:0:0:
73,90,172959,1,0,0:0:0:0:
61,129,173103,1,0,0:0:0:0:
67,170,173247,1,0,0:0:0:0:
120,252,173392,5,2,0:3:0:0:
120,252,173536,2,0,B|152:264|152:264|208:260,1,68.75,2|0,0:3|0:3,0:3:0:0:
296,316,173824,5,2,0:3:0:0:
296,316,173968,2,0,B|308:284|308:284|304:228,1,68.75,2|0,0:3|0:3,0:3:0:0:
360,136,174257,5,2,0:3:0:0:
360,136,174401,2,0,B|328:124|328:124|272:128,1,68.75,2|0,0:3|0:3,0:3:0:0:
184,72,174690,5,2,0:3:0:0:
184,72,174834,2,0,B|172:104|172:104|176:160,1,68.75,2|0,0:3|0:3,0:3:0:0:
476,352,175700,6,0,L|400:348,1,61.8749981117249,2|0,0:0|0:0,0:0:0:0:
332,272,175988,2,0,L|408:268,1,61.8749981117249
476,192,176276,2,0,L|400:188,1,61.8749981117249,8|0,0:0|0:0,0:0:0:0:
352,112,176565,2,0,L|428:108,1,61.8749981117249,2|0,0:0|0:0,0:0:0:0:
328,28,176853,6,0,P|282:60|268:127,1,123.74999622345,0|2,0:0|0:0,0:0:0:0:
324,204,177286,1,0,0:0:0:0:
324,204,177430,2,0,P|292:220|260:220,1,61.8749981117249,8|0,0:0|0:0,0:0:0:0:
192,180,177719,1,0,0:0:0:0:
4,40,178007,6,0,P|-4:80|8:112,1,61.8749981117249,2|0,0:0|0:0,0:0:0:0:
96,136,178296,2,0,P|104:96|92:64,1,61.8749981117249
12,188,178584,2,0,P|4:228|16:260,1,61.8749981117249,8|0,0:0|0:0,0:0:0:0:
104,284,178873,2,0,P|112:244|100:212,1,61.8749981117249,2|0,0:0|0:0,0:0:0:0:
48,352,179161,6,0,P|104:372|176:332,1,123.74999622345,0|2,0:0|0:0,0:0:0:0:
232,300,179594,1,0,0:0:0:0:
300,248,179738,2,0,P|312:216|304:176,1,61.8749981117249,8|0,0:0|0:0,0:0:0:0:
232,300,180026,1,0,0:0:0:0:
336,104,180315,6,0,L|256:116,1,61.8749981117249,2|0,0:0|0:0,0:0:0:0:
154,185,180604,2,0,L|216:176,1,61.8749981117249
224,48,180892,2,0,L|144:60,1,61.8749981117249,8|0,0:0|0:0,0:0:0:0:
42,129,181181,2,0,L|104:120,1,61.8749981117249,2|0,0:0|0:0,0:0:0:0:
154,185,181469,6,0,B|168:244|168:244|146:313,1,123.74999622345,0|2,0:0|0:0,0:0:0:0:
68,336,181902,1,0,0:0:0:0:
68,336,182046,2,0,B|54:277|54:277|76:208,1,123.74999622345,8|0,0:0|0:0,0:0:0:0:
239,175,182623,6,0,B|291:171|291:171|319:183|319:183|361:181,1,123.74999622345,2|0,0:0|0:0,0:0:0:0:
296,344,183200,1,8,0:0:0:0:
168,228,183488,6,0,P|152:168|223:88,2,164.9999949646,2|0|0,0:0|0:0|0:0,0:0:0:0:
480,72,184930,6,0,P|444:60|400:72,1,61.8749981117249,2|0,0:0|0:0,0:0:0:0:
296,154,185218,2,0,P|325:165|356:164,1,61.8749981117249
345,18,185507,2,0,P|334:47|336:78,1,61.8749981117249,8|0,0:0|0:0,0:0:0:0:
430,207,185795,2,0,P|441:178|439:147,1,61.8749981117249,2|0,0:0|0:0,0:0:0:0:
337,78,186084,6,0,L|197:70,1,123.74999622345,0|2,0:0|0:0,0:0:0:0:
168,144,186516,1,0,0:0:0:0:
168,144,186661,2,0,L|256:156,1,61.8749981117249,8|0,0:0|0:0,0:0:0:0:
176,220,186949,1,0,0:0:0:0:
368,336,187238,6,0,B|374:307|374:307|366:275,1,61.8749981117249,2|0,0:0|0:0,0:0:0:0:
256,296,187526,2,0,B|249:324|249:324|257:356,1,61.8749981117249
427,266,187814,2,0,L|366:275,1,61.8749981117249,8|0,0:0|0:0,0:0:0:0:
300,184,188103,2,0,L|361:192,1,61.8749981117249,2|0,0:0|0:0,0:0:0:0:
300,100,188391,6,0,L|161:122,1,123.74999622345,0|2,0:0|0:0,0:0:0:0:
100,156,188824,1,0,0:0:0:0:
100,156,188968,2,0,P|92:188|104:224,1,61.8749981117249,8|0,0:0|0:0,0:0:0:0:
178,119,189257,1,0,0:0:0:0:
360,40,189545,5,2,0:0:0:0:
360,40,189834,1,0,0:0:0:0:
352,236,190122,1,0,0:0:0:0:
352,236,190411,1,2,0:0:0:0:
170,315,190699,6,0,P|108:316|56:272,1,123.74999622345,0|2,0:0|0:0,0:0:0:0:
224,244,191132,2,0,P|255:297|243:364,1,123.74999622345,0|2,0:0|0:0,0:0:0:0:
136,232,191564,2,0,P|148:196|184:168,1,61.8749981117249
252,164,191854,6,0,P|276:136|284:88,1,82.4999974822999,2|0,0:0|0:0,0:0:0:0:
108,48,192431,1,0,0:0:0:0:
284,8,192719,2,0,P|324:16|360:128,2,164.9999949646,2|0|0,0:0|0:0|0:0,0:0:0:0:
