osu file format v14

[General]
AudioFilename: audio.mp3
AudioLeadIn: 0
PreviewTime: 39361
Countdown: 0
SampleSet: Soft
StackLeniency: 0.3
Mode: 0
LetterboxInBreaks: 0
WidescreenStoryboard: 0

[Editor]
DistanceSpacing: 1.3
BeatDivisor: 6
GridSize: 4
TimelineZoom: 2

[Metadata]
Title:TOUCH
TitleUnicode:TOUCH
Artist:NCT 127
ArtistUnicode:엔시티 127
Creator:FunnyA
Version:Hard
Source:
Tags:The First Album NCT 2018 Empathy Neo Culture Technology Moon Tae Il 문태일 Taeil 태일 John Suh Seo Young Ho 서영호 Johnny 쟈니 Lee Tae Yong 이태용 Taeyeong 태용 Nakamoto Yuta 中本悠太 유타 Kim Dong Young 김동영 Doyoung 도영 Jung Yoon Oh 정윤오 Jaehyun 재현 Dong Sicheng 董思成 Winwin 윈윈 Mark Lee 마크 리 Lee Min Hyung 이민형 Lee Dong Hyuk 이동혁 Haechan 해찬 NCTzen SM Entertaintment Korean Song Rap Dance K-pop Kpop ulfanirahmi
BeatmapID:1599127
BeatmapSetID:749599

[Difficulty]
HPDrainRate:5
CircleSize:4
OverallDifficulty:5.5
ApproachRate:7
SliderMultiplier:2.1
SliderTickRate:1

[Events]
//Background and Video events
0,0,"TOUCH 4.jpg",0,0
Video,0,"NCT 127 ___ 127 TOUCH MV.avi"
//Break Periods
2,71055,79112
//Storyboard Layer 0 (Background)
//Storyboard Layer 1 (Fail)
//Storyboard Layer 2 (Pass)
//Storyboard Layer 3 (Foreground)
//Storyboard Layer 4 (Overlay)
//Storyboard Sound Samples

[TimingPoints]
732.536246493689,645.161290322581,4,2,1,80,1,0
39442,-83.3333333333333,4,2,2,90,0,1
39764,-83.3333333333333,4,2,1,90,0,1
39979,-83.3333333333333,4,2,1,5,0,1
40087,-83.3333333333333,4,2,1,90,0,1
41270,-83.3333333333333,4,2,1,5,0,1
41377,-83.3333333333333,4,2,1,90,0,1
50302,-83.3333333333333,4,2,1,5,0,1
50409,-83.3333333333333,4,2,1,90,0,1
55463,-83.3333333333333,4,2,1,5,0,1
55571,-83.3333333333333,4,2,1,90,0,1
56754,-83.3333333333333,4,2,1,5,0,1
56861,-83.3333333333333,4,2,1,90,0,1
59764,-83.3333333333333,4,2,1,90,0,0
60087,-100,4,2,2,90,0,1
60409,-100,4,2,1,80,0,0
69119,-83.3333333333333,4,2,1,80,0,0
70409,-100,4,2,5,80,0,0
80087,-100,4,2,1,80,0,0
80732,-100,4,2,1,25,0,0
81377,-100,4,2,1,30,0,0
82022,-100,4,2,1,35,0,0
82668,-100,4,2,1,40,0,0
83313,-100,4,2,1,45,0,0
83958,-100,4,2,1,50,0,0
84603,-100,4,2,1,55,0,0
85248,-100,4,2,1,60,0,0
85893,-100,4,2,1,65,0,0
86538,-100,4,2,1,70,0,0
87184,-100,4,2,1,75,0,0
87829,-100,4,2,1,80,0,0
88474,-100,4,2,1,80,0,0
91055,-83.3333333333333,4,2,2,90,0,1
91377,-83.3333333333333,4,2,1,90,0,1
91592,-83.3333333333333,4,2,1,5,0,1
91700,-83.3333333333333,4,2,1,90,0,1
92883,-83.3333333333333,4,2,1,5,0,1
92990,-83.3333333333333,4,2,1,90,0,1
101915,-83.3333333333333,4,2,1,5,0,1
102022,-83.3333333333333,4,2,1,90,0,1
107076,-83.3333333333333,4,2,1,5,0,1
107184,-83.3333333333333,4,2,1,90,0,1
108366,-83.3333333333333,4,2,1,5,0,1
108474,-83.3333333333333,4,2,1,90,0,1
111377,-83.3333333333333,4,2,1,90,0,0
111700,-100,4,2,2,90,0,1
112022,-100,4,2,1,80,0,0
120732,-83.3333333333333,4,2,1,80,0,0
122022,-125,4,2,1,80,0,0
140087,-83.3333333333333,4,2,1,80,0,0
141915,-83.3333333333333,4,2,1,5,0,0
142022,-83.3333333333333,4,2,1,80,0,0
144603,-71.4285714285714,4,2,1,80,0,0
145248,-100,4,2,2,90,0,1
145571,-100,4,2,1,80,0,0
145786,-100,4,2,1,5,0,0
145893,-100,4,2,1,80,0,0
147076,-100,4,2,1,5,0,0
147184,-100,4,2,1,80,0,0
148366,-100,4,2,1,5,0,0
148474,-100,4,2,1,80,0,0
149979,-100,4,2,2,80,0,0
150409,-83.3333333333333,4,2,2,90,0,1
150732,-83.3333333333333,4,2,1,90,0,1
156108,-83.3333333333333,4,2,1,5,0,1
156216,-83.3333333333333,4,2,1,90,0,1
161270,-83.3333333333333,4,2,1,5,0,1
161377,-83.3333333333333,4,2,1,90,0,1
162560,-83.3333333333333,4,2,1,5,0,1
162668,-83.3333333333333,4,2,1,90,0,1
165571,-100,4,2,1,90,0,0
165893,-100,4,2,2,90,0,1
166216,-100,4,2,1,80,0,0
174603,-83.3333333333333,4,2,1,80,0,0
176216,-125,4,2,1,80,0,0
176754,-125,4,2,1,5,0,0
176861,-100,4,2,2,90,0,1
177184,-100,4,2,1,80,0,0
185248,-83.3333333333333,4,2,1,80,0,0

[Colours]
Combo1 : 204,58,69
Combo2 : 160,102,65
Combo3 : 214,158,152
Combo4 : 75,51,46
Combo5 : 95,101,97

[HitObjects]
80,96,732,5,2,0:3:0:0:
204,40,1055,2,0,P|244:32|284:40,1,70,0|0,0:3|0:3,0:3:0:0:
312,56,1377,1,2,0:3:0:0:
372,180,1700,2,0,B|376:216|376:216|364:252,1,70,0|0,0:3|0:3,0:3:0:0:
348,292,2022,5,2,0:3:0:0:
212,284,2345,2,0,L|132:276,1,70,0|0,0:3|0:3,0:3:0:0:
96,272,2668,1,2,0:3:0:0:
44,160,2990,2,0,L|124:152,1,70,0|0,0:3|0:3,0:3:0:0:
160,148,3313,5,2,0:3:0:0:
292,108,3635,2,0,P|300:148|292:192,1,70,0|0,0:3|0:3,0:3:0:0:
272,216,3958,2,0,P|269:250|276:284,1,70,8|0,0:3|0:3,0:3:0:0:
308,316,4280,1,0,0:3:0:0:
172,296,4603,1,2,0:3:0:0:
76,200,4926,2,0,L|156:192,1,70,0|0,0:3|0:3,0:3:0:0:
176,160,5248,2,0,L|256:152,1,70,8|0,0:3|0:3,0:3:0:0:
280,124,5571,1,0,0:3:0:0:
384,212,5893,5,2,0:3:0:0:
480,112,6216,2,0,P|484:68|476:32,1,70,0|0,0:3|0:3,0:3:0:0:
436,24,6538,2,0,L|356:20,1,70,8|0,0:3|0:3,0:3:0:0:
324,32,6861,1,0,0:3:0:0:
220,120,7184,1,2,0:3:0:0:
120,212,7506,1,2,0:3:0:0:
248,260,7829,1,8,0:3:0:0:
348,168,8151,1,0,0:3:0:0:
220,120,8474,6,0,B|184:120|184:120|156:108|156:108|116:108,1,105,2|0,0:3|0:3,0:3:0:0:
28,212,9119,2,0,P|16:260|40:324,1,105,8|0,0:3|0:3,0:3:0:0:
116,344,9657,1,2,0:3:0:0:
116,344,9764,2,0,B|224:380|224:320|324:356,1,210,2|8,0:3|0:3,0:3:0:0:
476,188,10947,5,2,0:3:0:0:
476,188,11055,2,0,L|464:112,1,70,2|0,0:3|0:3,0:3:0:0:
428,96,11377,2,0,P|384:92|352:104,1,70,0|0,0:3|0:3,0:3:0:0:
324,128,11700,2,0,P|290:136|255:131,1,70,8|0,0:3|0:3,0:3:0:0:
220,100,12022,1,0,0:3:0:0:
136,132,12237,1,2,0:3:0:0:
136,132,12345,2,0,B|144:208|144:208|128:256|128:256|144:344,1,210,2|8,0:3|0:3,0:3:0:0:
364,288,13528,5,0,0:3:0:0:
364,288,13635,2,0,P|328:280|292:288,1,70,2|0,0:3|0:3,0:3:0:0:
256,264,13958,2,0,P|249:229|257:195,1,70,0|0,0:3|0:3,0:3:0:0:
292,164,14280,2,0,P|299:130|293:95,1,70,8|0,0:3|0:3,0:3:0:0:
260,64,14603,1,0,0:3:0:0:
168,72,14818,1,2,0:3:0:0:
168,72,14926,2,0,B|24:84|24:84|84:124,1,210,2|8,0:3|0:3,0:3:0:0:
300,168,16108,5,2,0:3:0:0:
300,168,16216,2,0,B|444:156|444:156|384:116,1,210,2|8,0:3|0:3,0:3:0:0:
164,132,17399,1,2,0:3:0:0:
164,132,17506,2,0,P|156:180|188:244,1,105,2|2,0:3|0:3,0:3:0:0:
256,340,18151,1,8,0:3:0:0:
364,256,18474,2,0,P|408:248|448:264,1,70,0|0,0:3|0:3,0:3:0:0:
464,220,18797,6,0,P|476:172|448:100,1,105,2|0,0:3|0:3,0:3:0:0:
387,68,19334,1,0,0:3:0:0:
387,68,19442,2,0,L|307:80,1,70,8|0,0:3|0:3,0:3:0:0:
285,46,19764,2,0,L|205:58,1,70,0|2,0:3|0:3,0:3:0:0:
193,96,20087,2,0,B|183:148|183:148|198:205,1,105,2|0,0:3|0:3,0:3:0:0:
237,328,20732,1,8,0:3:0:0:
104,295,21055,2,0,P|56:291|24:299,1,70,0|2,0:3|0:3,0:3:0:0:
24,251,21377,6,0,L|8:171,1,70,2|0,0:3|0:3,0:3:0:0:
44,155,21700,2,0,L|57:86,1,70,0|0,0:3|0:3,0:3:0:0:
100,71,22022,1,8,0:3:0:0:
232,115,22345,2,0,P|272:119|308:107,1,70,0|2,0:3|0:3,0:3:0:0:
340,91,22668,2,0,L|329:224,1,105,2|0,0:3|0:3,0:3:0:0:
243,300,23313,2,0,P|319:280|415:320,1,175,8|0,0:3|0:3,0:3:0:0:
443,288,23958,6,0,B|453:143|453:143|423:76,1,210,2|8,0:3|0:3,0:3:0:0:
291,64,24926,2,0,P|251:72|219:64,1,70,0|2,0:3|0:3,0:3:0:0:
187,40,25248,2,0,P|131:28|71:48,1,105,2|0,0:3|0:3,0:3:0:0:
31,112,25786,1,0,0:3:0:0:
31,112,25893,2,0,L|35:192,1,70,8|0,0:3|0:3,0:3:0:0:
159,236,26431,5,2,0:3:0:0:
159,236,26538,2,0,P|215:248|275:228,1,105,2|0,0:3|0:3,0:3:0:0:
339,192,27076,1,0,0:3:0:0:
339,192,27184,2,0,P|351:232|343:268,1,70,8|0,0:3|0:3,0:3:0:0:
331,300,27506,1,0,0:3:0:0:
247,332,27721,1,2,0:3:0:0:
247,332,27829,1,2,0:3:0:0:
111,336,28151,1,2,0:3:0:0:
31,224,28474,2,0,P|19:168|31:120,1,105,8|0,0:3|0:3,0:3:0:0:
151,56,29119,6,0,L|235:52,1,70,2|0,0:3|0:3,0:3:0:0:
259,76,29442,1,0,0:3:0:0:
311,200,29764,2,0,B|319:252|319:252|311:308,1,105,8|0,0:3|0:3,0:3:0:0:
227,336,30302,1,2,0:3:0:0:
227,336,30409,2,0,B|159:330|159:330|110:289|110:289|30:282,1,210,2|8,0:3|0:3,0:3:0:0:
55,56,31592,5,2,0:3:0:0:
55,56,31700,2,0,L|146:64,1,70,2|0,0:3|0:3,0:3:0:0:
151,100,32022,1,0,0:3:0:0:
267,172,32345,2,0,P|306:183|371:165,1,105,8|0,0:3|0:3,0:3:0:0:
431,104,32883,1,2,0:3:0:0:
431,104,32990,1,2,0:3:0:0:
311,40,33313,1,0,0:3:0:0:
203,120,33635,2,0,P|187:160|211:236,1,105,8|0,0:3|0:3,0:3:0:0:
307,300,34280,6,0,P|211:268|120:324,1,210,2|8,0:3|0:3,0:3:0:0:
11,124,35463,1,2,0:3:0:0:
11,124,35571,2,0,L|123:116,1,105,2|0,0:3|0:3,0:3:0:0:
219,28,36216,2,0,L|323:20,1,105,8|0,0:3|0:3,0:3:0:0:
439,96,36861,5,2,0:3:0:0:
256,192,37076,8,0,38151,0:3:0:0:
256,192,38689,5,0,0:3:0:0:
256,192,38797,2,0,P|288:200|344:188,1,70,8|0,0:0|0:3,0:3:0:0:
368,184,39119,1,0,0:3:0:0:
232,92,39442,6,0,P|176:128|184:264,1,209.999993591309,12|0,0:0|0:3,0:3:0:0:
220,296,40087,1,4,0:3:0:0:
492,256,40625,1,2,0:3:0:0:
492,256,40732,2,0,B|412:244|412:244|376:212|376:212|296:200,1,209.999993591309,2|0,0:3|0:3,0:3:0:0:
272,152,41377,1,8,0:3:0:0:
28,32,41915,5,2,0:3:0:0:
28,32,42022,2,0,L|160:44,1,125.999996154785,2|0,0:3|0:3,0:3:0:0:
200,200,42668,2,0,P|212:248|200:288,1,83.9999974365235,4|0,0:3|0:3,0:3:0:0:
180,328,42990,1,0,0:3:0:0:
286,302,43205,1,2,0:3:0:0:
286,302,43313,2,0,P|342:286|414:306,1,125.999996154785,2|0,0:3|0:3,0:3:0:0:
382,194,43850,1,0,0:3:0:0:
382,194,43958,2,0,P|370:146|382:106,1,83.9999974365235,8|0,0:3|0:3,0:3:0:0:
162,142,44603,6,0,L|70:154,1,83.9999974365235,2|0,0:3|0:3,0:3:0:0:
38,118,44926,1,0,0:3:0:0:
171,23,45248,2,0,L|299:31,1,125.999996154785,4|0,0:3|0:3,0:3:0:0:
351,127,45786,1,2,0:3:0:0:
351,127,45893,2,0,P|367:179|347:259,1,125.999996154785,2|0,0:3|0:3,0:3:0:0:
203,311,46538,2,0,P|187:259|207:179,1,125.999996154785,8|0,0:3|0:3,0:3:0:0:
247,91,47076,5,2,0:3:0:0:
247,91,47184,2,0,P|203:99|155:87,1,83.9999974365235,2|0,0:3|0:3,0:3:0:0:
135,47,47506,2,0,P|93:39|52:47,1,83.9999974365235,0|0,0:3|0:3,0:3:0:0:
19,91,47829,2,0,B|11:151|11:151|23:219,1,125.999996154785,4|0,0:3|0:3,0:3:0:0:
99,267,48366,1,2,0:3:0:0:
99,267,48474,1,2,0:3:0:0:
231,231,48797,1,2,0:3:0:0:
383,175,49119,2,0,P|395:219|383:275,2,83.9999974365235,8|0|0,0:3|0:0|0:0,0:0:0:0:
319,87,49764,6,0,B|239:91|239:91|199:115|199:115|115:119,1,209.999993591309,2|0,0:3|0:3,0:3:0:0:
83,75,50409,1,4,0:3:0:0:
195,323,50947,1,2,0:3:0:0:
195,323,51055,2,0,L|335:319,1,125.999996154785,2|0,0:3|0:3,0:3:0:0:
411,183,51700,2,0,P|423:139|407:83,1,83.9999974365235,8|0,0:3|0:3,0:3:0:0:
391,55,52022,1,0,0:3:0:0:
315,135,52237,5,2,0:3:0:0:
315,135,52345,2,0,B|251:147|251:147|191:135,1,125.999996154785,2|0,0:3|0:3,0:3:0:0:
39,75,52990,2,0,B|27:135|27:135|39:199,1,125.999996154785,4|0,0:3|0:3,0:3:0:0:
107,283,53528,1,2,0:3:0:0:
107,283,53635,2,0,B|175:303|171:271|231:287,1,125.999996154785,2|0,0:3|0:3,0:3:0:0:
323,351,54173,1,0,0:3:0:0:
323,351,54280,2,0,L|327:263,1,83.9999974365235,8|0,0:3|0:3,0:3:0:0:
303,219,54603,1,0,0:3:0:0:
223,75,54926,6,0,P|283:51|419:103,1,209.999993591309,2|0,0:3|0:3,0:3:0:0:
439,147,55571,1,4,0:3:0:0:
235,327,56108,1,2,0:3:0:0:
235,327,56216,2,0,P|175:351|39:299,1,209.999993591309,2|0,0:3|0:3,0:3:0:0:
19,255,56861,1,8,0:3:0:0:
207,55,57399,5,2,0:3:0:0:
207,55,57506,2,0,P|251:47|299:59,1,83.9999974365235,2|0,0:3|0:3,0:3:0:0:
327,91,57829,2,0,P|368:98|409:90,1,83.9999974365235,0|0,0:3|0:3,0:3:0:0:
451,123,58151,2,0,B|463:183|463:183|451:251,1,125.999996154785,4|0,0:3|0:3,0:3:0:0:
363,311,58689,1,2,0:3:0:0:
363,311,58797,2,0,B|351:251|351:251|363:183,1,125.999996154785,2|2,0:3|0:3,0:3:0:0:
255,215,59334,1,0,0:3:0:0:
255,215,59442,2,0,P|199:223|135:191,1,125.999996154785,8|0,0:3|0:3,0:3:0:0:
67,79,60087,5,12,0:0:0:0:
11,203,60409,2,0,L|19:283,1,70,0|0,0:3|0:3,0:3:0:0:
63,283,60732,2,0,L|71:363,1,70,8|0,0:3|0:3,0:3:0:0:
115,363,61055,1,0,0:3:0:0:
247,327,61377,1,2,0:3:0:0:
283,195,61700,2,0,P|247:187|211:195,1,70,0|0,0:3|0:3,0:3:0:0:
187,159,62022,2,0,P|180:124|188:90,1,70,8|0,0:3|0:3,0:3:0:0:
223,59,62345,1,0,0:3:0:0:
359,67,62668,5,2,0:3:0:0:
455,163,62990,2,0,B|463:199|463:199|455:235,1,70,0|0,0:3|0:3,0:3:0:0:
423,263,63313,2,0,B|415:295|415:295|423:331,1,70,8|0,0:3|0:3,0:3:0:0:
455,367,63635,1,0,0:3:0:0:
319,355,63958,1,2,0:3:0:0:
215,267,64280,1,0,0:3:0:0:
319,175,64603,1,8,0:3:0:0:
423,263,64925,1,0,0:3:0:0:
319,355,65248,5,2,0:3:0:0:
215,267,65571,2,0,L|139:255,1,70,0|0,0:3|0:3,0:3:0:0:
123,215,65893,2,0,L|47:203,1,70,8|0,0:3|0:3,0:3:0:0:
35,163,66216,1,0,0:3:0:0:
123,59,66538,1,2,0:3:0:0:
255,91,66861,2,0,P|295:95|327:83,1,70,0|0,0:3|0:3,0:3:0:0:
363,67,67184,2,0,B|375:123|375:123|367:179,1,105,8|0,0:3|0:3,0:3:0:0:
255,243,67829,6,0,B|248:290|248:290|260:346,1,105,2|0,0:3|0:3,0:3:0:0:
395,363,68474,1,8,0:3:0:0:
483,259,68797,2,0,L|487:191,1,52.5,0|2,0:3|0:3,0:3:0:0:
463,127,69119,5,2,0:3:0:0:
395,83,69280,1,2,0:3:0:0:
315,79,69441,1,2,0:3:0:0:
243,115,69602,1,2,0:3:0:0:
203,187,69764,2,0,P|175:199|135:199,1,62.9999980773926,8|2,0:3|0:3,0:3:0:0:
103,131,70087,2,0,P|131:119|171:119,1,62.9999980773926,2|0,0:3|0:3,0:3:0:0:
243,115,70409,5,2,0:0:0:0:
48,56,80087,5,2,0:0:0:0:
148,148,80409,2,0,P|156:188|140:236,1,70,0|0,0:3|0:3,0:3:0:0:
116,244,80732,6,0,P|110:278|118:312,2,70,2|0|0,0:3|0:3|0:3,0:3:0:0:
204,272,81377,2,0,P|268:272|324:236,1,105,8|0,0:3|0:3,0:3:0:0:
360,184,81915,1,2,0:3:0:0:
360,184,82022,2,0,B|372:112|372:112|348:40,1,140,2|0,0:3|0:3,0:3:0:0:
260,28,82668,1,8,0:3:0:0:
148,104,82990,1,0,0:3:0:0:
76,220,83313,6,0,L|88:304,2,70,2|0|0,0:3|0:3|0:3,0:3:0:0:
164,236,83958,2,0,L|176:320,2,70,8|0|0,0:3|0:3|0:3,0:3:0:0:
184,196,84495,1,2,0:3:0:0:
184,196,84603,2,0,B|248:176|248:176|328:196,1,140,2|0,0:3|0:3,0:3:0:0:
380,260,85248,2,0,B|316:280|316:280|236:260,1,140,8|0,0:3|0:3,0:3:0:0:
184,196,85893,6,0,B|168:104|168:104|200:56,1,140,2|0,0:3|0:3,0:3:0:0:
276,32,86538,1,8,0:3:0:0:
380,120,86861,2,0,P|424:124|456:112,1,70,0|2,0:3|0:3,0:3:0:0:
484,92,87184,1,2,0:3:0:0:
440,220,87506,2,0,L|436:296,1,70,0|0,0:3|0:3,0:3:0:0:
392,300,87829,2,0,L|380:375,1,70,8|0,0:3|0:3,0:3:0:0:
244,356,88366,5,2,0:3:0:0:
244,356,88474,1,2,0:3:0:0:
76,240,88958,1,0,0:0:0:0:
108,164,89119,2,0,P|112:132|100:100,1,52.5,8|0,0:0|0:0,0:0:0:0:
64,40,89442,1,0,0:0:0:0:
232,52,89764,2,0,L|300:56,1,52.5,0|0,0:3|0:3,0:3:0:0:
364,88,90087,2,0,L|432:92,1,52.5,0|0,0:3|0:3,0:3:0:0:
492,132,90409,2,0,B|500:184|500:184|488:240,1,105,8|0,0:0|0:3,0:3:0:0:
336,300,91055,6,0,B|256:312|256:312|212:292|212:292|128:308,1,209.999993591309,12|0,0:0|0:3,0:3:0:0:
80,320,91700,1,4,0:3:0:0:
228,92,92237,1,2,0:3:0:0:
228,92,92345,2,0,B|308:80|308:80|352:100|352:100|436:84,1,209.999993591309,2|0,0:3|0:3,0:3:0:0:
484,72,92990,1,8,0:3:0:0:
392,208,93313,2,0,P|384:256|396:292,1,83.9999974365235,0|2,0:3|0:3,0:3:0:0:
344,272,93635,6,0,P|296:260|224:284,1,125.999996154785,2|0,0:3|0:3,0:3:0:0:
76,348,94280,2,0,P|61:305|69:255,1,83.9999974365235,4|0,0:3|0:3,0:3:0:0:
88,216,94603,1,0,0:3:0:0:
180,156,94818,1,2,0:3:0:0:
180,156,94926,2,0,L|312:148,1,125.999996154785,2|0,0:3|0:3,0:3:0:0:
340,44,95463,1,0,0:3:0:0:
340,44,95571,2,0,L|244:48,1,83.9999974365235,8|0,0:3|0:3,0:3:0:0:
352,244,96216,6,0,L|435:240,1,83.9999974365235,2|0,0:3|0:3,0:3:0:0:
460,192,96538,1,0,0:3:0:0:
305,148,96861,2,0,L|179:155,1,125.999996154785,4|0,0:3|0:3,0:3:0:0:
88,216,97399,1,2,0:3:0:0:
88,216,97506,2,0,P|72:284|100:344,1,125.999996154785,2|0,0:3|0:3,0:3:0:0:
247,362,98151,2,0,P|263:294|235:234,1,125.999996154785,8|0,0:3|0:3,0:3:0:0:
179,154,98689,5,2,0:3:0:0:
179,154,98797,2,0,P|168:104|176:68,1,83.9999974365235,2|0,0:3|0:3,0:3:0:0:
216,40,99119,2,0,P|260:32|300:40,1,83.9999974365235,0|0,0:3|0:3,0:3:0:0:
340,72,99442,2,0,P|404:88|468:68,1,125.999996154785,4|0,0:3|0:3,0:3:0:0:
448,180,99979,1,2,0:3:0:0:
448,180,100087,1,2,0:3:0:0:
308,264,100409,1,2,0:3:0:0:
148,232,100732,2,0,P|140:280|152:316,2,83.9999974365235,8|0|0,0:3|0:3|0:3,0:3:0:0:
208,140,101377,6,0,B|316:108|316:164|416:128,1,209.999993591309,2|0,0:3|0:3,0:3:0:0:
460,100,102022,1,4,0:3:0:0:
192,48,102560,1,2,0:3:0:0:
192,48,102668,2,0,P|140:72|116:144,1,125.999996154785,2|0,0:3|0:3,0:3:0:0:
232,248,103313,2,0,L|328:244,1,83.9999974365235,8|0,0:3|0:3,0:3:0:0:
363,218,103635,1,0,0:3:0:0:
453,157,103850,5,2,0:3:0:0:
453,157,103958,2,0,P|472:216|447:288,1,125.999996154785,2|0,0:3|0:3,0:3:0:0:
318,363,104603,2,0,P|299:304|324:232,1,125.999996154785,4|0,0:3|0:3,0:3:0:0:
352,140,105141,1,2,0:3:0:0:
352,140,105248,2,0,L|220:144,1,125.999996154785,2|0,0:3|0:3,0:3:0:0:
124,108,105786,1,0,0:3:0:0:
124,108,105893,2,0,P|116:152|132:196,1,83.9999974365235,8|0,0:3|0:3,0:3:0:0:
160,232,106216,1,0,0:3:0:0:
288,336,106538,6,0,P|348:360|484:308,1,209.999993591309,2|0,0:3|0:3,0:3:0:0:
504,264,107184,1,4,0:3:0:0:
300,84,107720,1,2,0:3:0:0:
300,84,107828,2,0,P|240:60|104:112,1,209.999993591309,2|0,0:3|0:3,0:3:0:0:
84,156,108473,1,8,0:3:0:0:
288,336,109012,5,2,0:3:0:0:
288,336,109119,2,0,L|292:244,1,83.9999974365235,2|0,0:3|0:3,0:3:0:0:
336,220,109442,2,0,L|340:128,1,83.9999974365235,0|0,0:3|0:3,0:3:0:0:
388,112,109764,1,4,0:3:0:0:
204,32,110087,2,0,P|170:26|136:36,1,62.9999980773926,0|2,0:3|0:3,0:3:0:0:
80,84,110409,5,2,0:3:0:0:
56,162,110570,1,2,0:3:0:0:
64,243,110731,1,2,0:3:0:0:
101,315,110892,1,2,0:3:0:0:
180,340,111055,2,0,P|214:346|248:336,1,62.9999980773926,8|2,0:3|0:3,0:3:0:0:
208,264,111377,1,2,0:3:0:0:
152,140,111700,6,0,P|204:128|264:140,1,105,12|0,0:0|0:3,0:3:0:0:
332,184,112237,1,0,0:3:0:0:
332,184,112345,2,0,P|368:192|408:180,1,70,8|0,0:3|0:3,0:3:0:0:
440,164,112668,1,0,0:3:0:0:
484,244,112883,1,2,0:3:0:0:
484,244,112990,2,0,B|496:296|496:296|484:352,1,105,2|0,0:3|0:3,0:3:0:0:
356,304,113635,2,0,L|281:308,1,70,8|0,0:3|0:3,0:3:0:0:
244,288,113958,1,0,0:3:0:0:
148,192,114280,6,0,B|136:140|136:140|148:84,1,105,2|0,0:3|0:3,0:3:0:0:
232,64,114818,1,0,0:3:0:0:
232,64,114926,2,0,P|268:72|304:64,1,70,8|0,0:3|0:3,0:3:0:0:
340,44,115248,1,0,0:3:0:0:
400,112,115463,1,2,0:3:0:0:
400,112,115571,2,0,L|388:196,1,70,2|0,0:3|0:3,0:3:0:0:
352,204,115893,2,0,L|340:288,1,70,0|0,0:3|0:3,0:3:0:0:
304,296,116216,2,0,P|260:308|192:288,1,105,8|0,0:3|0:3,0:3:0:0:
152,168,116861,6,0,P|196:156|264:176,1,105,2|0,0:3|0:3,0:3:0:0:
324,112,117399,1,0,0:3:0:0:
324,112,117506,2,0,P|332:68|320:36,1,70,8|0,0:3|0:3,0:3:0:0:
296,8,117829,1,0,0:3:0:0:
204,20,118044,1,2,0:3:0:0:
204,20,118151,2,0,L|72:28,1,105,2|0,0:3|0:3,0:3:0:0:
8,128,118797,2,0,L|140:136,1,105,8|0,0:3|0:3,0:3:0:0:
217,222,119442,6,0,P|229:270|209:338,1,105,2|0,0:3|0:3,0:3:0:0:
93,270,120087,1,8,0:3:0:0:
112,134,120409,2,0,P|116:103|105:72,1,52.5,0|2,0:3|0:3,0:3:0:0:
171,27,120732,5,2,0:3:0:0:
245,60,120893,1,2,0:3:0:0:
326,61,121054,1,2,0:3:0:0:
401,30,121215,1,2,0:3:0:0:
456,92,121377,2,0,L|459:157,1,62.9999980773926,8|2,0:3|0:3,0:3:0:0:
508,220,121700,1,2,0:3:0:0:
408,296,122022,6,0,P|368:304|312:288,1,84,4|0,0:0|0:0,0:0:0:0:
240,204,122668,2,0,P|199:195|158:203,1,84,8|0,0:0|0:0,0:0:0:0:
80,236,123205,1,0,0:0:0:0:
80,236,123313,2,0,L|72:168,1,56
96,144,123635,2,0,L|88:76,1,56,0|0,0:0|0:0,0:0:0:0:
116,56,123958,2,0,P|156:64|197:56,1,84,8|0,0:0|0:0,0:0:0:0:
320,28,124603,6,0,P|360:20|401:28,1,84,0|0,0:0|0:0,0:0:0:0:
360,148,125248,2,0,P|352:188|360:229,1,84,8|0,0:0|0:0,0:0:0:0:
408,300,125786,1,0,0:0:0:0:
408,300,125893,2,0,L|348:308,1,56,0|0,0:0|0:0,0:0:0:0:
320,336,126216,2,0,L|260:344,1,56,0|0,0:0|0:0,0:0:0:0:
224,328,126538,2,0,P|184:320|136:332,1,84,8|0,0:0|0:0,0:0:0:0:
60,232,127184,6,0,B|44:148|44:148|64:64,1,168,0|8,0:0|0:0,0:0:0:0:
184,36,128151,1,0,0:0:0:0:
304,68,128474,2,0,B|320:152|320:152|300:236,1,168,0|8,0:0|0:0,0:0:0:0:
184,276,129442,1,0,0:0:0:0:
276,360,129764,6,0,P|320:364|360:348,1,84,0|0,0:0|0:0,0:0:0:0:
436,252,130409,2,0,P|440:208|424:168,1,84,8|0,0:0|0:0,0:0:0:0:
334,87,131055,2,0,P|290:83|250:99,1,84,0|0,0:0|0:0,0:0:0:0:
174,195,131700,2,0,P|170:239|186:279,1,84,8|0,0:0|0:0,0:0:0:0:
276,360,132345,6,0,P|320:364|360:348,2,84,0|0|8,0:0|0:0|0:0,0:0:0:0:
183,275,133313,2,0,P|139:271|99:287,1,84,0|0,0:0|0:0,0:0:0:0:
12,196,133958,1,0,0:0:0:0:
132,156,134280,2,0,P|136:112|120:72,1,84,8|0,0:0|0:0,0:0:0:0:
236,16,134926,6,0,P|260:84|252:184,1,168,0|8,0:0|0:0,0:0:0:0:
204,296,135893,1,0,0:0:0:0:
320,244,136216,2,0,P|364:236|408:248,1,84,0|0,0:0|0:0,0:0:0:0:
508,316,136861,1,8,0:0:0:0:
496,192,137184,6,0,L|484:92,1,84
388,32,137829,2,0,L|377:115,1,84,0|8,0:0|0:0,0:0:0:0:
264,168,138474,2,0,B|180:192|180:144|96:164,1,168,0|0,0:0|0:0,0:0:0:0:
28,268,139442,2,0,P|64:288|112:288,1,84,8|0,0:0|0:0,0:0:0:0:
268,256,140087,6,0,P|309:257|346:277,2,84,6|0|0,0:1|0:1|0:1,0:1:0:0:
172,208,140732,2,0,P|151:171|150:129,2,84,6|0|0,0:1|0:1|0:1,0:1:0:0:
256,140,141377,2,0,P|352:100|464:136,1,209.999993591309,6|0,0:1|0:1,0:1:0:0:
492,160,142022,1,10,0:1:0:0:
133,258,144603,6,0,P|46:214|144:152,1,244.999992523194,4|0,0:3|0:3,0:3:0:0:
167,169,145248,6,0,P|211:185|327:137,1,175,12|0,0:0|0:0,0:0:0:0:
353,104,145893,1,0,0:0:0:0:
353,104,146538,6,0,B|361:168|361:168|349:208|349:208|361:280,1,175,2|0,0:3|0:3,0:3:0:0:
369,320,147184,1,0,0:3:0:0:
369,320,147829,6,0,P|293:292|193:312,1,175,2|0,0:3|0:3,0:3:0:0:
166,335,148474,1,0,0:3:0:0:
188,176,149764,6,0,L|176:84,2,70,8|8|4,0:3|0:3|0:3,0:0:0:0:
348,228,150409,6,0,L|440:216,1,83.9999974365235,12|0,0:0|0:3,0:3:0:0:
472,252,150732,1,0,0:3:0:0:
348,356,151054,2,0,L|220:348,1,125.999996154785,4|0,0:3|0:3,0:3:0:0:
168,252,151592,1,2,0:3:0:0:
168,252,151699,2,0,P|152:200|172:120,1,125.999996154785,2|0,0:3|0:3,0:3:0:0:
316,68,152345,2,0,P|332:120|312:200,1,125.999996154785,8|0,0:3|0:3,0:3:0:0:
272,288,152882,5,2,0:3:0:0:
272,288,152990,2,0,P|316:280|364:292,1,83.9999974365235,2|0,0:3|0:3,0:3:0:0:
384,332,153312,2,0,P|426:340|467:332,1,83.9999974365235,0|0,0:3|0:3,0:3:0:0:
500,288,153635,2,0,B|508:228|508:228|496:160,1,125.999996154785,4|0,0:3|0:3,0:3:0:0:
420,112,154172,1,2,0:3:0:0:
420,112,154280,1,2,0:3:0:0:
288,148,154603,1,2,0:3:0:0:
136,204,154925,2,0,P|124:160|136:104,2,83.9999974365235,8|0|0,0:3|0:0|0:0,0:0:0:0:
200,292,155570,6,0,B|280:288|280:288|320:264|320:264|404:260,1,209.999993591309,2|0,0:3|0:3,0:3:0:0:
436,304,156215,1,4,0:3:0:0:
324,56,156753,1,2,0:3:0:0:
324,56,156861,2,0,L|184:60,1,125.999996154785,2|0,0:3|0:3,0:3:0:0:
108,196,157506,2,0,P|96:240|112:296,1,83.9999974365235,8|0,0:3|0:3,0:3:0:0:
128,324,157828,1,0,0:3:0:0:
204,244,158043,5,2,0:3:0:0:
204,244,158151,2,0,B|268:232|268:232|328:244,1,125.999996154785,2|0,0:3|0:3,0:3:0:0:
480,304,158796,2,0,B|492:244|492:244|480:180,1,125.999996154785,4|0,0:3|0:3,0:3:0:0:
412,96,159334,1,2,0:3:0:0:
412,96,159441,2,0,B|344:76|348:108|288:92,1,125.999996154785,2|0,0:3|0:3,0:3:0:0:
196,28,159979,1,0,0:3:0:0:
196,28,160086,2,0,L|192:116,1,83.9999974365235,8|0,0:3|0:3,0:3:0:0:
216,160,160409,1,0,0:3:0:0:
296,304,160732,6,0,P|236:328|100:276,1,209.999993591309,2|0,0:3|0:3,0:3:0:0:
80,232,161377,1,4,0:3:0:0:
284,52,161914,1,2,0:3:0:0:
284,52,162022,2,0,P|344:28|480:80,1,209.999993591309,2|0,0:3|0:3,0:3:0:0:
500,124,162667,1,8,0:3:0:0:
312,324,163205,5,2,0:3:0:0:
312,324,163312,2,0,P|268:332|220:320,1,83.9999974365235,2|0,0:3|0:3,0:3:0:0:
192,288,163635,2,0,P|151:281|110:289,1,83.9999974365235,0|0,0:3|0:3,0:3:0:0:
68,256,163957,2,0,B|56:196|56:196|68:128,1,125.999996154785,4|0,0:3|0:3,0:3:0:0:
156,68,164495,1,2,0:3:0:0:
156,68,164603,2,0,B|168:128|168:128|156:196,1,125.999996154785,2|2,0:3|0:3,0:3:0:0:
264,164,165140,1,0,0:3:0:0:
264,164,165248,2,0,P|320:156|384:188,1,125.999996154785,8|0,0:3|0:3,0:3:0:0:
488,268,165893,6,0,L|500:148,1,105,12|0,0:0|0:0,0:0:0:0:
468,76,166431,1,0,0:3:0:0:
468,76,166538,2,0,L|392:72,1,70,8|0,0:3|0:3,0:3:0:0:
376,32,166861,1,0,0:3:0:0:
312,96,167076,1,2,0:3:0:0:
312,96,167184,2,0,P|296:148|308:200,1,105,2|0,0:3|0:3,0:3:0:0:
344,328,167829,2,0,P|304:336|272:328,1,70,8|0,0:3|0:3,0:3:0:0:
236,308,168151,1,0,0:3:0:0:
168,192,168474,6,0,P|120:176|60:188,1,105,2|0,0:3|0:3,0:3:0:0:
4,120,169012,1,0,0:3:0:0:
4,120,169119,2,0,L|0:40,1,70,8|0,0:3|0:3,0:3:0:0:
36,20,169442,1,0,0:3:0:0:
124,48,169657,1,2,0:3:0:0:
124,48,169764,2,0,P|160:56|200:48,1,70,2|0,0:3|0:3,0:3:0:0:
232,28,170087,2,0,P|266:23|300:30,1,70,0|0,0:3|0:3,0:3:0:0:
332,64,170409,2,0,P|344:120|324:184,1,105,8|0,0:3|0:3,0:3:0:0:
208,220,171055,6,0,P|197:271|209:321,1,105,2|0,0:3|0:3,0:3:0:0:
296,348,171592,1,0,0:3:0:0:
296,348,171700,2,0,L|372:344,1,70,8|0,0:3|0:3,0:3:0:0:
400,316,172022,1,0,0:3:0:0:
436,232,172237,1,2,0:3:0:0:
436,232,172345,2,4,B|448:180|448:180|436:128,1,105,2|0,0:3|0:3,0:3:0:0:
320,60,172990,2,0,B|308:112|308:112|320:164,1,105,8|0,0:3|0:3,0:3:0:0:
200,232,173635,6,0,P|140:248|88:228,1,105,2|0,0:3|0:3,0:3:0:0:
144,108,174280,1,8,0:3:0:0:
256,32,174603,2,0,P|290:26|324:36,1,62.9999980773926,0|2,0:3|0:3,0:3:0:0:
380,84,174925,5,2,0:3:0:0:
404,162,175086,1,2,0:3:0:0:
396,243,175247,1,2,0:3:0:0:
359,315,175408,1,2,0:3:0:0:
280,340,175571,2,0,P|246:346|212:336,1,62.9999980773926,8|2,0:3|0:3,0:3:0:0:
192,264,175893,2,0,P|226:258|260:268,1,62.9999980773926,2|0,0:3|0:3,0:3:0:0:
288,188,176216,6,0,P|224:176|144:192,1,140,2|0,0:0|0:3,0:3:0:0:
124,152,176861,6,0,P|116:112|128:72,1,70,12|0,0:1|0:3,0:3:0:0:
152,48,177184,1,0,0:3:0:0:
288,40,177506,1,2,0:3:0:0:
396,124,177829,2,0,P|404:164|392:204,1,70,0|0,0:3|0:3,0:3:0:0:
364,220,178151,2,0,P|357:254|365:288,1,70,8|0,0:3|0:3,0:3:0:0:
396,320,178474,1,0,0:3:0:0:
264,288,178797,6,0,P|216:276|160:288,1,105,2|0,0:3|0:3,0:3:0:0:
100,220,179334,1,0,0:3:0:0:
100,220,179442,2,0,L|92:136,1,70,8|0,0:3|0:3,0:3:0:0:
116,112,179764,1,0,0:3:0:0:
224,28,180087,2,0,B|296:32|296:32|328:52,1,105,2|0,0:3|0:3,0:3:0:0:
215,133,180732,2,0,B|143:129|143:129|111:109,1,105,8|0,0:3|0:3,0:3:0:0:
4,32,181377,5,2,0:3:0:0:
16,168,181700,2,0,L|24:252,1,70,0|0,0:3|0:3,0:3:0:0:
60,264,182022,2,0,L|53:333,1,70,8|0,0:3|0:3,0:3:0:0:
92,360,182345,1,0,0:3:0:0:
220,316,182668,1,2,0:3:0:0:
304,208,182990,2,0,P|312:172|300:136,1,70,0|0,0:3|0:3,0:3:0:0:
276,104,183313,2,0,L|204:108,1,70,8|0,0:3|0:3,0:3:0:0:
180,72,183635,1,0,0:3:0:0:
48,112,183958,5,2,0:3:0:0:
24,248,184280,2,0,P|60:252|96:244,1,70,0|0,0:3|0:3,0:3:0:0:
124,212,184603,2,0,P|158:205|192:209,1,70,8|0,0:3|0:3,0:3:0:0:
224,240,184926,1,0,0:3:0:0:
348,344,185248,5,2,0:3:0:0:
378,268,185409,1,2,0:3:0:0:
370,188,185570,1,2,0:3:0:0:
326,120,185731,1,2,0:3:0:0:
260,72,185893,2,0,P|224:64|188:72,1,62.9999980773926,8|2,0:3|0:3,0:3:0:0:
124,104,186216,1,2,0:3:0:0:
