osu file format v14

[General]
AudioFilename: audio.mp3
AudioLeadIn: 0
PreviewTime: 52131
Countdown: 0
SampleSet: Soft
StackLeniency: 0.8
Mode: 0
LetterboxInBreaks: 0
WidescreenStoryboard: 1

[Editor]
Bookmarks: 1605,11710,19131,19447,19762,20078,20394,20710,21815,31920,42026,52131,62236,72341,92552
DistanceSpacing: 1
BeatDivisor: 4
GridSize: 8
TimelineZoom: 2.1

[Metadata]
Title:SEDUCTION (Vocal Remix)
TitleUnicode:SEDUCTION (Vocal Remix)
Artist:NC feat. NRG Factory
ArtistUnicode:NC feat. NRG Factory
Creator:Matrix
Version:Normal
Source:DanceDanceRevolution EXTREME2
Tags:HEAVEN PUNISHER -GN PandaHero electronic instrumental trance progressive video game ddr dance dance revolution extreme 2
BeatmapID:3100927
BeatmapSetID:1398656

[Difficulty]
HPDrainRate:4
CircleSize:3
OverallDifficulty:4
ApproachRate:6
SliderMultiplier:1.1
SliderTickRate:1

[Events]
//Background and Video events
0,0,"SEDUCTION%28Vocal%20Remix%29-bg.png",0,0
//Break Periods
//Storyboard Layer 0 (Background)
//Storyboard Layer 1 (Fail)
//Storyboard Layer 2 (Pass)
//Storyboard Layer 3 (Foreground)
//Storyboard Layer 4 (Overlay)
//Storyboard Sound Samples

[TimingPoints]
1605,315.789473684211,4,2,1,60,1,0
1605,-100,4,2,1,60,0,0
11710,-100,4,2,1,60,0,0
12973,-100,4,2,1,60,0,0
14236,-100,4,2,1,60,0,0
16762,-100,4,2,1,60,0,0
21815,-100,4,2,1,55,0,0
22289,-100,4,2,1,50,0,0
26868,-100,4,2,1,55,0,0
27499,-100,4,2,1,60,0,0
28131,-100,4,2,1,65,0,0
29394,-100,4,3,1,65,0,0
31920,-100,4,3,1,65,0,0
42026,-100,4,2,3,65,0,0
51341,-100,4,2,3,80,0,0
52131,-100,4,2,2,95,0,1
62236,-100,4,2,2,95,0,1
62552,-100,4,2,2,95,0,1
66657,-100,4,2,2,95,0,1
67131,-100,4,2,2,100,0,1
72341,-100,4,2,1,75,0,0

[Colours]
Combo1 : 26,187,138
Combo2 : 193,57,213
Combo3 : 209,12,12
Combo4 : 6,81,255

[HitObjects]
63,48,1605,6,0,B|143:37|143:37|84:174,1,220,4|0,0:0|0:0,0:0:0:0:
6,369,2868,2,0,B|102:358|102:358|141:326|141:326|234:316,1,220
430,353,4131,2,0,B|350:364|350:364|409:227,1,220
492,33,5394,2,0,B|396:44|396:44|357:76|357:76|264:86,1,220
65,107,6657,5,2,0:0:0:0:
17,303,7920,1,2,0:0:0:0:
213,351,9183,1,2,0:0:0:0:
262,156,10447,1,2,0:0:0:0:
100,53,11710,6,0,P|147:27|218:34,1,110
230,134,12341,2,0,P|182:160|127:159,1,110,4|0,0:0|0:0,0:0:0:0:
20,132,12973,1,0,0:0:0:0:
0,183,13131,1,2,0:0:0:0:
45,283,13447,2,0,L|19:345,2,55,2|0|2,0:0|0:0|0:0,0:0:0:0:
100,284,13920,1,0,0:0:0:0:
192,343,14236,6,0,L|269:338,1,55,0|2,0:0|0:0,0:0:0:0:
288,302,14552,2,0,L|365:297,1,55,0|2,0:0|0:0,0:0:0:0:
453,291,15026,1,2,0:0:0:0:
434,182,15341,1,2,0:0:0:0:
324,189,15657,1,2,0:0:0:0:
214,193,15973,1,2,0:0:0:0:
216,138,16131,2,0,P|243:100|265:91,1,55,0|2,0:0|0:0,0:0:0:0:
302,80,16447,1,0,0:0:0:0:
33,75,18815,6,0,P|74:48|99:44,1,55,2|2,0:0|0:0,0:0:0:0:
133,38,19131,2,0,P|181:43|203:56,1,55,2|0,0:0|0:0,0:0:0:0:
225,85,19447,1,2,0:0:0:0:
333,67,19762,1,2,0:0:0:0:
413,142,20078,1,2,0:0:0:0:
510,90,20394,1,2,0:0:0:0:
430,13,20710,1,2,0:0:0:0:
256,192,20789,12,4,21815,0:0:0:0:
50,350,24341,6,0,L|44:288,1,55,0|2,0:0|0:0,0:0:0:0:
85,257,24657,2,0,L|79:195,1,55,0|2,0:0|0:0,0:0:0:0:
67,92,25131,1,2,0:0:0:0:
164,142,25447,1,2,0:0:0:0:
155,32,25762,1,2,0:0:0:0:
251,84,26078,1,2,0:0:0:0:
305,74,26236,2,0,L|369:64,1,55,0|2,0:0|0:0,0:0:0:0:
414,58,26552,1,0,0:0:0:0:
400,167,26868,5,0,0:0:0:0:
501,358,27499,1,0,0:0:0:0:
281,342,28131,1,0,0:0:0:0:
181,146,28762,5,0,0:0:0:0:
113,58,29078,1,0,0:0:0:0:
15,109,29394,1,4,0:0:0:0:
88,190,29710,1,4,0:0:0:0:
166,267,30026,1,4,0:0:0:0:
109,361,30341,1,4,0:0:0:0:
27,287,30657,1,4,0:0:0:0:
463,341,31920,6,0,P|416:326|403:312,1,55,8|2,0:0|0:0,0:0:0:0:
462,165,32552,2,0,L|464:94,1,55,8|2,0:0|0:0,0:0:0:0:
429,66,32868,2,0,L|374:64,1,55,8|2,0:0|0:0,0:0:0:0:
330,97,33183,2,0,L|328:168,1,55,8|2,0:0|0:0,0:0:0:0:
363,196,33499,2,0,L|417:197,1,55,8|2,0:0|0:0,0:0:0:0:
164,90,34447,6,0,P|138:104|105:104,1,55,8|2,0:0|0:0,0:0:0:0:
266,44,35078,2,0,P|292:30|325:30,1,55,8|2,0:0|0:0,0:0:0:0:
372,34,35394,2,0,P|399:44|420:70,1,55,8|2,0:0|0:0,0:0:0:0:
451,106,35710,2,0,P|469:129|475:161,1,55,8|2,0:0|0:0,0:0:0:0:
475,209,36026,2,0,P|469:237|447:263,1,55,8|2,0:0|0:0,0:0:0:0:
194,350,36973,6,0,L|185:277,1,55,8|2,0:0|0:0,0:0:0:0:
60,189,37605,2,0,L|87:115,1,55,8|2,0:0|0:0,0:0:0:0:
115,96,37920,2,0,L|165:156,1,55,8|2,0:0|0:0,0:0:0:0:
204,151,38236,2,0,L|231:77,1,55,8|2,0:0|0:0,0:0:0:0:
259,58,38552,2,0,L|309:118,1,55,8|2,0:0|0:0,0:0:0:0:
446,34,39499,6,0,L|457:100,1,55,8|2,0:0|0:0,0:0:0:0:
487,250,40131,2,0,B|492:283|492:283|474:318,1,55,8|2,0:0|0:0,0:0:0:0:
429,318,40447,2,0,B|406:343|406:343|368:351,1,55,8|2,0:0|0:0,0:0:0:0:
335,324,40763,2,0,B|302:328|302:328|267:310,1,55,8|2,0:0|0:0,0:0:0:0:
268,265,41078,1,8,0:0:0:0:
205,178,41394,2,0,L|143:189,2,55,2|2|6,0:0|0:0|0:0,0:0:0:0:
313,159,42026,5,6,0:0:0:0:
345,54,42341,1,10,0:0:0:0:
439,111,42657,1,0,0:0:0:0:
414,218,42973,1,8,0:0:0:0:
382,323,43289,1,0,0:0:0:0:
286,268,43605,1,8,0:0:0:0:
197,333,43920,2,0,L|133:340,2,55,2|2|10,0:0|0:0|0:0,0:0:0:0:
141,237,44552,6,0,P|106:215|29:216,1,110,6|10,0:0|0:0,0:0:0:0:
11,106,45183,2,0,L|30:44,1,55,0|2,0:0|0:0,0:0:0:0:
75,27,45499,2,0,L|137:46,1,55,8|2,0:0|0:0,0:0:0:0:
180,58,45815,1,0,0:0:0:0:
284,22,46131,1,8,0:0:0:0:
393,28,46447,2,0,L|469:12,2,55,2|2|10,0:0|0:0|0:0,0:0:0:0:
331,119,47078,6,0,P|300:121|261:137,1,55,6|2,0:0|0:0,0:0:0:0:
230,157,47394,2,0,P|207:178|187:215,1,55,10|2,0:0|0:0,0:0:0:0:
183,252,47710,1,0,0:0:0:0:
216,356,48026,1,8,0:0:0:0:
106,352,48341,1,0,0:0:0:0:
68,248,48657,1,8,0:0:0:0:
25,146,48973,2,0,L|2:92,2,55,2|2|10,0:0|0:0|0:0,0:0:0:0:
115,83,49605,6,0,P|173:82|219:109,1,110,6|10,0:0|0:0,0:0:0:0:
257,209,50236,1,0,0:0:0:0:
263,318,50552,1,8,0:0:0:0:
369,344,50868,1,0,0:0:0:0:
431,253,51183,1,8,0:0:0:0:
363,166,51499,2,0,L|383:100,2,55,2|2|2,0:0|0:0|0:0,0:0:0:0:
275,233,52131,6,0,L|196:226,1,55,6|2,0:0|0:0,0:0:0:0:
165,223,52447,1,10,0:0:0:0:
118,252,52605,2,0,L|-2:240,1,110,2|2,0:0|0:0,0:0:0:0:
16,133,53236,2,0,L|21:75,1,55,2|0,0:0|0:0,0:0:0:0:
27,23,53552,1,2,0:0:0:0:
136,29,53868,2,0,P|173:22|211:26,2,55,2|2|2,0:0|0:0|0:0,0:0:0:0:
117,80,54341,1,10,0:0:0:0:
130,133,54499,6,0,P|199:150|250:133,1,110,0|2,0:0|0:0,0:0:0:0:
339,104,55131,2,0,P|392:94|444:111,1,110,2|2,0:0|0:0,0:0:0:0:
505,203,55762,1,2,0:0:0:0:
504,313,56078,1,2,0:0:0:0:
401,271,56394,1,2,0:0:0:0:
346,277,56552,2,0,P|321:308|313:345,1,55,2|2,0:0|0:0,0:0:0:0:
305,376,56868,2,0,L|229:358,1,55,10|0,0:0|0:0,0:0:0:0:
198,349,57183,6,0,P|136:348|90:364,1,110,2|10,0:0|0:0,0:0:0:0:
21,277,57815,2,0,P|52:223|62:175,1,110,0|8,0:0|0:0,0:0:0:0:
53,122,58289,2,0,L|125:111,1,55,2|0,0:0|0:0,0:0:0:0:
162,104,58605,1,2,0:0:0:0:
246,33,58920,2,0,L|302:50,1,55,2|2,0:0|0:0,0:0:0:0:
351,65,59236,5,2,0:0:0:0:
406,64,59394,1,10,0:0:0:0:
455,39,59552,2,0,P|451:84|468:168,1,110,0|2,0:0|0:0,0:0:0:0:
507,247,60183,1,2,0:0:0:0:
397,235,60499,2,0,P|360:209|278:181,1,110,2|2,0:0|0:0,0:0:0:0:
189,185,61131,1,2,0:0:0:0:
107,258,61447,2,0,P|109:279|105:318,2,55,2|2|2,0:0|0:0|0:0,0:0:0:0:
58,231,61920,1,10,0:0:0:0:
20,127,62236,6,0,P|54:110|79:109,1,55
125,105,62552,1,10,0:0:0:0:
177,122,62710,2,0,P|221:165|235:225,1,110,2|2,0:0|0:0,0:0:0:0:
255,321,63341,1,2,0:0:0:0:
353,369,63657,1,2,0:0:0:0:
463,368,63973,1,2,0:0:0:0:
490,320,64131,2,0,L|521:252,2,55,2|2|10,0:0|0:0|0:0,0:0:0:0:
434,317,64605,6,0,P|409:261|429:199,1,110,0|2,0:0|0:0,0:0:0:0:
475,120,65236,2,0,P|483:66|459:18,1,110,2|2,0:0|0:0,0:0:0:0:
357,60,65868,2,0,P|355:96|370:119,1,55,2|0,0:0|0:0,0:0:0:0:
391,159,66183,2,0,P|348:154|286:185,1,110,2|2,0:0|0:0,0:0:0:0:
266,232,66657,2,0,L|267:293,2,55,2|2|10,0:0|0:0|0:0,0:0:0:0:
166,183,67289,6,0,L|167:249,1,55,0|2,0:0|0:0,0:0:0:0:
167,293,67605,1,10,0:0:0:0:
167,347,67762,2,0,L|97:321,1,55,2|0,0:0|0:0,0:0:0:0:
64,306,68078,1,2,0:0:0:0:
57,196,68394,1,2,0:0:0:0:
51,86,68710,1,2,0:0:0:0:
143,26,69026,1,2,0:0:0:0:
182,64,69183,1,2,0:0:0:0:
235,78,69341,6,0,P|284:78|348:45,1,110,2|2,0:0|0:0,0:0:0:0:
362,160,69973,1,2,0:0:0:0:
382,270,70289,2,0,P|348:263|272:279,1,110,2|2,0:0|0:0,0:0:0:0:
197,355,70920,1,2,0:0:0:0:
256,192,71236,12,4,72341,0:0:0:0:
38,343,72973,5,0,0:0:0:0:
26,123,73605,1,4,0:0:0:0:
245,111,74236,1,0,0:0:0:0:
263,330,74868,1,4,0:0:0:0:
393,152,75499,5,0,0:0:0:0:
405,372,76131,1,0,0:0:0:0:
186,384,76762,1,0,0:0:0:0:
168,165,77394,6,0,L|158:50,1,110,4|8,0:0|0:0,0:0:0:0:
261,16,78026,2,0,L|376:6,1,110,0|8,0:0|0:0,0:0:0:0:
439,92,78657,2,0,L|449:207,1,110,4|8,0:0|0:0,0:0:0:0:
346,241,79289,2,0,L|231:251,1,110,0|8,0:0|0:0,0:0:0:0:
256,192,79920,12,4,82447,0:0:0:0:
0,384,83710,6,0,P|38:360|105:347,1,110,4|0,0:0|0:0,0:0:0:0:
117,17,84973,2,0,P|79:41|12:54,1,110,4|0,0:0|0:0,0:0:0:0:
2,163,85605,1,0,0:0:0:0:
205,79,86236,1,0,0:0:0:0:
110,277,86868,2,0,P|148:253|215:240,1,110
319,257,87499,5,4,0:0:0:0:
490,119,88131,1,0,0:0:0:0:
283,42,88762,1,4,0:0:0:0:
113,183,89394,1,0,0:0:0:0:
256,192,90026,12,0,92552,0:0:0:0:
