osu file format v14

[General]
AudioFilename: audio.mp3
AudioLeadIn: 0
PreviewTime: 52131
Countdown: 0
SampleSet: Soft
StackLeniency: 0.8
Mode: 0
LetterboxInBreaks: 0
WidescreenStoryboard: 1

[Editor]
Bookmarks: 1605,11710,19131,19447,19762,20078,20394,20710,21815,29394,31920,42026,52131,62236,72341,92552
DistanceSpacing: 1
BeatDivisor: 4
GridSize: 8
TimelineZoom: 2.1

[Metadata]
Title:SEDUCTION (Vocal Remix)
TitleUnicode:SEDUCTION (Vocal Remix)
Artist:NC feat. NRG Factory
ArtistUnicode:NC feat. NRG Factory
Creator:Matrix
Version:Hard
Source:DanceDanceRevolution EXTREME2
Tags:HEAVEN PUNISHER -GN PandaHero electronic instrumental trance progressive video game ddr dance dance revolution extreme 2
BeatmapID:3099139
BeatmapSetID:1398656

[Difficulty]
HPDrainRate:5
CircleSize:4
OverallDifficulty:7
ApproachRate:8
SliderMultiplier:1.5
SliderTickRate:1

[Events]
//Background and Video events
0,0,"SEDUCTION%28Vocal%20Remix%29-bg.png",0,0
//Break Periods
//Storyboard Layer 0 (Background)
//Storyboard Layer 1 (Fail)
//Storyboard Layer 2 (Pass)
//Storyboard Layer 3 (Foreground)
//Storyboard Layer 4 (Overlay)
//Storyboard Sound Samples

[TimingPoints]
1605,315.789473684211,4,2,1,60,1,0
1605,-100,4,2,1,60,0,0
11710,-133.333333333333,4,2,1,60,0,0
12973,-133.333333333333,4,2,1,60,0,0
14236,-133.333333333333,4,2,1,60,0,0
16762,-100,4,2,1,60,0,0
18183,-100,4,2,1,5,0,0
18341,-100,4,2,1,60,0,0
21815,-133.333333333333,4,2,1,55,0,0
22289,-133.333333333333,4,2,1,50,0,0
26868,-133.333333333333,4,2,1,55,0,0
27499,-133.333333333333,4,2,1,60,0,0
28131,-133.333333333333,4,2,1,65,0,0
29394,-100,4,3,1,65,0,0
31920,-100,4,3,1,65,0,0
42026,-100,4,2,3,65,0,0
51341,-100,4,2,3,80,0,0
52131,-100,4,2,2,95,0,1
62236,-100,4,2,2,95,0,1
62552,-100,4,2,2,95,0,1
66657,-100,4,2,2,95,0,1
67131,-100,4,2,2,100,0,1
72341,-133.333333333333,4,2,1,75,0,0

[Colours]
Combo1 : 26,187,138
Combo2 : 193,57,213
Combo3 : 209,12,12
Combo4 : 6,81,255

[HitObjects]
174,348,1605,5,4,0:0:0:0:
247,337,1762,1,2,0:0:0:0:
320,326,1920,1,0,0:0:0:0:
274,269,2078,1,2,0:0:0:0:
418,246,2394,5,2,0:0:0:0:
366,383,2710,1,2,0:0:0:0:
274,269,3026,1,2,0:0:0:0:
418,246,3342,5,2,0:0:0:0:
346,257,3500,1,0,0:0:0:0:
373,188,3658,1,2,0:0:0:0:
400,120,3815,1,0,0:0:0:0:
243,120,4131,5,0,0:0:0:0:
180,78,4289,1,2,0:0:0:0:
118,120,4447,1,0,0:0:0:0:
55,78,4605,2,0,B|77:122|77:122|62:236,1,150,2|2,0:0|0:0,0:0:0:0:
35,369,5236,1,2,0:0:0:0:
177,320,5552,1,2,0:0:0:0:
323,354,5868,6,0,L|431:344,1,75,2|0,0:0|0:0,0:0:0:0:
511,276,6183,2,0,L|437:283,1,75,2|0,0:0|0:0,0:0:0:0:
464,92,6657,6,0,L|470:166,2,75,0|2|0,0:0|0:0|0:0,0:0:0:0:
456,16,7131,1,2,0:0:0:0:
331,99,7447,2,0,B|297:87|297:87|231:96,1,75,2|0,0:0|0:0,0:0:0:0:
184,105,7762,2,0,B|145:110|145:110|111:98,1,75,2|0,0:0|0:0,0:0:0:0:
41,70,8078,1,2,0:0:0:0:
74,216,8394,6,0,B|40:204|40:204|1:209,2,75,2|0|2,0:0|0:0|0:0,0:0:0:0:
144,244,8868,1,0,0:0:0:0:
253,345,9183,5,0,0:0:0:0:
307,293,9341,1,2,0:0:0:0:
379,313,9499,1,0,0:0:0:0:
451,333,9657,5,2,0:0:0:0:
410,188,9973,1,2,0:0:0:0:
266,148,10289,1,2,0:0:0:0:
307,293,10605,1,2,0:0:0:0:
410,188,10920,5,2,0:0:0:0:
449,124,11078,1,0,0:0:0:0:
375,107,11236,1,2,0:0:0:0:
414,43,11394,1,0,0:0:0:0:
302,58,11710,6,0,P|252:37|186:44,1,112.500004291535
178,152,12341,2,0,P|228:173|294:166,1,112.500004291535,4|0,0:0|0:0,0:0:0:0:
389,127,12973,6,0,P|419:110|460:112,2,56.2500021457673,0|2|0,0:0|0:0|0:0,0:0:0:0:
366,179,13447,1,2,0:0:0:0:
385,231,13605,1,0,0:0:0:0:
438,247,13762,1,2,0:0:0:0:
490,227,13920,1,0,0:0:0:0:
491,339,14236,6,0,B|468:354|468:354|419:348,1,56.2500021457673,0|2,0:0|0:0,0:0:0:0:
383,342,14552,2,0,L|301:332,1,56.2500021457673,0|2,0:0|0:0,0:0:0:0:
215,317,15026,1,2,0:0:0:0:
109,355,15341,1,2,0:0:0:0:
19,287,15657,1,2,0:0:0:0:
86,196,15973,5,2,0:0:0:0:
35,170,16131,1,0,0:0:0:0:
30,113,16289,1,2,0:0:0:0:
73,76,16447,1,0,0:0:0:0:
256,192,16762,12,0,18262,0:0:0:0:
49,113,18815,6,0,L|56:209,1,75,2|2,0:0|0:0,0:0:0:0:
61,263,19131,1,2,0:0:0:0:
152,143,19447,1,2,0:0:0:0:
164,292,19762,1,2,0:0:0:0:
252,170,20078,2,0,P|298:166|336:142,1,75,2|0,0:0|0:0,0:0:0:0:
304,79,20394,2,0,P|258:83|220:107,1,75,2|0,0:0|0:0,0:0:0:0:
383,102,20710,2,0,P|389:72|386:45,12,37.5,2|0|0|0|0|0|0|0|0|0|0|0|0,0:0|0:0|0:0|0:0|0:0|0:0|0:0|0:0|0:0|0:0|0:0|0:0|0:0,0:0:0:0:
401,180,21815,6,0,P|438:166|459:137,2,56.2500021457673,4|2|0,0:0|0:0|0:0,0:0:0:0:
401,253,22289,2,0,P|438:266|459:295,1,56.2500021457673,2|0,0:0|0:0,0:0:0:0:
491,338,22605,1,2,0:0:0:0:
349,371,22920,1,2,0:0:0:0:
229,286,23236,1,2,0:0:0:0:
102,359,23552,6,0,L|24:368,1,56.2500021457673,2|0,0:0|0:0,0:0:0:0:
24,295,23868,2,0,L|79:288,1,56.2500021457673,2|0,0:0|0:0,0:0:0:0:
46,145,24341,5,0,0:0:0:0:
73,77,24499,1,2,0:0:0:0:
142,54,24657,1,0,0:0:0:0:
208,84,24815,2,0,L|212:157,1,56.2500021457673,2|0,0:0|0:0,0:0:0:0:
264,190,25131,2,0,L|268:263,1,56.2500021457673,2|0,0:0|0:0,0:0:0:0:
274,319,25447,1,2,0:0:0:0:
416,349,25762,1,2,0:0:0:0:
427,203,26078,2,0,P|400:224|375:233,2,56.2500021457673,2|0|2,0:0|0:0|0:0,0:0:0:0:
456,135,26552,1,0,0:0:0:0:
305,30,26868,6,0,L|311:96,1,56.2500021457673,0|2,0:0|0:0,0:0:0:0:
318,158,27183,1,0,0:0:0:0:
250,130,27341,1,2,0:0:0:0:
182,102,27499,6,0,L|188:168,1,56.2500021457673,0|2,0:0|0:0,0:0:0:0:
191,231,27814,1,0,0:0:0:0:
173,221,27894,1,0,0:0:0:0:
155,211,27973,1,2,0:0:0:0:
88,180,28131,6,0,L|94:246,1,56.2500021457673,0|2,0:0|0:0,0:0:0:0:
101,308,28446,1,0,0:0:0:0:
33,280,28604,1,2,0:0:0:0:
45,352,28762,5,0,0:0:0:0:
187,318,29078,1,0,0:0:0:0:
329,352,29394,1,4,0:0:0:0:
471,318,29710,1,4,0:0:0:0:
329,284,30026,1,4,0:0:0:0:
187,318,30341,1,4,0:0:0:0:
45,284,30657,6,0,L|9:179,1,75,4|0,0:0|0:0,0:0:0:0:
74,149,30973,2,0,L|182:170,1,75,4|0,0:0|0:0,0:0:0:0:
176,241,31289,2,0,L|103:324,1,75,4|0,0:0|0:0,0:0:0:0:
229,173,31605,2,0,L|275:118,3,37.5
290,140,31920,6,0,L|380:135,1,75,8|2,0:0|0:0,0:0:0:0:
189,359,32552,6,0,L|114:363,1,75,8|2,0:0|0:0,0:0:0:0:
151,282,32868,2,0,L|117:216,1,75,8|2,0:0|0:0,0:0:0:0:
71,300,33183,2,0,L|37:234,1,75,8|2,0:0|0:0,0:0:0:0:
0,158,33499,2,0,L|74:153,1,75,8|2,0:0|0:0,0:0:0:0:
138,114,33815,6,0,B|129:71|129:71|88:41,2,75,2|2|2,0:0|0:0|0:0,0:0:0:0:
267,37,34447,6,0,L|256:121,1,75,8|2,0:0|0:0,0:0:0:0:
397,287,35078,2,0,B|391:325|391:325|362:349,1,75,8|2,0:0|0:0,0:0:0:0:
290,366,35394,2,0,B|252:360|252:360|228:331,1,75,8|2,0:0|0:0,0:0:0:0:
209,260,35710,2,0,B|215:221|215:221|244:197,1,75,8|2,0:0|0:0,0:0:0:0:
316,181,36026,2,0,B|354:187|354:187|378:216,1,75,8|2,0:0|0:0,0:0:0:0:
397,287,36341,6,0,L|499:284,2,75,2|2|2,0:0|0:0|0:0,0:0:0:0:
453,148,36973,6,0,L|468:52,1,75,8|2,0:0|0:0,0:0:0:0:
244,24,37605,6,0,L|232:98,1,75,8|2,0:0|0:0,0:0:0:0:
156,100,37920,2,0,L|183:169,1,75,8|2,0:0|0:0,0:0:0:0:
118,210,38236,2,0,L|176:257,1,75,8|2,0:0|0:0,0:0:0:0:
214,335,38552,2,0,L|140:324,1,75,8|2,0:0|0:0,0:0:0:0:
65,315,38868,6,0,B|47:352|47:352|59:393,2,75,2|2|2,0:0|0:0|0:0,0:0:0:0:
214,335,39499,6,0,L|288:324,1,75,8|2,0:0|0:0,0:0:0:0:
323,101,40131,6,0,B|358:124|358:124|370:176,1,75,8|2,0:0|0:0,0:0:0:0:
253,70,40447,2,0,B|276:35|276:35|328:23,1,75,8|2,0:0|0:0,0:0:0:0:
217,138,40762,2,0,B|182:115|182:115|170:63,1,75,8|2,0:0|0:0,0:0:0:0:
287,169,41078,2,0,B|264:204|264:204|212:216,1,75,8|2,0:0|0:0,0:0:0:0:
157,197,41394,6,0,L|149:278,2,75,2|2|6,0:0|0:0|0:0,0:0:0:0:
280,113,42026,6,0,L|372:106,1,75,6|2,0:0|0:0,0:0:0:0:
437,102,42342,1,10,0:0:0:0:
437,102,42500,1,2,0:0:0:0:
396,191,42658,6,0,B|434:188|434:188|467:227,1,75,0|2,0:0|0:0,0:0:0:0:
337,309,42974,2,0,B|315:276|315:276|332:228,1,75,8|2,0:0|0:0,0:0:0:0:
467,298,43289,2,0,B|449:333|449:333|399:342,1,75,0|2,0:0|0:0,0:0:0:0:
396,191,43605,2,0,B|434:188|434:188|467:227,1,75,8|2,0:0|0:0,0:0:0:0:
403,268,43921,1,2,0:0:0:0:
403,268,44079,1,2,0:0:0:0:
403,268,44237,1,10,0:0:0:0:
437,102,44553,6,0,L|345:109,1,75,6|2,0:0|0:0,0:0:0:0:
280,113,44869,1,10,0:0:0:0:
280,113,45027,1,2,0:0:0:0:
154,183,45184,6,0,P|173:223|167:259,1,75,0|2,0:0|0:0,0:0:0:0:
172,109,45500,2,0,P|127:105|99:82,1,75,8|2,0:0|0:0,0:0:0:0:
227,161,45816,2,0,P|252:124|286:111,1,75,0|2,0:0|0:0,0:0:0:0:
154,183,46132,2,0,P|173:223|167:259,1,75,8|2,0:0|0:0,0:0:0:0:
97,238,46447,1,2,0:0:0:0:
97,238,46605,1,2,0:0:0:0:
97,238,46763,1,10,0:0:0:0:
0,375,47079,6,0,L|92:368,1,75,6|2,0:0|0:0,0:0:0:0:
157,364,47395,1,10,0:0:0:0:
157,364,47553,1,2,0:0:0:0:
208,295,47711,6,0,L|259:367,1,75,0|2,0:0|0:0,0:0:0:0:
302,286,48026,2,0,B|319:254|319:254|307:182,1,75,8|2,0:0|0:0,0:0:0:0:
418,286,48342,2,0,B|401:254|401:254|407:215,1,75,0|2,0:0|0:0,0:0:0:0:
512,295,48658,2,0,L|461:367,1,75,8|2,0:0|0:0,0:0:0:0:
364,356,48974,1,2,0:0:0:0:
364,356,49132,1,2,0:0:0:0:
364,356,49289,1,10,0:0:0:0:
359,190,49605,6,0,L|359:94,1,75,6|2,0:0|0:0,0:0:0:0:
363,35,49921,1,10,0:0:0:0:
363,35,50079,1,2,0:0:0:0:
217,40,50237,6,0,L|217:115,1,75,0|2,0:0|0:0,0:0:0:0:
299,160,50553,2,0,L|234:122,1,75,8|2,0:0|0:0,0:0:0:0:
154,171,50868,2,0,L|218:133,1,75,0|2,0:0|0:0,0:0:0:0:
217,40,51184,2,0,L|217:115,1,75,8|2,0:0|0:0,0:0:0:0:
222,228,51500,5,2,0:0:0:0:
222,228,51658,1,2,0:0:0:0:
222,228,51816,1,2,0:0:0:0:
72,218,52131,6,0,P|54:254|58:312,1,75,6|2,0:0|0:0,0:0:0:0:
93,350,52446,1,10,0:0:0:0:
106,356,52525,1,0,0:0:0:0:
120,357,52604,1,2,0:0:0:0:
194,350,52762,1,0,0:0:0:0:
261,317,52920,6,0,L|292:348,2,37.5,2|0|8,0:0|0:0|0:0,0:0:0:0:
354,305,53236,2,0,L|365:347,2,37.5,2|0|0,0:0|0:0|0:0,0:0:0:0:
440,341,53552,2,0,L|428:383,2,37.5,2|0|8,0:0|0:0|0:0,0:0:0:0:
508,309,53867,1,2,0:0:0:0:
506,233,54025,1,2,0:0:0:0:
440,197,54183,1,2,0:0:0:0:
369,222,54341,2,0,P|327:217|290:197,1,75,10|0,0:0|0:0,0:0:0:0:
243,150,54657,5,0,0:0:0:0:
247,75,54815,1,2,0:0:0:0:
312,38,54973,1,10,0:0:0:0:
326,36,55052,1,0,0:0:0:0:
340,37,55131,1,2,0:0:0:0:
406,70,55288,1,0,0:0:0:0:
478,49,55447,6,0,L|487:-7,2,37.5,2|0|8,0:0|0:0|0:0,0:0:0:0:
461,122,55762,2,0,L|504:157,2,37.5,2|0|0,0:0|0:0|0:0,0:0:0:0:
406,70,56078,2,0,L|353:90,2,37.5,2|0|8,0:0|0:0|0:0,0:0:0:0:
396,158,56394,1,2,0:0:0:0:
321,169,56552,1,2,0:0:0:0:
268,115,56710,1,2,0:0:0:0:
285,42,56867,1,10,0:0:0:0:
140,0,57183,6,0,P|157:32|153:85,1,75,2|2,0:0|0:0,0:0:0:0:
120,136,57499,1,10,0:0:0:0:
109,146,57578,1,0,0:0:0:0:
95,152,57657,1,2,0:0:0:0:
19,154,57815,1,0,0:0:0:0:
52,87,57973,6,0,P|43:66|43:35,2,37.5,2|0|8,0:0|0:0|0:0,0:0:0:0:
95,152,58289,2,0,P|117:154|144:170,2,37.5,2|0|0,0:0|0:0|0:0,0:0:0:0:
61,219,58604,2,0,P|70:240|70:271,2,37.5,2|0|8,0:0|0:0|0:0,0:0:0:0:
5,307,58920,5,2,0:0:0:0:
75,332,59078,1,2,0:0:0:0:
144,302,59236,1,2,0:0:0:0:
218,292,59394,1,10,0:0:0:0:
289,316,59552,6,0,P|326:336|349:366,1,75
421,358,59868,2,0,P|445:329|478:312,1,75,2|10,0:0|0:0,0:0:0:0:
478,237,60183,2,0,P|441:217|418:187,1,75,2|0,0:0|0:0,0:0:0:0:
346,195,60499,2,0,P|321:223|288:240,1,75,2|8,0:0|0:0,0:0:0:0:
213,244,60815,1,2,0:0:0:0:
198,241,60894,1,0,0:0:0:0:
184,235,60973,1,0,0:0:0:0:
113,208,61131,2,0,P|79:224|55:253,2,75,2|8|2,0:0|0:0|0:0,0:0:0:0:
173,162,61605,5,2,0:0:0:0:
221,105,61762,1,2,0:0:0:0:
221,29,61920,1,10,0:0:0:0:
370,15,62236,6,0,P|374:56|406:96,1,75
455,124,62552,1,10,0:0:0:0:
463,136,62631,1,0,0:0:0:0:
464,150,62710,1,2,0:0:0:0:
444,222,62868,1,0,0:0:0:0:
426,294,63026,6,0,P|445:314|454:333,2,37.5,2|0|8,0:0|0:0|0:0,0:0:0:0:
370,243,63341,2,0,P|343:249|322:247,2,37.5,2|0|0,0:0|0:0|0:0,0:0:0:0:
383,168,63657,1,2,0:0:0:0:
371,158,63736,1,0,0:0:0:0:
356,154,63815,1,8,0:0:0:0:
280,154,63973,1,2,0:0:0:0:
213,120,64131,1,2,0:0:0:0:
208,45,64289,1,2,0:0:0:0:
270,4,64447,1,10,0:0:0:0:
340,30,64605,6,0,P|348:69|339:126,1,75
270,107,64920,2,0,P|251:142|207:179,1,75,2|10,0:0|0:0,0:0:0:0:
167,121,65236,2,0,P|129:135|72:136,1,75,2|0,0:0|0:0,0:0:0:0:
79,65,65552,2,0,P|40:51|-3:15,1,75,2|8,0:0|0:0,0:0:0:0:
0,191,65868,6,0,P|38:204|83:237,1,75,2|0,0:0|0:0,0:0:0:0:
113,281,66183,2,0,P|119:303|118:331,2,37.5,2|0|8,0:0|0:0|0:0,0:0:0:0:
184,257,66499,1,2,0:0:0:0:
224,320,66657,2,0,P|255:339|291:351,2,75,2|2|10,0:0|0:0|0:0,0:0:0:0:
319,203,67289,6,0,P|284:175|275:138,1,75,0|2,0:0|0:0,0:0:0:0:
269,72,67605,1,10,0:0:0:0:
274,58,67683,1,0,0:0:0:0:
284,47,67762,1,2,0:0:0:0:
352,16,67920,1,0,0:0:0:0:
422,42,68078,2,0,L|481:34,2,37.5,2|0|8,0:0|0:0|0:0,0:0:0:0:
453,113,68394,2,0,L|503:144,2,37.5,2|0|0,0:0|0:0|0:0,0:0:0:0:
437,189,68710,2,0,L|455:245,2,37.5,2|0|8,0:0|0:0|0:0,0:0:0:0:
366,215,69026,1,2,0:0:0:0:
353,288,69183,1,2,0:0:0:0:
392,352,69341,6,0,P|357:328|305:327,1,75,2|10,0:0|0:0,0:0:0:0:
250,331,69657,2,0,P|210:345|179:387,1,75,2|0,0:0|0:0,0:0:0:0:
300,383,69973,6,0,P|277:347|229:325,1,75,2|10,0:0|0:0,0:0:0:0:
175,306,70289,2,0,P|132:304|87:330,1,75,2|0,0:0|0:0,0:0:0:0:
52,372,70605,1,2,0:0:0:0:
18,226,70920,6,0,P|52:239|89:236,1,75,2|0,0:0|0:0,0:0:0:0:
161,211,71236,2,0,P|184:193|195:159,12,37.5
122,144,72341,5,4,0:0:0:0:
69,124,72499,1,0,0:0:0:0:
16,104,72657,1,8,0:0:0:0:
107,38,72973,1,0,0:0:0:0:
160,58,73131,1,0,0:0:0:0:
213,78,73289,1,8,0:0:0:0:
315,32,73605,6,0,P|319:72|335:99,1,56.2500021457673,4|0,0:0|0:0,0:0:0:0:
364,126,73920,2,0,P|399:141|431:141,1,56.2500021457673,8|0,0:0|0:0,0:0:0:0:
473,142,74236,1,0,0:0:0:0:
416,239,74552,1,8,0:0:0:0:
473,335,74868,1,4,0:0:0:0:
360,335,75183,1,8,0:0:0:0:
416,239,75499,1,0,0:0:0:0:
355,143,75815,1,8,0:0:0:0:
297,239,76131,6,0,P|271:264|244:271,1,56.2500021457673
195,271,76447,2,0,L|190:346,1,56.2500021457673,8|0,0:0|0:0,0:0:0:0:
187,383,76762,1,0,0:0:0:0:
78,351,77078,1,8,0:0:0:0:
76,238,77394,5,4,0:0:0:0:
29,206,77552,1,0,0:0:0:0:
9,153,77710,2,0,P|21:109|45:83,1,56.2500021457673,8|0,0:0|0:0,0:0:0:0:
73,69,78026,1,0,0:0:0:0:
128,70,78183,1,0,0:0:0:0:
168,109,78341,2,0,P|196:130|229:138,1,56.2500021457673,8|0,0:0|0:0,0:0:0:0:
271,136,78657,5,4,0:0:0:0:
317,103,78815,1,0,0:0:0:0:
341,52,78973,1,8,0:0:0:0:
389,24,79131,1,0,0:0:0:0:
442,40,79289,1,0,0:0:0:0:
473,86,79447,1,0,0:0:0:0:
460,140,79605,1,8,0:0:0:0:
421,180,79762,1,0,0:0:0:0:
381,220,79920,6,0,P|380:239|386:269,30,28.1250010728836,4|0|0|0|8|0|0|0|0|0|0|0|8|0|0|0|0|0|0|0|8|0|0|0|0|0|0|0|8|0|0,0:0|0:0|0:0|0:0|0:0|0:0|0:0|0:0|0:0|0:0|0:0|0:0|0:0|0:0|0:0|0:0|0:0|0:0|0:0|0:0|0:0|0:0|0:0|0:0|0:0|0:0|0:0|0:0|0:0|0:0|0:0,0:0:0:0:
415,316,82447,5,4,0:0:0:0:
387,365,82605,1,0,0:0:0:0:
358,316,82762,1,0,0:0:0:0:
83,272,83710,5,4,0:0:0:0:
54,223,83868,1,0,0:0:0:0:
111,222,84025,1,0,0:0:0:0:
287,6,84973,5,4,0:0:0:0:
343,5,85131,1,0,0:0:0:0:
316,55,85288,1,0,0:0:0:0:
208,88,85605,5,0,0:0:0:0:
370,202,86236,1,0,0:0:0:0:
189,285,86868,1,0,0:0:0:0:
321,103,87499,5,4,0:0:0:0:
345,257,88131,1,0,0:0:0:0:
191,281,88762,1,4,0:0:0:0:
167,127,89394,1,0,0:0:0:0:
256,192,90025,5,4,0:0:0:0:
256,192,90105,12,0,92552,0:0:0:0:
