osu file format v14

[General]
AudioFilename: audio.mp3
AudioLeadIn: 0
PreviewTime: 52131
Countdown: 0
SampleSet: Soft
StackLeniency: 0.8
Mode: 0
LetterboxInBreaks: 0
WidescreenStoryboard: 0

[Editor]
Bookmarks: 1605,11710,19131,19447,19762,20078,20394,20710,21815,31920,42026,52131,62236,72341,92552
DistanceSpacing: 0.4
BeatDivisor: 4
GridSize: 8
TimelineZoom: 2.1

[Metadata]
Title:SEDUCTION (Vocal Remix)
TitleUnicode:SEDUCTION (Vocal Remix)
Artist:NC feat. NRG Factory
ArtistUnicode:NC feat. NRG Factory
Creator:Matrix
Version:Extreme
Source:DanceDanceRevolution EXTREME2
Tags:HEAVEN PUNISHER -GN PandaHero electronic instrumental trance progressive video game ddr dance dance revolution extreme 2
BeatmapID:2885884
BeatmapSetID:1398656

[Difficulty]
HPDrainRate:5
CircleSize:5
OverallDifficulty:9
ApproachRate:9
SliderMultiplier:1.9
SliderTickRate:1

[Events]
//Background and Video events
0,0,"SEDUCTION%28Vocal%20Remix%29-bg.png",0,0
//Break Periods
//Storyboard Layer 0 (Background)
//Storyboard Layer 1 (Fail)
//Storyboard Layer 2 (Pass)
//Storyboard Layer 3 (Foreground)
//Storyboard Layer 4 (Overlay)
//Storyboard Sound Samples

[TimingPoints]
1605,315.789473684211,4,2,1,60,1,0
1605,-133.333333333333,4,2,1,60,0,0
11710,-166.666666666667,4,2,1,60,0,0
12973,-144.927536231884,4,2,1,60,0,0
14236,-133.333333333333,4,2,1,60,0,0
16762,-133.333333333333,4,2,1,60,0,0
21815,-83.3333333333333,4,2,1,55,0,0
22289,-100,4,2,1,50,0,0
26868,-100,4,2,1,55,0,0
27499,-100,4,2,1,60,0,0
28131,-100,4,2,1,65,0,0
29394,-100,4,3,1,65,0,0
31920,-100,4,3,1,65,0,0
42026,-100,4,2,3,65,0,0
51341,-83.3333333333333,4,2,3,80,0,0
52131,-100,4,2,2,95,0,1
62236,-83.3333333333333,4,2,2,95,0,1
62552,-100,4,2,2,95,0,1
66657,-83.3333333333333,4,2,2,95,0,1
67131,-100,4,2,2,100,0,1
72341,-111.111111111111,4,2,1,75,0,0

[Colours]
Combo1 : 26,187,138
Combo2 : 193,57,213
Combo3 : 209,12,12
Combo4 : 6,81,255

[HitObjects]
72,352,1605,5,4,0:0:0:0:
15,308,1762,1,2,0:0:0:0:
81,283,1920,1,0,0:0:0:0:
147,258,2078,5,2,0:0:0:0:
28,178,2394,1,2,0:0:0:0:
78,44,2710,1,2,0:0:0:0:
176,146,3026,1,2,0:0:0:0:
264,35,3341,5,2,0:0:0:0:
332,14,3499,1,0,0:0:0:0:
386,59,3657,1,2,0:0:0:0:
332,14,3815,1,0,0:0:0:0:
512,315,4131,5,0,0:0:0:0:
442,300,4289,1,2,0:0:0:0:
372,286,4447,1,0,0:0:0:0:
418,232,4605,5,2,0:0:0:0:
326,340,4920,1,2,0:0:0:0:
195,281,5236,1,2,0:0:0:0:
287,173,5552,1,2,0:0:0:0:
45,208,5868,5,2,0:0:0:0:
89,272,6026,1,0,0:0:0:0:
45,208,6183,1,2,0:0:0:0:
78,137,6341,1,0,0:0:0:0:
419,305,6657,6,0,L|353:333,2,71.2500027179719,0|2|0,0:0|0:0|0:0,0:0:0:0:
433,227,7131,2,0,L|421:328,1,71.2500027179719,2|0,0:0|0:0,0:0:0:0:
485,354,7447,2,0,L|403:293,1,71.2500027179719,2|0,0:0|0:0,0:0:0:0:
372,91,7762,2,0,L|360:192,1,71.2500027179719,2|0,0:0|0:0,0:0:0:0:
201,319,8078,2,0,L|294:278,1,71.2500027179719,2|0,0:0|0:0,0:0:0:0:
352,250,8394,5,2,0:0:0:0:
363,161,8552,1,0,0:0:0:0:
352,250,8710,1,2,0:0:0:0:
266,290,8868,1,0,0:0:0:0:
179,72,9183,6,0,P|135:52|119:33,2,71.2500027179719,0|2|0,0:0|0:0|0:0,0:0:0:0:
186,150,9657,2,0,P|194:115|188:80,1,71.2500027179719,2|0,0:0|0:0,0:0:0:0:
252,33,9973,2,0,P|217:42|190:65,1,71.2500027179719,2|0,0:0|0:0,0:0:0:0:
4,92,10289,2,0,P|29:116|62:128,1,71.2500027179719,2|0,0:0|0:0,0:0:0:0:
178,278,10605,2,0,P|186:243|180:208,1,71.2500027179719,2|0,0:0|0:0,0:0:0:0:
116,78,10920,5,2,0:0:0:0:
110,183,11078,1,0,0:0:0:0:
204,137,11236,1,2,0:0:0:0:
116,78,11394,1,0,0:0:0:0:
368,149,11710,6,0,P|422:158|469:195,1,113.999996520996
417,309,12341,2,0,P|363:300|316:263,1,113.999996520996,4|0,0:0|0:0,0:0:0:0:
238,164,12973,1,0,0:0:0:0:
171,205,13131,2,0,L|163:270,1,65.5500001000214,2|0,0:0|0:0,0:0:0:0:
120,143,13447,1,2,0:0:0:0:
157,76,13605,1,0,0:0:0:0:
157,76,13762,1,2,0:0:0:0:
157,76,13920,1,0,0:0:0:0:
26,209,14236,5,0,0:0:0:0:
38,286,14394,1,2,0:0:0:0:
51,363,14552,1,0,0:0:0:0:
145,286,14710,2,0,P|127:256|98:237,1,71.2500027179719,2|0,0:0|0:0,0:0:0:0:
201,224,15026,2,0,P|230:271|229:368,1,142.500005435944,2|2,0:0|0:0,0:0:0:0:
142,157,15657,1,2,0:0:0:0:
14,66,15973,1,2,0:0:0:0:
89,36,16131,1,0,0:0:0:0:
89,36,16289,1,2,0:0:0:0:
89,36,16447,1,0,0:0:0:0:
256,82,16762,5,0,0:0:0:0:
256,90,16841,1,0,0:0:0:0:
256,98,16920,1,0,0:0:0:0:
256,106,16999,1,0,0:0:0:0:
256,114,17078,1,0,0:0:0:0:
256,122,17157,1,0,0:0:0:0:
256,130,17236,1,0,0:0:0:0:
256,138,17315,1,0,0:0:0:0:
256,146,17394,1,4,0:0:0:0:
256,154,17473,1,0,0:0:0:0:
256,162,17552,1,0,0:0:0:0:
256,170,17631,1,0,0:0:0:0:
256,178,17710,1,0,0:0:0:0:
256,186,17789,1,0,0:0:0:0:
256,194,17868,1,0,0:0:0:0:
256,202,17947,1,0,0:0:0:0:
256,210,18026,1,0,0:0:0:0:
256,218,18105,1,0,0:0:0:0:
256,226,18183,1,0,0:0:0:0:
256,234,18262,1,0,0:0:0:0:
256,242,18341,1,0,0:0:0:0:
256,250,18420,1,0,0:0:0:0:
256,258,18499,1,0,0:0:0:0:
256,266,18578,1,0,0:0:0:0:
256,274,18657,1,0,0:0:0:0:
256,282,18736,1,0,0:0:0:0:
256,309,18815,5,2,0:0:0:0:
249,329,18894,1,0,0:0:0:0:
232,342,18973,1,2,0:0:0:0:
211,348,19052,1,0,0:0:0:0:
186,344,19131,1,2,0:0:0:0:
166,328,19210,1,0,0:0:0:0:
156,304,19289,1,0,0:0:0:0:
157,279,19368,1,0,0:0:0:0:
170,253,19447,1,2,0:0:0:0:
187,230,19526,1,0,0:0:0:0:
200,204,19605,1,0,0:0:0:0:
200,175,19683,1,0,0:0:0:0:
189,144,19762,1,2,0:0:0:0:
167,120,19841,1,0,0:0:0:0:
136,109,19920,1,0,0:0:0:0:
103,110,19999,1,0,0:0:0:0:
72,127,20078,1,2,0:0:0:0:
56,159,20157,1,0,0:0:0:0:
57,194,20236,1,0,0:0:0:0:
74,225,20315,1,0,0:0:0:0:
111,235,20394,1,2,0:0:0:0:
144,215,20473,1,0,0:0:0:0:
150,176,20552,1,0,0:0:0:0:
125,145,20631,1,0,0:0:0:0:
86,149,20710,6,0,L|85:180,25,17.812500679493,2|0|0|0|0|0|0|0|0|0|0|0|0|0|0|0|0|0|0|0|0|0|0|0|0|0,0:0|0:0|0:0|0:0|0:0|0:0|0:0|0:0|0:0|0:0|0:0|0:0|0:0|0:0|0:0|0:0|0:0|0:0|0:0|0:0|0:0|0:0|0:0|0:0|0:0|0:0,0:0:0:0:
131,47,21815,6,0,B|84:45|84:45|68:38|68:38|17:36,2,113.999996520996,4|2|0,0:0|0:0|0:0,0:0:0:0:
256,57,22289,1,2,0:0:0:0:
458,4,22605,1,2,0:0:0:0:
299,139,22920,1,2,0:0:0:0:
507,148,23236,1,2,0:0:0:0:
416,248,23552,5,2,0:0:0:0:
472,328,23710,1,0,0:0:0:0:
360,328,23868,1,2,0:0:0:0:
416,248,24026,2,0,B|344:248|344:248|320:232|320:232|224:232,1,190
72,232,24499,5,2,0:0:0:0:
152,175,24657,1,0,0:0:0:0:
152,288,24815,1,2,0:0:0:0:
256,360,25131,5,2,0:0:0:0:
256,104,25447,1,2,0:0:0:0:
440,232,25762,1,2,0:0:0:0:
72,192,26078,5,2,0:0:0:0:
72,272,26236,1,0,0:0:0:0:
0,232,26394,1,2,0:0:0:0:
144,232,26552,1,0,0:0:0:0:
192,344,26868,5,0,0:0:0:0:
320,368,27026,1,2,0:0:0:0:
192,344,27183,1,0,0:0:0:0:
192,344,27262,1,0,0:0:0:0:
192,344,27341,1,2,0:0:0:0:
376,288,27499,5,0,0:0:0:0:
160,240,27657,1,2,0:0:0:0:
376,288,27815,1,0,0:0:0:0:
376,288,27894,1,0,0:0:0:0:
376,288,27973,1,2,0:0:0:0:
144,152,28131,5,0,0:0:0:0:
408,192,28289,1,2,0:0:0:0:
144,152,28447,1,0,0:0:0:0:
144,152,28526,1,0,0:0:0:0:
144,152,28605,1,2,0:0:0:0:
346,118,28762,6,0,L|440:104,1,95
360,32,29078,2,0,L|256:48,1,95
152,96,29394,5,4,0:0:0:0:
160,87,29473,1,0,0:0:0:0:
168,79,29552,1,0,0:0:0:0:
176,71,29631,1,0,0:0:0:0:
136,55,29710,5,4,0:0:0:0:
127,47,29789,1,0,0:0:0:0:
119,39,29868,1,0,0:0:0:0:
111,31,29947,1,0,0:0:0:0:
96,71,30026,5,4,0:0:0:0:
88,80,30105,1,0,0:0:0:0:
80,88,30184,1,0,0:0:0:0:
72,96,30263,1,0,0:0:0:0:
112,112,30342,5,4,0:0:0:0:
121,120,30421,1,0,0:0:0:0:
129,128,30500,1,0,0:0:0:0:
137,136,30579,1,0,0:0:0:0:
137,156,30657,6,0,L|44:176,1,95,4|0,0:0|0:0,0:0:0:0:
193,332,30973,2,0,L|222:241,1,95,4|0,0:0|0:0,0:0:0:0:
12,292,31289,2,0,L|75:362,1,95,4|0,0:0|0:0,0:0:0:0:
112,250,31605,6,0,L|118:278,6,23.75
20,105,31920,6,0,P|68:97|124:121,1,95,8|2,0:0|0:0,0:0:0:0:
206,68,32236,1,2,0:0:0:0:
210,56,32315,1,0,0:0:0:0:
214,44,32394,1,2,0:0:0:0:
412,37,32552,6,0,L|430:142,1,95,8|2,0:0|0:0,0:0:0:0:
393,202,32868,2,0,L|411:307,1,95,8|2,0:0|0:0,0:0:0:0:
423,143,33183,2,0,L|512:110,1,95,8|2,0:0|0:0,0:0:0:0:
380,191,33499,2,0,L|290:223,1,95,8|2,0:0|0:0,0:0:0:0:
229,357,33815,5,2,0:0:0:0:
319,326,33973,1,2,0:0:0:0:
409,295,34131,1,2,0:0:0:0:
63,206,34447,6,0,L|75:311,1,95,8|2,0:0|0:0,0:0:0:0:
183,226,34762,1,2,0:0:0:0:
63,206,34920,1,2,0:0:0:0:
141,71,35078,6,0,B|105:93|105:93|13:87,1,95,8|2,0:0|0:0,0:0:0:0:
205,134,35394,2,0,L|183:231,1,95,8|2,0:0|0:0,0:0:0:0:
307,134,35710,2,0,L|329:231,1,95,8|2,0:0|0:0,0:0:0:0:
371,71,36026,2,0,B|407:93|407:93|499:87,1,95,8|2,0:0|0:0,0:0:0:0:
449,206,36341,5,2,0:0:0:0:
329,226,36499,1,2,0:0:0:0:
449,206,36657,1,2,0:0:0:0:
32,116,36973,6,0,L|17:1,1,95,8|2,0:0|0:0,0:0:0:0:
120,156,37289,1,2,0:0:0:0:
116,168,37368,1,0,0:0:0:0:
112,180,37447,1,2,0:0:0:0:
288,104,37605,6,0,L|273:-11,1,95,8|2,0:0|0:0,0:0:0:0:
304,114,37920,2,0,L|319:229,1,95,8|2,0:0|0:0,0:0:0:0:
180,11,38236,2,0,P|226:-6|278:2,1,95,8|2,0:0|0:0,0:0:0:0:
412,207,38552,2,0,P|366:224|314:216,1,95,8|2,0:0|0:0,0:0:0:0:
208,169,38868,5,2,0:0:0:0:
296,109,39026,1,2,0:0:0:0:
384,49,39183,1,2,0:0:0:0:
116,356,39499,6,0,L|-12:372,1,95,8|2,0:0|0:0,0:0:0:0:
224,328,39815,1,2,0:0:0:0:
232,336,39894,1,0,0:0:0:0:
240,344,39973,1,2,0:0:0:0:
381,248,40131,6,0,B|353:284|353:284|361:336,1,95,8|2,0:0|0:0,0:0:0:0:
284,236,40447,2,0,L|156:252,1,95,8|2,0:0|0:0,0:0:0:0:
284,148,40762,2,0,L|156:132,1,95,8|2,0:0|0:0,0:0:0:0:
381,136,41078,2,0,B|353:100|353:100|361:48,1,95,8|2,0:0|0:0,0:0:0:0:
472,192,41394,5,2,0:0:0:0:
472,72,41552,1,2,0:0:0:0:
472,312,41710,1,6,0:0:0:0:
168,131,42026,5,6,0:0:0:0:
16,163,42183,1,2,0:0:0:0:
184,203,42341,1,10,0:0:0:0:
184,203,42420,1,0,0:0:0:0:
184,203,42499,1,2,0:0:0:0:
0,99,42657,1,0,0:0:0:0:
88,43,42815,5,2,0:0:0:0:
96,35,42894,1,0,0:0:0:0:
104,27,42973,1,8,0:0:0:0:
152,115,43131,1,2,0:0:0:0:
160,123,43210,1,0,0:0:0:0:
168,131,43289,1,0,0:0:0:0:
226,54,43447,1,2,0:0:0:0:
234,46,43526,1,0,0:0:0:0:
242,38,43605,1,8,0:0:0:0:
344,65,43762,5,2,0:0:0:0:
456,41,43920,1,2,0:0:0:0:
312,1,44078,1,2,0:0:0:0:
480,105,44236,2,0,B|376:129|376:129|424:153,1,142.5,10|0,0:0|0:0,0:0:0:0:
424,153,44552,5,6,0:0:0:0:
472,321,44710,1,2,0:0:0:0:
384,217,44868,1,10,0:0:0:0:
384,217,44947,1,0,0:0:0:0:
384,217,45026,1,2,0:0:0:0:
512,257,45183,1,0,0:0:0:0:
336,273,45341,5,2,0:0:0:0:
328,265,45420,1,0,0:0:0:0:
320,257,45499,1,8,0:0:0:0:
258,350,45657,1,2,0:0:0:0:
268,347,45736,1,0,0:0:0:0:
279,344,45815,1,0,0:0:0:0:
230,243,45973,1,2,0:0:0:0:
227,254,46052,1,0,0:0:0:0:
225,265,46131,1,8,0:0:0:0:
56,360,46289,5,2,0:0:0:0:
112,248,46447,1,2,0:0:0:0:
144,360,46605,1,2,0:0:0:0:
24,248,46762,2,0,B|52:294|130:295|156:228,1,142.5,10|0,0:0|0:0,0:0:0:0:
167,214,47078,5,6,0:0:0:0:
3,109,47236,1,2,0:0:0:0:
143,145,47394,1,10,0:0:0:0:
143,145,47473,1,0,0:0:0:0:
143,145,47552,1,2,0:0:0:0:
27,178,47710,1,0,0:0:0:0:
64,16,47868,5,2,0:0:0:0:
68,28,47947,1,0,0:0:0:0:
72,40,48026,1,8,0:0:0:0:
143,145,48183,1,2,0:0:0:0:
147,133,48262,1,0,0:0:0:0:
151,121,48341,1,0,0:0:0:0:
180,0,48499,1,2,0:0:0:0:
184,12,48578,1,0,0:0:0:0:
188,24,48657,1,8,0:0:0:0:
280,72,48815,5,2,0:0:0:0:
437,44,48973,1,2,0:0:0:0:
350,10,49131,1,2,0:0:0:0:
365,97,49289,2,0,B|372:134|372:134|496:192,1,142.5,10|0,0:0|0:0,0:0:0:0:
487,188,49605,5,6,0:0:0:0:
449,371,49762,1,2,0:0:0:0:
424,240,49920,1,10,0:0:0:0:
424,240,49999,1,0,0:0:0:0:
424,240,50078,1,2,0:0:0:0:
512,319,50236,1,0,0:0:0:0:
328,196,50394,5,2,0:0:0:0:
321,209,50473,1,0,0:0:0:0:
320,224,50552,1,8,0:0:0:0:
300,348,50710,1,2,0:0:0:0:
292,335,50789,1,0,0:0:0:0:
279,327,50868,1,0,0:0:0:0:
182,247,51025,1,2,0:0:0:0:
197,247,51104,1,0,0:0:0:0:
211,240,51183,1,8,0:0:0:0:
399,325,51341,6,0,B|448:320|448:320|460:324|460:324|516:318,3,113.999996520996,2|2|2|2,0:0|0:0|0:0|0:0,0:0:0:0:
52,354,52131,5,6,0:0:0:0:
137,210,52289,1,2,0:0:0:0:
269,270,52447,1,10,0:0:0:0:
265,292,52526,1,0,0:0:0:0:
251,312,52605,1,2,0:0:0:0:
49,274,52762,5,0,0:0:0:0:
220,144,52920,1,2,0:0:0:0:
231,166,52999,1,0,0:0:0:0:
231,190,53078,1,8,0:0:0:0:
164,360,53236,1,2,0:0:0:0:
153,338,53315,1,0,0:0:0:0:
153,314,53394,1,0,0:0:0:0:
114,150,53552,5,2,0:0:0:0:
114,150,53631,1,0,0:0:0:0:
114,150,53710,1,8,0:0:0:0:
111,268,53868,5,2,0:0:0:0:
21,84,54026,1,2,0:0:0:0:
13,203,54183,1,2,0:0:0:0:
130,35,54341,1,10,0:0:0:0:
256,3,54499,6,0,P|246:28|256:103,1,95
496,104,54815,2,0,P|506:79|496:4,1,95,2|10,0:0|0:0,0:0:0:0:
310,160,55131,1,2,0:0:0:0:
430,50,55289,1,0,0:0:0:0:
386,199,55447,5,2,0:0:0:0:
353,23,55605,1,8,0:0:0:0:
469,212,55762,1,2,0:0:0:0:
487,205,55841,1,0,0:0:0:0:
499,190,55920,1,0,0:0:0:0:
289,98,56078,5,2,0:0:0:0:
271,91,56157,1,0,0:0:0:0:
252,89,56236,1,8,0:0:0:0:
228,94,56315,1,0,0:0:0:0:
208,109,56394,1,2,0:0:0:0:
198,136,56473,1,0,0:0:0:0:
203,164,56552,1,2,0:0:0:0:
223,189,56631,1,0,0:0:0:0:
255,197,56710,1,2,0:0:0:0:
287,190,56789,1,0,0:0:0:0:
310,160,56868,2,0,P|318:108|303:45,1,95,10|0,0:0|0:0,0:0:0:0:
88,29,57183,5,2,0:0:0:0:
81,252,57341,1,2,0:0:0:0:
38,85,57499,1,10,0:0:0:0:
38,85,57578,1,0,0:0:0:0:
38,85,57657,1,2,0:0:0:0:
131,196,57815,1,0,0:0:0:0:
7,201,57973,5,2,0:0:0:0:
21,182,58052,1,0,0:0:0:0:
43,172,58131,1,8,0:0:0:0:
203,118,58289,1,2,0:0:0:0:
205,94,58368,1,0,0:0:0:0:
196,73,58447,1,0,0:0:0:0:
170,282,58604,1,2,0:0:0:0:
190,296,58683,1,0,0:0:0:0:
212,300,58762,1,8,0:0:0:0:
285,209,58920,5,2,0:0:0:0:
320,336,59078,1,2,0:0:0:0:
398,224,59236,1,2,0:0:0:0:
433,351,59394,1,10,0:0:0:0:
320,336,59552,6,0,P|360:300|416:293,1,95
512,207,59868,2,0,P|460:190|426:145,1,95,2|10,0:0|0:0,0:0:0:0:
285,118,60183,2,0,P|296:171|274:223,1,95,2|0,0:0|0:0,0:0:0:0:
157,184,60499,5,2,0:0:0:0:
150,161,60578,1,0,0:0:0:0:
156,138,60657,1,8,0:0:0:0:
107,322,60815,1,2,0:0:0:0:
114,345,60894,1,0,0:0:0:0:
108,368,60973,1,0,0:0:0:0:
49,257,61131,5,2,0:0:0:0:
71,248,61210,1,0,0:0:0:0:
94,245,61289,1,8,0:0:0:0:
117,246,61368,1,0,0:0:0:0:
138,255,61447,1,2,0:0:0:0:
157,269,61526,1,0,0:0:0:0:
168,289,61605,5,2,0:0:0:0:
42,345,61762,1,2,0:0:0:0:
294,233,61920,2,0,B|308:278|308:278|299:300|299:300|321:372,1,142.5,10|0,0:0|0:0,0:0:0:0:
324,384,62236,6,0,P|367:344|427:333,1,113.999996520996
511,344,62552,1,10,0:0:0:0:
503,360,62631,1,0,0:0:0:0:
495,376,62710,2,0,P|439:360|415:320,1,95,2|0,0:0|0:0,0:0:0:0:
480,219,63026,5,2,0:0:0:0:
496,227,63105,1,0,0:0:0:0:
512,235,63183,1,8,0:0:0:0:
368,219,63341,1,2,0:0:0:0:
352,211,63420,1,0,0:0:0:0:
335,203,63498,1,0,0:0:0:0:
440,99,63657,1,2,0:0:0:0:
432,115,63736,1,0,0:0:0:0:
424,131,63814,1,8,0:0:0:0:
184,64,63973,5,2,0:0:0:0:
360,32,64131,1,2,0:0:0:0:
264,0,64289,1,2,0:0:0:0:
280,96,64447,1,10,0:0:0:0:
417,185,64605,6,0,P|441:144|439:98,1,95
184,64,64920,2,0,P|160:104|163:151,1,95,2|10,0:0|0:0,0:0:0:0:
262,308,65236,5,2,0:0:0:0:
276,289,65315,1,0,0:0:0:0:
281,267,65394,1,0,0:0:0:0:
355,129,65552,1,2,0:0:0:0:
331,126,65631,1,0,0:0:0:0:
310,133,65710,1,8,0:0:0:0:
153,139,65868,1,2,0:0:0:0:
162,160,65947,1,0,0:0:0:0:
179,176,66026,1,0,0:0:0:0:
256,192,66183,5,2,0:0:0:0:
264,168,66262,1,0,0:0:0:0:
264,144,66341,1,8,0:0:0:0:
256,120,66420,1,0,0:0:0:0:
248,96,66499,1,2,0:0:0:0:
248,72,66578,1,0,0:0:0:0:
256,48,66657,6,0,L|240:176,2,113.999996520996,2|2|10,0:0|0:0|0:0,0:0:0:0:
104,36,67131,5,0,0:0:0:0:
3,130,67289,1,0,0:0:0:0:
39,119,67368,1,0,0:0:0:0:
76,120,67447,1,2,0:0:0:0:
106,142,67526,1,0,0:0:0:0:
126,174,67605,1,10,0:0:0:0:
123,211,67683,1,0,0:0:0:0:
101,242,67762,1,2,0:0:0:0:
69,263,67841,1,0,0:0:0:0:
51,297,67920,1,0,0:0:0:0:
52,334,67999,1,0,0:0:0:0:
75,363,68078,1,2,0:0:0:0:
109,379,68157,1,0,0:0:0:0:
146,371,68236,1,8,0:0:0:0:
173,344,68315,1,0,0:0:0:0:
204,322,68394,1,2,0:0:0:0:
241,314,68473,1,0,0:0:0:0:
278,320,68552,1,0,0:0:0:0:
310,339,68631,1,0,0:0:0:0:
333,368,68710,1,2,0:0:0:0:
368,381,68789,1,0,0:0:0:0:
405,377,68868,1,8,0:0:0:0:
435,354,68947,1,0,0:0:0:0:
444,317,69026,1,2,0:0:0:0:
434,280,69105,1,0,0:0:0:0:
407,253,69183,1,2,0:0:0:0:
369,251,69262,1,0,0:0:0:0:
332,262,69341,5,2,0:0:0:0:
334,238,69420,1,0,0:0:0:0:
336,214,69499,1,10,0:0:0:0:
337,190,69578,1,0,0:0:0:0:
338,166,69657,2,0,L|393:179,1,47.5,2|0,0:0|0:0,0:0:0:0:
409,116,69815,2,0,L|363:105,1,47.5
300,91,69973,5,2,0:0:0:0:
292,58,70052,1,0,0:0:0:0:
307,28,70131,1,10,0:0:0:0:
335,10,70210,1,0,0:0:0:0:
366,19,70289,2,0,L|303:32,1,47.5,2|0,0:0|0:0,0:0:0:0:
235,88,70447,2,0,L|172:75,1,47.5
128,63,70605,5,2,0:0:0:0:
95,57,70683,1,0,0:0:0:0:
66,73,70762,1,8,0:0:0:0:
48,101,70841,1,0,0:0:0:0:
49,134,70920,2,0,L|49:187,1,47.5,2|0,0:0|0:0,0:0:0:0:
85,241,71078,2,0,L|85:294,1,47.5
110,350,71236,5,0,0:0:0:0:
148,366,71314,1,0,0:0:0:0:
190,361,71393,1,0,0:0:0:0:
221,332,71472,1,0,0:0:0:0:
256,307,71551,1,0,0:0:0:0:
298,305,71630,1,0,0:0:0:0:
334,327,71709,1,0,0:0:0:0:
352,365,71788,1,0,0:0:0:0:
393,377,71867,1,0,0:0:0:0:
431,358,71946,1,0,0:0:0:0:
448,318,72025,1,0,0:0:0:0:
430,279,72104,1,0,0:0:0:0:
395,253,72183,1,0,0:0:0:0:
378,213,72262,1,0,0:0:0:0:
387,171,72341,6,0,L|485:146,1,85.4999973907472,4|0,0:0|0:0,0:0:0:0:
497,59,72657,2,0,L|414:80,1,85.4999973907472,8|0,0:0|0:0,0:0:0:0:
328,96,72973,1,0,0:0:0:0:
293,24,73131,1,0,0:0:0:0:
152,24,73289,2,0,B|200:24|200:24|232:96|232:96|168:96,1,170.999994781494,8|4,0:0|0:0,0:0:0:0:
96,96,73762,1,0,0:0:0:0:
61,24,73920,1,8,0:0:0:0:
24,296,74236,6,0,P|56:264|112:256,1,85.4999973907472
144,336,74552,2,0,P|112:368|56:376,1,85.4999973907472,8|0,0:0|0:0,0:0:0:0:
168,240,74868,1,4,0:0:0:0:
218,322,75026,1,0,0:0:0:0:
242,226,75183,1,8,0:0:0:0:
424,166,75499,6,0,L|528:142,1,85.4999973907472
446,51,75815,2,0,L|383:109,1,85.4999973907472,8|0,0:0|0:0,0:0:0:0:
321,81,76131,2,0,L|352:-21,1,85.4999973907472
231,3,76447,2,0,L|271:175,1,170.999994781494,8|0,0:0|0:0,0:0:0:0:
31,39,77078,6,0,P|66:77|77:143,1,85.4999973907472,8|0,0:0|0:0,0:0:0:0:
47,255,77394,1,4,0:0:0:0:
37,178,77552,1,0,0:0:0:0:
76,108,77710,1,8,0:0:0:0:
150,87,77868,1,0,0:0:0:0:
224,105,78026,1,0,0:0:0:0:
273,163,78183,1,0,0:0:0:0:
348,179,78341,1,8,0:0:0:0:
422,160,78499,1,0,0:0:0:0:
475,104,78657,5,4,0:0:0:0:
477,27,78815,1,0,0:0:0:0:
457,90,78973,1,8,0:0:0:0:
445,14,79131,1,0,0:0:0:0:
434,84,79289,1,0,0:0:0:0:
408,12,79447,1,0,0:0:0:0:
408,87,79605,1,8,0:0:0:0:
369,20,79763,1,0,0:0:0:0:
298,75,79920,5,4,0:0:0:0:
284,85,79999,1,0,0:0:0:0:
268,92,80078,1,0,0:0:0:0:
251,94,80157,1,0,0:0:0:0:
233,93,80236,1,8,0:0:0:0:
216,88,80315,1,0,0:0:0:0:
200,79,80394,1,0,0:0:0:0:
185,70,80473,1,0,0:0:0:0:
170,60,80552,1,0,0:0:0:0:
155,50,80631,1,0,0:0:0:0:
140,40,80710,1,0,0:0:0:0:
124,31,80789,1,0,0:0:0:0:
107,26,80868,1,8,0:0:0:0:
89,25,80947,1,0,0:0:0:0:
72,27,81026,1,0,0:0:0:0:
56,34,81105,1,0,0:0:0:0:
42,44,81183,6,0,L|50:161,1,85.4999973907472
22,261,81499,1,8,0:0:0:0:
36,251,81578,1,0,0:0:0:0:
52,245,81657,1,0,0:0:0:0:
69,243,81736,1,0,0:0:0:0:
85,245,81815,1,0,0:0:0:0:
101,249,81894,1,0,0:0:0:0:
116,257,81973,1,0,0:0:0:0:
128,268,82052,1,0,0:0:0:0:
137,281,82131,1,8,0:0:0:0:
144,296,82210,1,0,0:0:0:0:
147,312,82289,1,0,0:0:0:0:
146,329,82368,1,0,0:0:0:0:
141,345,82447,6,0,L|326:338,1,170.999994781494,4|0,0:0|0:0,0:0:0:0:
482,333,83078,1,0,0:0:0:0:
474,317,83157,1,0,0:0:0:0:
466,301,83236,1,0,0:0:0:0:
458,285,83315,1,0,0:0:0:0:
450,269,83394,2,0,L|335:273,1,85.4999973907472
287,233,83710,6,0,L|116:239,1,170.999994781494,4|0,0:0|0:0,0:0:0:0:
13,56,84341,2,0,P|54:20|102:16,1,85.4999973907472
129,86,84657,2,0,P|88:122|40:126,1,85.4999973907472
170,14,84973,6,0,L|340:7,1,170.999994781494,4|0,0:0|0:0,0:0:0:0:
499,72,85605,1,0,0:0:0:0:
482,76,85683,1,0,0:0:0:0:
467,84,85762,1,0,0:0:0:0:
455,96,85841,1,0,0:0:0:0:
446,110,85920,1,0,0:0:0:0:
430,280,86236,1,0,0:0:0:0:
435,263,86314,1,0,0:0:0:0:
435,246,86393,1,0,0:0:0:0:
431,229,86472,1,0,0:0:0:0:
423,215,86551,1,0,0:0:0:0:
285,116,86868,1,0,0:0:0:0:
296,128,86946,1,0,0:0:0:0:
311,137,87025,1,0,0:0:0:0:
327,142,87104,1,0,0:0:0:0:
344,142,87183,1,0,0:0:0:0:
193,41,87499,5,4,0:0:0:0:
176,37,87578,1,0,0:0:0:0:
158,36,87657,1,0,0:0:0:0:
141,39,87736,1,0,0:0:0:0:
126,47,87815,1,0,0:0:0:0:
113,58,87894,1,0,0:0:0:0:
105,73,87973,1,0,0:0:0:0:
101,89,88052,1,0,0:0:0:0:
102,106,88131,1,0,0:0:0:0:
107,122,88210,1,0,0:0:0:0:
114,137,88289,1,0,0:0:0:0:
123,151,88368,1,0,0:0:0:0:
135,162,88447,1,0,0:0:0:0:
145,175,88526,1,0,0:0:0:0:
154,189,88605,1,0,0:0:0:0:
159,205,88683,1,0,0:0:0:0:
161,221,88762,5,4,0:0:0:0:
159,238,88841,1,0,0:0:0:0:
154,254,88920,1,0,0:0:0:0:
143,267,88999,1,0,0:0:0:0:
128,276,89078,1,0,0:0:0:0:
111,281,89157,1,0,0:0:0:0:
93,281,89236,1,0,0:0:0:0:
76,275,89315,1,0,0:0:0:0:
61,265,89394,1,0,0:0:0:0:
49,252,89473,1,0,0:0:0:0:
41,236,89552,1,0,0:0:0:0:
39,218,89631,1,0,0:0:0:0:
41,201,89710,1,0,0:0:0:0:
49,186,89789,1,0,0:0:0:0:
60,173,89868,1,0,0:0:0:0:
75,165,89947,1,0,0:0:0:0:
91,161,90026,5,4,0:0:0:0:
256,192,90105,12,0,92552,0:0:0:0:
