osu file format v14

[General]
AudioFilename: sans - Undertale.mp3
AudioLeadIn: 0
PreviewTime: 21091
Countdown: 0
SampleSet: Normal
StackLeniency: 0.7
Mode: 1
LetterboxInBreaks: 0
WidescreenStoryboard: 1

[Editor]
DistanceSpacing: 1.84
BeatDivisor: 6
GridSize: 32
TimelineZoom: 2.599999

[Metadata]
Title:skrill.
TitleUnicode:skrill.
Artist:NBGMusic
ArtistUnicode:NBGMusic
Creator:Stefan
Version:Taikovic
Source:UNDERTALE
Tags:siIvagunner silvagunner giIvasunner gilvasunner's highest quality video game rips: volume 1 sans sans. grillby's parody dubstep toby fox tng thenutritiousguy
BeatmapID:1039212
BeatmapSetID:487440

[Difficulty]
HPDrainRate:6
CircleSize:5
OverallDifficulty:5.5
ApproachRate:5
SliderMultiplier:1.4
SliderTickRate:1

[Events]
//Background and Video events
0,0,"undertale__sans_by_kiwa007-d9i8ufq.png",0,60
//Break Periods
//Storyboard Layer 0 (Background)
//Storyboard Layer 1 (Fail)
//Storyboard Layer 2 (Pass)
//Storyboard Layer 3 (Foreground)
//Storyboard Sound Samples

[TimingPoints]
232,468.75,4,1,0,40,1,0
232,-125,4,1,0,40,0,0
6325,-111.111111111111,4,1,0,40,0,0
6560,-100,4,1,0,40,0,0
6794,-90.9090909090909,4,1,0,40,0,0
7028,-83.3333333333333,4,1,0,40,0,0
7263,-76.9230769230769,4,1,0,40,0,0
7732,-57.1428571428571,4,1,0,50,0,1
21091,-50.761421319797,4,1,0,50,0,1
21325,-45.662100456621,4,1,0,50,0,1
21560,-41.49377593361,4,1,0,50,0,1
21794,-38.0228136882129,4,1,0,50,0,1
22028,-35.0877192982456,4,1,0,50,0,1
22263,-32.5732899022801,4,1,0,50,0,1
22497,-30.3951367781155,4,1,0,50,0,1
22732,-28.4900284900285,4,1,0,50,0,0
23200,-57.1428571428571,4,1,0,50,0,0
30232,-57.1428571428571,4,1,0,50,0,1
43591,-50.761421319797,4,1,0,50,0,1
43825,-45.662100456621,4,1,0,50,0,1
44060,-41.49377593361,4,1,0,50,0,1
44294,-38.0228136882129,4,1,0,50,0,1
44528,-35.0877192982456,4,1,0,50,0,1
44763,-32.5732899022801,4,1,0,50,0,1
44997,-30.3951367781155,4,1,0,50,0,1
45232,-28.4900284900285,4,1,0,50,0,0
45700,-57.1428571428571,4,1,0,50,0,0

[HitObjects]
256,192,232,5,8,0:0:0:0:
256,192,700,5,0,0:0:0:0:
256,192,935,5,0,0:0:0:0:
256,192,1169,1,8,0:0:0:0:
256,192,1638,5,0,0:0:0:0:
256,192,2107,1,8,0:0:0:0:
256,192,2575,5,0,0:0:0:0:
256,192,2810,5,0,0:0:0:0:
256,192,3044,1,8,0:0:0:0:
256,192,3513,5,0,0:0:0:0:
256,192,3982,1,8,0:0:0:0:
256,192,4450,5,0,0:0:0:0:
256,192,4685,5,0,0:0:0:0:
256,192,4919,1,8,0:0:0:0:
256,192,5388,5,0,0:0:0:0:
256,192,5857,1,8,0:0:0:0:
256,192,6325,1,12,0:0:0:0:
256,192,6560,1,4,0:0:0:0:
256,192,6794,1,12,0:0:0:0:
256,192,7028,1,4,0:0:0:0:
256,192,7263,1,12,0:0:0:0:
256,192,7732,1,4,0:0:0:0:
256,192,8200,1,8,0:0:0:0:
256,192,8435,1,0,0:0:0:0:
256,192,8669,1,12,0:0:0:0:
256,192,9138,1,8,0:0:0:0:
256,192,9216,1,0,0:0:0:0:
256,192,9294,1,0,0:0:0:0:
256,192,9372,1,8,0:0:0:0:
256,192,9607,1,0,0:0:0:0:
256,192,9841,1,8,0:0:0:0:
256,192,10075,1,0,0:0:0:0:
256,192,10310,1,0,0:0:0:0:
256,192,10544,1,12,0:0:0:0:
256,192,10778,1,8,0:0:0:0:
256,192,10857,1,8,0:0:0:0:
256,192,10935,1,0,0:0:0:0:
256,192,11013,1,8,0:0:0:0:
256,192,11247,1,8,0:0:0:0:
256,192,11482,1,4,0:0:0:0:
256,192,11950,1,8,0:0:0:0:
256,192,12185,1,0,0:0:0:0:
256,192,12419,1,12,0:0:0:0:
256,192,12888,1,8,0:0:0:0:
256,192,13122,1,8,0:0:0:0:
256,192,13357,1,0,0:0:0:0:
256,192,13591,1,8,0:0:0:0:
256,192,13669,1,8,0:0:0:0:
256,192,13747,1,0,0:0:0:0:
256,192,13825,1,8,0:0:0:0:
256,192,13903,1,8,0:0:0:0:
256,192,13982,1,0,0:0:0:0:
256,192,14060,1,8,0:0:0:0:
256,192,14294,1,12,0:0:0:0:
256,192,14528,1,8,0:0:0:0:
256,192,14607,1,0,0:0:0:0:
256,192,14685,1,0,0:0:0:0:
256,192,14763,1,8,0:0:0:0:
256,192,14997,1,0,0:0:0:0:
256,192,15232,1,4,0:0:0:0:
256,192,15700,1,8,0:0:0:0:
256,192,15935,1,0,0:0:0:0:
256,192,16169,1,12,0:0:0:0:
256,192,16638,1,8,0:0:0:0:
256,192,16716,1,0,0:0:0:0:
256,192,16794,1,0,0:0:0:0:
256,192,16872,1,8,0:0:0:0:
256,192,17107,1,0,0:0:0:0:
256,192,17341,1,8,0:0:0:0:
256,192,17575,1,0,0:0:0:0:
256,192,17810,1,0,0:0:0:0:
256,192,18044,1,12,0:0:0:0:
256,192,18278,1,8,0:0:0:0:
256,192,18357,1,8,0:0:0:0:
256,192,18435,1,0,0:0:0:0:
256,192,18513,1,8,0:0:0:0:
256,192,18747,1,8,0:0:0:0:
256,192,18982,1,4,0:0:0:0:
256,192,19450,1,8,0:0:0:0:
256,192,19685,1,0,0:0:0:0:
256,192,19919,1,12,0:0:0:0:
256,192,20388,1,8,0:0:0:0:
256,192,20466,1,0,0:0:0:0:
256,192,20544,1,0,0:0:0:0:
256,192,20622,1,8,0:0:0:0:
256,192,20857,1,0,0:0:0:0:
256,192,21091,1,12,0:0:0:0:
256,192,21325,1,12,0:0:0:0:
256,192,21560,1,12,0:0:0:0:
256,192,21794,1,12,0:0:0:0:
256,192,22028,1,4,0:0:0:0:
256,192,22263,1,12,0:0:0:0:
256,192,22497,1,4,0:0:0:0:
256,192,22732,1,12,0:0:0:0:
256,192,23200,1,8,0:0:0:0:
256,192,23278,1,0,0:0:0:0:
256,192,23435,1,8,0:0:0:0:
256,192,23513,1,0,0:0:0:0:
256,192,23669,1,12,0:0:0:0:
256,192,24138,1,8,0:0:0:0:
256,192,24216,1,0,0:0:0:0:
256,192,24294,1,0,0:0:0:0:
256,192,24372,1,8,0:0:0:0:
256,192,24607,1,8,0:0:0:0:
256,192,24841,1,8,0:0:0:0:
256,192,24919,1,8,0:0:0:0:
256,192,24997,1,0,0:0:0:0:
256,192,25075,1,8,0:0:0:0:
256,192,25153,1,8,0:0:0:0:
256,192,25232,1,0,0:0:0:0:
256,192,25310,1,8,0:0:0:0:
256,192,25544,1,12,0:0:0:0:
256,192,25778,1,0,0:0:0:0:
256,192,26013,1,12,0:0:0:0:
256,192,26247,1,12,0:0:0:0:
256,192,26482,1,4,0:0:0:0:
256,192,26950,1,8,0:0:0:0:
256,192,27028,1,0,0:0:0:0:
256,192,27107,1,0,0:0:0:0:
256,192,27185,1,8,0:0:0:0:
256,192,27419,1,12,0:0:0:0:
256,192,27888,1,8,0:0:0:0:
256,192,28122,1,8,0:0:0:0:
256,192,28357,1,0,0:0:0:0:
256,192,28591,1,8,0:0:0:0:
256,192,28669,1,8,0:0:0:0:
256,192,28747,1,0,0:0:0:0:
256,192,28825,1,8,0:0:0:0:
256,192,28903,1,0,0:0:0:0:
256,192,28982,1,0,0:0:0:0:
256,192,29060,1,8,0:0:0:0:
256,192,29294,1,12,0:0:0:0:
256,192,29528,1,8,0:0:0:0:
256,192,29607,1,0,0:0:0:0:
256,192,29685,1,0,0:0:0:0:
256,192,29763,1,8,0:0:0:0:
256,192,29880,1,0,0:0:0:0:
256,192,29997,1,8,0:0:0:0:
256,192,30232,1,4,0:0:0:0:
256,192,30700,1,8,0:0:0:0:
256,192,30935,1,0,0:0:0:0:
256,192,31169,1,12,0:0:0:0:
256,192,31638,1,8,0:0:0:0:
256,192,31716,1,0,0:0:0:0:
256,192,31794,1,0,0:0:0:0:
256,192,31872,1,8,0:0:0:0:
256,192,32107,1,0,0:0:0:0:
256,192,32341,1,8,0:0:0:0:
256,192,32575,1,0,0:0:0:0:
256,192,32810,1,0,0:0:0:0:
256,192,33044,1,12,0:0:0:0:
256,192,33278,1,8,0:0:0:0:
256,192,33357,1,8,0:0:0:0:
256,192,33435,1,0,0:0:0:0:
256,192,33513,1,8,0:0:0:0:
256,192,33747,1,8,0:0:0:0:
256,192,33982,1,4,0:0:0:0:
256,192,34450,1,8,0:0:0:0:
256,192,34685,1,0,0:0:0:0:
256,192,34919,1,12,0:0:0:0:
256,192,35388,1,8,0:0:0:0:
256,192,35622,1,8,0:0:0:0:
256,192,35857,1,0,0:0:0:0:
256,192,36091,1,8,0:0:0:0:
256,192,36169,1,8,0:0:0:0:
256,192,36247,1,0,0:0:0:0:
256,192,36325,1,8,0:0:0:0:
256,192,36403,1,8,0:0:0:0:
256,192,36482,1,0,0:0:0:0:
256,192,36560,1,8,0:0:0:0:
256,192,36794,1,12,0:0:0:0:
256,192,37028,1,8,0:0:0:0:
256,192,37107,1,0,0:0:0:0:
256,192,37185,1,0,0:0:0:0:
256,192,37263,1,8,0:0:0:0:
256,192,37497,1,8,0:0:0:0:
256,192,37732,1,4,0:0:0:0:
256,192,38200,1,8,0:0:0:0:
256,192,38435,1,0,0:0:0:0:
256,192,38669,1,12,0:0:0:0:
256,192,39138,1,8,0:0:0:0:
256,192,39216,1,0,0:0:0:0:
256,192,39294,1,0,0:0:0:0:
256,192,39372,1,8,0:0:0:0:
256,192,39607,1,0,0:0:0:0:
256,192,39841,1,8,0:0:0:0:
256,192,40075,1,0,0:0:0:0:
256,192,40310,1,0,0:0:0:0:
256,192,40544,1,12,0:0:0:0:
256,192,40778,1,8,0:0:0:0:
256,192,40857,1,8,0:0:0:0:
256,192,40935,1,0,0:0:0:0:
256,192,41013,1,8,0:0:0:0:
256,192,41247,1,8,0:0:0:0:
256,192,41482,1,4,0:0:0:0:
256,192,41950,1,8,0:0:0:0:
256,192,42185,1,0,0:0:0:0:
256,192,42419,1,12,0:0:0:0:
256,192,42888,1,8,0:0:0:0:
256,192,42966,1,0,0:0:0:0:
256,192,43044,1,0,0:0:0:0:
256,192,43122,1,8,0:0:0:0:
256,192,43357,1,0,0:0:0:0:
256,192,43591,1,12,0:0:0:0:
256,192,43825,1,12,0:0:0:0:
256,192,44060,1,12,0:0:0:0:
256,192,44294,1,12,0:0:0:0:
256,192,44528,1,4,0:0:0:0:
256,192,44763,1,12,0:0:0:0:
256,192,44997,1,4,0:0:0:0:
256,192,45232,1,12,0:0:0:0:
256,192,45700,1,8,0:0:0:0:
256,192,45778,1,0,0:0:0:0:
256,192,45935,1,8,0:0:0:0:
256,192,46013,1,0,0:0:0:0:
256,192,46169,1,12,0:0:0:0:
256,192,46638,1,8,0:0:0:0:
256,192,46716,1,0,0:0:0:0:
256,192,46794,1,0,0:0:0:0:
256,192,46872,1,8,0:0:0:0:
256,192,47107,1,8,0:0:0:0:
256,192,47341,1,8,0:0:0:0:
256,192,47419,1,8,0:0:0:0:
256,192,47497,1,0,0:0:0:0:
256,192,47575,1,8,0:0:0:0:
256,192,47653,1,8,0:0:0:0:
256,192,47732,1,0,0:0:0:0:
256,192,47810,1,8,0:0:0:0:
256,192,48044,1,12,0:0:0:0:
256,192,48278,1,0,0:0:0:0:
256,192,48513,1,12,0:0:0:0:
256,192,48747,1,12,0:0:0:0:
256,192,48982,1,4,0:0:0:0:
256,192,49450,1,8,0:0:0:0:
256,192,49528,1,0,0:0:0:0:
256,192,49607,1,0,0:0:0:0:
256,192,49685,1,8,0:0:0:0:
256,192,49919,1,12,0:0:0:0:
256,192,50388,1,8,0:0:0:0:
256,192,50622,1,8,0:0:0:0:
256,192,50857,1,0,0:0:0:0:
256,192,51091,1,8,0:0:0:0:
256,192,51169,1,8,0:0:0:0:
256,192,51247,1,0,0:0:0:0:
256,192,51325,1,8,0:0:0:0:
256,192,51403,1,0,0:0:0:0:
256,192,51482,1,0,0:0:0:0:
256,192,51560,1,8,0:0:0:0:
256,192,51794,1,12,0:0:0:0:
256,192,52028,1,8,0:0:0:0:
256,192,52107,1,0,0:0:0:0:
256,192,52185,1,0,0:0:0:0:
256,192,52263,1,8,0:0:0:0:
256,192,52380,1,0,0:0:0:0:
256,192,52497,1,8,0:0:0:0:
256,192,52732,1,0,0:0:0:0:
256,192,53200,1,0,0:0:0:0:
256,192,53435,1,0,0:0:0:0:
256,192,53669,1,8,0:0:0:0:
256,192,54138,1,0,0:0:0:0:
256,192,54607,1,0,0:0:0:0:
256,192,55075,1,0,0:0:0:0:
256,192,55310,1,0,0:0:0:0:
256,192,55544,1,8,0:0:0:0:
256,192,56013,1,0,0:0:0:0:
