osu file format v14

[General]
AudioFilename: sans - Undertale.mp3
AudioLeadIn: 0
PreviewTime: 21091
Countdown: 0
SampleSet: Normal
StackLeniency: 0.7
Mode: 1
LetterboxInBreaks: 0
WidescreenStoryboard: 1

[Editor]
DistanceSpacing: 1.84
BeatDivisor: 2
GridSize: 32
TimelineZoom: 1.8

[Metadata]
Title:skrill.
TitleUnicode:skrill.
Artist:NBGMusic
ArtistUnicode:NBGMusic
Creator:Stefan
Version:Muzukashii
Source:UNDERTALE
Tags:siIvagunner silvagunner giIvasunner gilvasunner's highest quality video game rips: volume 1 sans sans. grillby's parody dubstep toby fox tng thenutritiousguy
BeatmapID:1039214
BeatmapSetID:487440

[Difficulty]
HPDrainRate:7.5
CircleSize:5
OverallDifficulty:4.5
ApproachRate:5
SliderMultiplier:1.4
SliderTickRate:1

[Events]
//Background and Video events
0,0,"undertale__sans_by_kiwa007-d9i8ufq.png",0,60
//Break Periods
//Storyboard Layer 0 (Background)
//Storyboard Layer 1 (Fail)
//Storyboard Layer 2 (Pass)
//Storyboard Layer 3 (Foreground)
//Storyboard Sound Samples

[TimingPoints]
232,468.75,4,1,0,40,1,0
232,-125,4,1,0,40,0,0
6325,-120.481927710843,4,1,0,40,0,0
6560,-116.279069767442,4,1,0,40,0,0
6794,-112.359550561798,4,1,0,40,0,0
7028,-108.695652173913,4,1,0,40,0,0
7263,-105.263157894737,4,1,0,40,0,0
7732,-100,4,1,0,50,0,1
21091,-98.0392156862745,4,1,0,50,0,1
21325,-96.1538461538461,4,1,0,50,0,1
21560,-94.3396226415094,4,1,0,50,0,1
21794,-92.5925925925926,4,1,0,50,0,1
22028,-90.9090909090909,4,1,0,50,0,1
22263,-89.2857142857143,4,1,0,50,0,1
22732,-86.2068965517241,4,1,0,50,0,0
23200,-100,4,1,0,50,0,0
30232,-100,4,1,0,50,0,1
43591,-98.0392156862745,4,1,0,50,0,1
43825,-96.1538461538461,4,1,0,50,0,1
44060,-94.3396226415094,4,1,0,50,0,1
44294,-92.5925925925926,4,1,0,50,0,1
44528,-90.9090909090909,4,1,0,50,0,1
44763,-89.2857142857143,4,1,0,50,0,1
45232,-86.2068965517241,4,1,0,50,0,0
45700,-100,4,1,0,50,0,0

[HitObjects]
256,192,232,5,8,0:0:0:0:
256,192,1169,1,8,0:0:0:0:
256,192,2107,1,8,0:0:0:0:
256,192,3044,1,8,0:0:0:0:
256,192,3982,1,8,0:0:0:0:
256,192,4919,1,8,0:0:0:0:
256,192,5857,1,8,0:0:0:0:
256,192,6325,1,12,0:0:0:0:
256,192,6560,1,4,0:0:0:0:
256,192,6794,1,12,0:0:0:0:
256,192,7028,1,4,0:0:0:0:
256,192,7263,1,12,0:0:0:0:
256,192,7732,1,4,0:0:0:0:
256,192,8200,1,8,0:0:0:0:
256,192,8435,1,0,0:0:0:0:
256,192,8669,1,12,0:0:0:0:
256,192,9138,1,0,0:0:0:0:
256,192,9607,1,0,0:0:0:0:
256,192,9841,1,8,0:0:0:0:
256,192,10075,1,0,0:0:0:0:
256,192,10310,1,8,0:0:0:0:
256,192,10544,1,0,0:0:0:0:
256,192,10778,1,12,0:0:0:0:
256,192,11013,1,12,0:0:0:0:
256,192,11482,1,4,0:0:0:0:
256,192,11950,1,8,0:0:0:0:
256,192,12185,1,0,0:0:0:0:
256,192,12419,1,12,0:0:0:0:
256,192,12888,1,8,0:0:0:0:
256,192,13357,1,0,0:0:0:0:
256,192,13591,1,0,0:0:0:0:
256,192,13825,1,8,0:0:0:0:
256,192,14060,1,12,0:0:0:0:
256,192,14763,1,12,0:0:0:0:
256,192,15232,1,4,0:0:0:0:
256,192,15700,1,8,0:0:0:0:
256,192,15935,1,0,0:0:0:0:
256,192,16169,1,12,0:0:0:0:
256,192,16638,1,0,0:0:0:0:
256,192,17107,1,0,0:0:0:0:
256,192,17341,1,8,0:0:0:0:
256,192,17575,1,0,0:0:0:0:
256,192,17810,1,8,0:0:0:0:
256,192,18044,1,0,0:0:0:0:
256,192,18278,1,12,0:0:0:0:
256,192,18513,1,12,0:0:0:0:
256,192,18982,1,4,0:0:0:0:
256,192,19450,1,8,0:0:0:0:
256,192,19685,1,0,0:0:0:0:
256,192,19919,1,12,0:0:0:0:
256,192,20388,1,8,0:0:0:0:
256,192,20857,1,0,0:0:0:0:
256,192,21091,1,12,0:0:0:0:
256,192,21325,1,12,0:0:0:0:
256,192,21560,1,12,0:0:0:0:
256,192,21794,1,12,0:0:0:0:
256,192,22028,1,4,0:0:0:0:
256,192,22263,1,12,0:0:0:0:
256,192,22732,1,12,0:0:0:0:
256,192,23200,1,8,0:0:0:0:
256,192,23435,1,0,0:0:0:0:
256,192,23669,1,12,0:0:0:0:
256,192,24138,1,8,0:0:0:0:
256,192,24607,1,0,0:0:0:0:
256,192,24841,1,0,0:0:0:0:
256,192,25075,1,8,0:0:0:0:
256,192,25310,1,8,0:0:0:0:
256,192,25544,1,0,0:0:0:0:
256,192,25778,1,12,0:0:0:0:
256,192,26013,1,12,0:0:0:0:
256,192,26482,1,4,0:0:0:0:
256,192,27419,1,12,0:0:0:0:
256,192,27888,1,8,0:0:0:0:
256,192,28357,1,0,0:0:0:0:
256,192,28825,1,8,0:0:0:0:
256,192,29060,1,0,0:0:0:0:
256,192,29294,1,8,0:0:0:0:
256,192,29528,1,8,0:0:0:0:
256,192,29763,1,0,0:0:0:0:
256,192,29997,1,8,0:0:0:0:
256,192,30232,1,4,0:0:0:0:
256,192,30700,1,8,0:0:0:0:
256,192,30935,1,0,0:0:0:0:
256,192,31169,1,12,0:0:0:0:
256,192,31638,1,0,0:0:0:0:
256,192,32107,1,0,0:0:0:0:
256,192,32341,1,8,0:0:0:0:
256,192,32575,1,0,0:0:0:0:
256,192,32810,1,8,0:0:0:0:
256,192,33044,1,0,0:0:0:0:
256,192,33278,1,12,0:0:0:0:
256,192,33513,1,12,0:0:0:0:
256,192,33982,1,4,0:0:0:0:
256,192,34450,1,8,0:0:0:0:
256,192,34685,1,0,0:0:0:0:
256,192,34919,1,12,0:0:0:0:
256,192,35388,1,8,0:0:0:0:
256,192,35857,1,0,0:0:0:0:
256,192,36091,1,0,0:0:0:0:
256,192,36325,1,8,0:0:0:0:
256,192,36560,1,12,0:0:0:0:
256,192,37263,1,12,0:0:0:0:
256,192,37732,1,4,0:0:0:0:
256,192,38200,1,8,0:0:0:0:
256,192,38435,1,0,0:0:0:0:
256,192,38669,1,12,0:0:0:0:
256,192,39138,1,0,0:0:0:0:
256,192,39607,1,0,0:0:0:0:
256,192,39841,1,8,0:0:0:0:
256,192,40075,1,0,0:0:0:0:
256,192,40310,1,8,0:0:0:0:
256,192,40544,1,0,0:0:0:0:
256,192,40778,1,12,0:0:0:0:
256,192,41013,1,12,0:0:0:0:
256,192,41482,1,4,0:0:0:0:
256,192,41950,1,8,0:0:0:0:
256,192,42185,1,0,0:0:0:0:
256,192,42419,1,12,0:0:0:0:
256,192,42888,1,8,0:0:0:0:
256,192,43357,1,0,0:0:0:0:
256,192,43591,1,12,0:0:0:0:
256,192,43825,1,12,0:0:0:0:
256,192,44060,1,12,0:0:0:0:
256,192,44294,1,12,0:0:0:0:
256,192,44528,1,4,0:0:0:0:
256,192,44763,1,12,0:0:0:0:
256,192,45232,1,12,0:0:0:0:
256,192,45700,1,8,0:0:0:0:
256,192,45935,1,0,0:0:0:0:
256,192,46169,1,12,0:0:0:0:
256,192,46638,1,8,0:0:0:0:
256,192,47107,1,0,0:0:0:0:
256,192,47341,1,0,0:0:0:0:
256,192,47575,1,8,0:0:0:0:
256,192,47810,1,8,0:0:0:0:
256,192,48044,1,0,0:0:0:0:
256,192,48278,1,12,0:0:0:0:
256,192,48513,1,12,0:0:0:0:
256,192,48982,1,4,0:0:0:0:
256,192,49919,1,12,0:0:0:0:
256,192,50388,1,8,0:0:0:0:
256,192,50857,1,0,0:0:0:0:
256,192,51325,1,8,0:0:0:0:
256,192,51560,1,0,0:0:0:0:
256,192,51794,1,8,0:0:0:0:
256,192,52028,1,8,0:0:0:0:
256,192,52263,1,0,0:0:0:0:
256,192,52497,1,8,0:0:0:0:
256,192,52732,1,0,0:0:0:0:
256,192,53435,1,0,0:0:0:0:
256,192,53669,1,8,0:0:0:0:
256,192,54138,1,0,0:0:0:0:
256,192,54607,1,0,0:0:0:0:
256,192,55310,1,0,0:0:0:0:
256,192,55544,1,8,0:0:0:0:
256,192,56013,1,0,0:0:0:0:
