osu file format v14

[General]
AudioFilename: sans - Undertale.mp3
AudioLeadIn: 0
PreviewTime: 21091
Countdown: 0
SampleSet: Normal
StackLeniency: 0.7
Mode: 1
LetterboxInBreaks: 0
WidescreenStoryboard: 1

[Editor]
DistanceSpacing: 1.84
BeatDivisor: 2
GridSize: 32
TimelineZoom: 1.8

[Metadata]
Title:skrill.
TitleUnicode:skrill.
Artist:NBGMusic
ArtistUnicode:NBGMusic
Creator:Stefan
Version:Futsuu
Source:UNDERTALE
Tags:siIvagunner silvagunner giIvasunner gilvasunner's highest quality video game rips: volume 1 sans sans. grillby's parody dubstep toby fox tng thenutritiousguy
BeatmapID:1039213
BeatmapSetID:487440

[Difficulty]
HPDrainRate:8
CircleSize:5
OverallDifficulty:4
ApproachRate:5
SliderMultiplier:1.4
SliderTickRate:1

[Events]
//Background and Video events
0,0,"undertale__sans_by_kiwa007-d9i8ufq.png",0,60
//Break Periods
//Storyboard Layer 0 (Background)
//Storyboard Layer 1 (Fail)
//Storyboard Layer 2 (Pass)
//Storyboard Layer 3 (Foreground)
//Storyboard Sound Samples

[TimingPoints]
232,468.75,4,1,0,40,1,0
7732,-100,4,1,0,50,0,1
22732,-100,4,1,0,50,0,0
30232,-100,4,1,0,50,0,1
45232,-100,4,1,0,50,0,0

[HitObjects]
256,192,232,5,8,0:0:0:0:
256,192,1169,1,8,0:0:0:0:
256,192,2107,1,8,0:0:0:0:
256,192,3044,1,8,0:0:0:0:
256,192,3982,1,8,0:0:0:0:
256,192,4919,1,8,0:0:0:0:
256,192,5857,1,8,0:0:0:0:
256,192,6325,1,4,0:0:0:0:
256,192,6794,1,12,0:0:0:0:
256,192,7263,1,12,0:0:0:0:
256,192,7732,1,4,0:0:0:0:
256,192,8669,1,8,0:0:0:0:
256,192,9138,1,0,0:0:0:0:
256,192,9607,1,0,0:0:0:0:
256,192,10075,1,0,0:0:0:0:
256,192,10310,1,8,0:0:0:0:
256,192,10544,1,0,0:0:0:0:
256,192,11013,1,8,0:0:0:0:
256,192,11482,1,4,0:0:0:0:
256,192,12419,1,8,0:0:0:0:
256,192,12888,1,0,0:0:0:0:
256,192,13122,1,0,0:0:0:0:
256,192,13357,1,0,0:0:0:0:
256,192,13825,1,0,0:0:0:0:
256,192,14060,1,8,0:0:0:0:
256,192,14294,1,0,0:0:0:0:
256,192,14763,1,0,0:0:0:0:
256,192,15232,1,4,0:0:0:0:
256,192,16169,1,8,0:0:0:0:
256,192,16638,1,0,0:0:0:0:
256,192,17107,1,0,0:0:0:0:
256,192,17575,1,0,0:0:0:0:
256,192,17810,1,8,0:0:0:0:
256,192,18044,1,0,0:0:0:0:
256,192,18513,1,8,0:0:0:0:
256,192,18982,1,4,0:0:0:0:
256,192,19919,1,8,0:0:0:0:
256,192,20388,1,0,0:0:0:0:
256,192,20622,1,0,0:0:0:0:
256,192,20857,1,0,0:0:0:0:
256,192,21325,1,8,0:0:0:0:
256,192,21794,1,8,0:0:0:0:
256,192,22263,1,8,0:0:0:0:
256,192,22497,1,0,0:0:0:0:
256,192,22732,1,12,0:0:0:0:
256,192,23669,1,8,0:0:0:0:
256,192,24607,1,0,0:0:0:0:
256,192,25075,1,8,0:0:0:0:
256,192,25310,1,8,0:0:0:0:
256,192,25544,1,0,0:0:0:0:
256,192,26013,1,8,0:0:0:0:
256,192,26482,1,4,0:0:0:0:
256,192,27419,1,8,0:0:0:0:
256,192,28357,1,0,0:0:0:0:
256,192,28825,1,8,0:0:0:0:
256,192,29294,1,8,0:0:0:0:
256,192,29763,1,0,0:0:0:0:
256,192,29997,1,8,0:0:0:0:
256,192,30232,1,4,0:0:0:0:
256,192,31169,1,8,0:0:0:0:
256,192,31638,1,0,0:0:0:0:
256,192,32107,1,0,0:0:0:0:
256,192,32575,1,0,0:0:0:0:
256,192,32810,1,8,0:0:0:0:
256,192,33044,1,0,0:0:0:0:
256,192,33513,1,8,0:0:0:0:
256,192,33982,1,4,0:0:0:0:
256,192,34919,1,8,0:0:0:0:
256,192,35388,1,0,0:0:0:0:
256,192,35622,1,0,0:0:0:0:
256,192,35857,1,0,0:0:0:0:
256,192,36325,1,0,0:0:0:0:
256,192,36560,1,8,0:0:0:0:
256,192,36794,1,0,0:0:0:0:
256,192,37263,1,0,0:0:0:0:
256,192,37732,1,4,0:0:0:0:
256,192,38669,1,8,0:0:0:0:
256,192,39138,1,0,0:0:0:0:
256,192,39607,1,0,0:0:0:0:
256,192,40075,1,0,0:0:0:0:
256,192,40310,1,8,0:0:0:0:
256,192,40544,1,0,0:0:0:0:
256,192,41013,1,8,0:0:0:0:
256,192,41482,1,4,0:0:0:0:
256,192,42419,1,8,0:0:0:0:
256,192,42888,1,0,0:0:0:0:
256,192,43122,1,0,0:0:0:0:
256,192,43357,1,0,0:0:0:0:
256,192,43825,1,8,0:0:0:0:
256,192,44294,1,8,0:0:0:0:
256,192,44763,1,8,0:0:0:0:
256,192,44997,1,0,0:0:0:0:
256,192,45232,1,12,0:0:0:0:
256,192,46169,1,8,0:0:0:0:
256,192,47107,1,0,0:0:0:0:
256,192,47575,1,8,0:0:0:0:
256,192,47810,1,8,0:0:0:0:
256,192,48044,1,0,0:0:0:0:
256,192,48513,1,8,0:0:0:0:
256,192,48982,1,4,0:0:0:0:
256,192,49919,1,8,0:0:0:0:
256,192,50857,1,0,0:0:0:0:
256,192,51325,1,8,0:0:0:0:
256,192,51794,1,8,0:0:0:0:
256,192,52263,1,0,0:0:0:0:
256,192,52497,1,8,0:0:0:0:
256,192,52732,1,0,0:0:0:0:
256,192,53669,1,8,0:0:0:0:
256,192,54607,1,0,0:0:0:0:
256,192,55544,1,8,0:0:0:0:
256,192,56013,1,0,0:0:0:0:
