osu file format v14

[General]
AudioFilename: audio.mp3
AudioLeadIn: 0
PreviewTime: 7068
Countdown: 0
SampleSet: Normal
StackLeniency: 0.7
Mode: 1
LetterboxInBreaks: 0
WidescreenStoryboard: 0

[Editor]
DistanceSpacing: 1.2
BeatDivisor: 6
GridSize: 32
TimelineZoom: 4.299998

[Metadata]
Title:Artificial Intelligence Bomb
TitleUnicode:Artificial Intelligence Bomb
Artist:NARUTO
ArtistUnicode:NARUTO
Creator:Hanjamon
Version:Artificial Oni
Source:
Tags:original ver el bombito 8 bit 8-bit retro LZD FAMICOMPO famicom version electronic instrumental ai
BeatmapID:1634036
BeatmapSetID:777896

[Difficulty]
HPDrainRate:6
CircleSize:5
OverallDifficulty:6.5
ApproachRate:5
SliderMultiplier:1.6
SliderTickRate:1

[Events]
//Background and Video events
0,0,"oldretroBG.jpg",0,0
//Break Periods
//Storyboard Layer 0 (Background)
//Storyboard Layer 1 (Fail)
//Storyboard Layer 2 (Pass)
//Storyboard Layer 3 (Foreground)
//Storyboard Layer 4 (Overlay)
//Storyboard Sound Samples

[TimingPoints]
582,405.405405405405,4,1,0,60,1,0
5649,-83.3333333333333,4,1,0,60,0,0
6967,-71.4285714285714,4,1,0,60,0,0
7068,-71.4285714285714,4,1,0,60,0,1
32203,-71.4285714285714,4,1,0,60,0,0
32609,-55.5555555555556,4,1,0,60,0,0
32710,-83.3333333333333,4,1,0,60,0,0
37744,-81.9672131147541,4,1,0,60,0,0
37811,-80.6451612903226,4,1,0,60,0,0
37879,-79.3650793650794,4,1,0,60,0,0
39095,-84.7457627118644,4,1,0,60,0,0
39163,-83.3333333333333,4,1,0,60,0,0
39230,-81.9672131147541,4,1,0,60,0,0
39298,-80.6451612903226,4,1,0,60,0,0
39365,-79.3650793650794,4,1,0,60,0,0
39433,-78.125,4,1,0,60,0,0
39500,-76.9230769230769,4,1,0,60,0,0
43825,-77.5193798449612,4,1,0,60,0,0
43892,-78.125,4,1,0,60,0,0
43960,-78.7401574803149,4,1,0,60,0,0
44061,-80,4,1,0,60,0,0
44163,-81.3008130081301,4,1,0,60,0,0
44230,-81.9672131147541,4,1,0,60,0,0
44298,-82.6446280991736,4,1,0,60,0,0
44365,-83.3333333333333,4,1,0,60,0,0
45886,-79.3650793650794,4,1,0,60,0,0
45936,-78.125,4,1,0,60,0,0
45987,-76.9230769230769,4,1,0,60,0,0
50649,-78.125,4,1,0,60,0,0
50750,-78.7401574803149,4,1,0,60,0,0
50852,-79.3650793650794,4,1,0,60,0,0
51054,-80.6451612903226,4,1,0,60,0,0
51257,-81.9672131147541,4,1,0,60,0,0
51359,-82.6446280991736,4,1,0,60,0,0
51561,-84.0336134453781,4,1,0,60,0,0
51663,-84.7457627118644,4,1,0,60,0,0
51865,-86.2068965517241,4,1,0,60,0,0
51967,-86.9565217391304,4,1,0,60,0,0
52169,-85.4700854700855,4,1,0,60,0,0
52271,-84.7457627118644,4,1,0,60,0,0
52372,-84.0336134453781,4,1,0,60,0,0
52473,-83.3333333333333,4,1,0,60,0,0
52676,-81.9672131147541,4,1,0,60,0,0
52879,-80.6451612903226,4,1,0,60,0,0
53284,-89.2857142857143,4,1,0,60,0,0
53487,-87.719298245614,4,1,0,60,0,0
53588,-86.9565217391304,4,1,0,60,0,0
53791,-85.4700854700855,4,1,0,60,0,0
53892,-84.7457627118644,4,1,0,60,0,0
53994,-84.0336134453781,4,1,0,60,0,0
54095,-83.3333333333333,4,1,0,60,0,0
54298,-81.9672131147541,4,1,0,60,0,0
54500,-80.6451612903226,4,1,0,60,0,0
54906,-89.2857142857143,4,1,0,60,0,0
55109,-87.719298245614,4,1,0,60,0,0
55210,-86.9565217391304,4,1,0,60,0,0
55413,-84.7457627118644,4,1,0,60,0,0
55463,-83.3333333333333,4,1,0,60,0,0
55514,-81.9672131147541,4,1,0,60,0,0
55565,-80.6451612903226,4,1,0,60,0,0
55615,-79.3650793650794,4,1,0,60,0,0
55666,-78.125,4,1,0,60,0,0
55717,-76.9230769230769,4,1,0,60,0,1
68284,-75.7575757575758,4,1,0,60,0,1
68352,-74.6268656716418,4,1,0,60,0,1
68419,-73.5294117647059,4,1,0,60,0,1
68487,-72.463768115942,4,1,0,60,0,1
68554,-71.4285714285714,4,1,0,60,0,1
68622,-70.9219858156028,4,1,0,60,0,1
68690,-70.4225352112676,4,1,0,60,0,1
81663,-70.4225352112676,4,1,0,60,0,0
81764,-100,4,1,0,60,0,0
93217,-83.3333333333333,4,1,0,60,0,0
94027,-71.4285714285714,4,1,0,60,0,0
94737,-90.9090909090909,4,1,0,60,0,0
122203,-83.3333333333333,4,1,0,60,0,0
122811,-76.9230769230769,4,1,0,60,0,0
123419,-71.4285714285714,4,1,0,60,0,0
124230,-96.1538461538461,4,1,0,60,0,0
124636,-86.2068965517241,4,1,0,60,0,0
124737,-84.0336134453781,4,1,0,60,0,0
124838,-81.9672131147541,4,1,0,60,0,0
124940,-80,4,1,0,60,0,0
125041,-78.125,4,1,0,60,0,0
125109,-76.9230769230769,4,1,0,60,0,0
125176,-75.7575757575758,4,1,0,60,0,0
125244,-74.6268656716418,4,1,0,60,0,0
125311,-73.5294117647059,4,1,0,60,0,0
125379,-72.463768115942,4,1,0,60,0,0
125446,-71.4285714285714,4,1,0,60,0,0

[HitObjects]
288,96,582,5,0,0:0:0:0:
288,128,784,1,8,0:0:0:0:
288,128,886,1,8,0:0:0:0:
416,288,987,1,0,0:0:0:0:
288,128,1088,1,8,0:0:0:0:
288,128,1291,1,8,0:0:0:0:
224,160,1392,1,0,0:0:0:0:
288,128,1595,1,8,0:0:0:0:
416,288,1798,1,0,0:0:0:0:
416,288,1899,1,8,0:0:0:0:
416,288,2000,1,0,0:0:0:0:
416,288,2102,1,8,0:0:0:0:
416,288,2203,1,0,0:0:0:0:
416,288,2406,1,8,0:0:0:0:
416,288,2507,1,8,0:0:0:0:
416,288,2609,1,0,0:0:0:0:
416,288,2710,1,8,0:0:0:0:
416,288,2913,1,8,0:0:0:0:
416,288,3014,1,0,0:0:0:0:
416,224,3217,1,8,0:0:0:0:
416,224,3419,1,0,0:0:0:0:
416,224,3521,1,8,0:0:0:0:
416,224,3622,1,8,0:0:0:0:
416,224,3723,1,0,0:0:0:0:
416,224,3825,1,0,0:0:0:0:
416,224,4027,1,8,0:0:0:0:
416,224,4129,1,8,0:0:0:0:
416,224,4230,1,0,0:0:0:0:
416,224,4332,1,8,0:0:0:0:
416,224,4534,1,8,0:0:0:0:
416,224,4636,1,0,0:0:0:0:
416,224,4838,1,8,0:0:0:0:
416,224,5041,1,0,0:0:0:0:
256,160,5109,1,0,0:0:0:0:
256,160,5176,1,0,0:0:0:0:
256,160,5244,1,8,0:0:0:0:
352,96,5345,1,8,0:0:0:0:
416,224,5446,1,0,0:0:0:0:
384,256,5649,1,4,0:0:0:0:
384,256,5750,1,12,0:0:0:0:
384,256,5953,1,12,0:0:0:0:
384,256,6156,1,12,0:0:0:0:
320,224,6663,1,4,0:0:0:0:
256,224,6967,1,8,0:0:0:0:
256,224,7017,1,8,0:0:0:0:
256,224,7068,1,0,0:0:0:0:
352,224,7271,1,0,0:0:0:0:
352,224,7372,1,8,0:0:0:0:
352,224,7473,1,8,0:0:0:0:
352,224,7575,1,0,0:0:0:0:
352,224,7676,1,8,0:0:0:0:
352,224,7777,1,0,0:0:0:0:
320,160,7828,1,0,0:0:0:0:
352,224,7879,1,0,0:0:0:0:
352,224,7980,1,0,0:0:0:0:
352,224,8082,1,8,0:0:0:0:
352,224,8183,1,0,0:0:0:0:
320,160,8234,1,0,0:0:0:0:
352,224,8284,1,8,0:0:0:0:
224,96,8386,1,8,0:0:0:0:
352,224,8588,1,8,0:0:0:0:
256,128,8690,1,0,0:0:0:0:
256,128,8791,1,0,0:0:0:0:
256,128,8892,1,8,0:0:0:0:
256,128,8994,1,0,0:0:0:0:
256,128,9095,1,8,0:0:0:0:
256,128,9196,1,8,0:0:0:0:
256,128,9298,1,0,0:0:0:0:
256,128,9399,1,0,0:0:0:0:
320,160,9450,1,0,0:0:0:0:
256,128,9500,1,8,0:0:0:0:
256,128,9602,1,8,0:0:0:0:
256,128,9703,1,0,0:0:0:0:
256,128,9804,1,8,0:0:0:0:
320,160,9855,1,8,0:0:0:0:
256,128,9906,1,8,0:0:0:0:
256,128,10007,1,0,0:0:0:0:
256,128,10109,1,8,0:0:0:0:
256,128,10311,1,8,0:0:0:0:
192,64,10413,5,8,0:0:0:0:
256,128,10514,1,0,0:0:0:0:
256,160,10615,1,0,0:0:0:0:
256,128,10717,1,8,0:0:0:0:
256,128,10818,1,0,0:0:0:0:
256,128,10919,1,8,0:0:0:0:
256,128,11021,1,0,0:0:0:0:
320,160,11071,1,0,0:0:0:0:
256,128,11122,1,0,0:0:0:0:
256,128,11223,1,8,0:0:0:0:
256,128,11325,1,0,0:0:0:0:
256,128,11426,1,0,0:0:0:0:
320,160,11477,1,0,0:0:0:0:
256,128,11527,1,8,0:0:0:0:
256,128,11629,1,8,0:0:0:0:
256,128,11730,1,0,0:0:0:0:
256,128,11933,1,8,0:0:0:0:
192,128,12034,1,0,0:0:0:0:
256,224,12085,1,0,0:0:0:0:
256,128,12136,1,0,0:0:0:0:
256,128,12237,1,8,0:0:0:0:
224,128,12338,1,0,0:0:0:0:
320,192,12389,1,0,0:0:0:0:
224,160,12440,5,0,0:0:0:0:
224,160,12541,1,8,0:0:0:0:
224,160,12642,1,0,0:0:0:0:
384,160,12693,1,0,0:0:0:0:
224,160,12744,1,8,0:0:0:0:
224,160,12845,1,0,0:0:0:0:
224,160,12946,1,8,0:0:0:0:
224,160,13048,1,0,0:0:0:0:
384,160,13098,1,0,0:0:0:0:
224,160,13149,1,8,0:0:0:0:
224,160,13250,1,0,0:0:0:0:
224,160,13352,1,8,0:0:0:0:
224,160,13453,1,8,0:0:0:0:
224,160,13554,1,4,0:0:0:0:
320,128,13757,1,8,0:0:0:0:
320,128,13859,1,0,0:0:0:0:
352,160,13909,1,0,0:0:0:0:
320,128,13960,1,8,0:0:0:0:
320,128,14061,1,8,0:0:0:0:
320,128,14163,1,0,0:0:0:0:
320,128,14264,1,0,0:0:0:0:
320,128,14365,1,8,0:0:0:0:
320,128,14467,1,8,0:0:0:0:
320,128,14568,1,0,0:0:0:0:
320,128,14669,1,8,0:0:0:0:
352,160,14720,1,8,0:0:0:0:
320,128,14771,1,8,0:0:0:0:
320,128,14872,1,0,0:0:0:0:
320,128,14973,1,8,0:0:0:0:
320,128,15176,1,8,0:0:0:0:
320,128,15277,1,0,0:0:0:0:
320,128,15379,1,0,0:0:0:0:
320,128,15480,1,8,0:0:0:0:
352,160,15531,1,8,0:0:0:0:
320,128,15581,1,8,0:0:0:0:
320,128,15683,1,0,0:0:0:0:
320,128,15784,1,0,0:0:0:0:
320,128,15886,1,8,0:0:0:0:
320,128,15987,1,0,0:0:0:0:
320,128,16088,1,8,0:0:0:0:
320,128,16190,1,0,0:0:0:0:
320,128,16291,1,0,0:0:0:0:
352,160,16342,1,0,0:0:0:0:
320,128,16392,1,8,0:0:0:0:
320,128,16494,1,0,0:0:0:0:
320,128,16595,1,8,0:0:0:0:
320,128,16798,1,8,0:0:0:0:
320,128,16899,1,0,0:0:0:0:
320,128,17000,1,0,0:0:0:0:
320,128,17102,1,0,0:0:0:0:
352,160,17152,1,0,0:0:0:0:
320,128,17203,1,8,0:0:0:0:
320,128,17304,1,8,0:0:0:0:
320,128,17406,1,0,0:0:0:0:
320,128,17507,1,8,0:0:0:0:
320,128,17609,1,0,0:0:0:0:
320,128,17710,1,8,0:0:0:0:
320,128,17811,1,8,0:0:0:0:
320,128,17913,1,0,0:0:0:0:
352,160,17963,1,0,0:0:0:0:
320,128,18014,1,8,0:0:0:0:
320,128,18115,1,0,0:0:0:0:
320,128,18217,1,0,0:0:0:0:
320,128,18318,1,8,0:0:0:0:
320,128,18419,1,0,0:0:0:0:
320,128,18622,1,8,0:0:0:0:
320,128,18723,1,0,0:0:0:0:
352,160,18774,1,0,0:0:0:0:
320,128,18825,1,8,0:0:0:0:
320,128,18926,1,8,0:0:0:0:
320,128,19027,1,0,0:0:0:0:
256,96,19129,1,0,0:0:0:0:
256,96,19230,1,8,0:0:0:0:
256,96,19331,1,0,0:0:0:0:
256,96,19433,1,8,0:0:0:0:
256,96,19534,1,0,0:0:0:0:
352,160,19585,1,0,0:0:0:0:
256,96,19636,1,0,0:0:0:0:
256,96,19737,1,8,0:0:0:0:
256,96,19838,1,0,0:0:0:0:
256,96,19940,1,0,0:0:0:0:
256,96,20041,1,12,0:0:0:0:
352,224,20244,1,0,0:0:0:0:
352,224,20345,1,8,0:0:0:0:
352,224,20446,1,8,0:0:0:0:
352,224,20548,1,0,0:0:0:0:
352,224,20649,1,8,0:0:0:0:
352,224,20750,1,0,0:0:0:0:
320,160,20801,1,0,0:0:0:0:
352,224,20852,1,0,0:0:0:0:
352,224,20953,1,0,0:0:0:0:
352,224,21055,1,8,0:0:0:0:
352,224,21156,1,0,0:0:0:0:
320,160,21207,1,0,0:0:0:0:
352,224,21257,1,8,0:0:0:0:
224,96,21359,1,8,0:0:0:0:
352,224,21561,1,8,0:0:0:0:
256,128,21663,1,0,0:0:0:0:
256,128,21764,1,0,0:0:0:0:
256,128,21865,1,8,0:0:0:0:
256,128,21967,1,0,0:0:0:0:
256,128,22068,1,8,0:0:0:0:
256,128,22169,1,8,0:0:0:0:
256,128,22271,1,0,0:0:0:0:
256,128,22372,1,0,0:0:0:0:
320,160,22423,1,0,0:0:0:0:
256,128,22473,1,8,0:0:0:0:
256,128,22575,1,8,0:0:0:0:
256,128,22676,1,0,0:0:0:0:
256,128,22777,1,8,0:0:0:0:
320,160,22828,1,8,0:0:0:0:
256,128,22879,1,8,0:0:0:0:
256,128,22980,1,0,0:0:0:0:
256,128,23082,1,8,0:0:0:0:
256,128,23284,1,8,0:0:0:0:
192,64,23386,5,8,0:0:0:0:
256,128,23487,1,0,0:0:0:0:
256,160,23588,1,0,0:0:0:0:
256,128,23690,1,8,0:0:0:0:
256,128,23791,1,0,0:0:0:0:
256,128,23892,1,8,0:0:0:0:
256,128,23994,1,0,0:0:0:0:
320,160,24044,1,0,0:0:0:0:
256,128,24095,1,0,0:0:0:0:
256,128,24196,1,8,0:0:0:0:
256,128,24298,1,0,0:0:0:0:
256,128,24399,1,0,0:0:0:0:
320,160,24450,1,0,0:0:0:0:
256,128,24500,1,8,0:0:0:0:
256,128,24602,1,8,0:0:0:0:
256,128,24703,1,0,0:0:0:0:
256,128,24906,1,8,0:0:0:0:
192,128,25007,1,0,0:0:0:0:
256,224,25058,1,0,0:0:0:0:
256,128,25109,1,0,0:0:0:0:
256,128,25210,1,8,0:0:0:0:
224,128,25311,1,0,0:0:0:0:
320,192,25362,1,0,0:0:0:0:
224,160,25413,5,0,0:0:0:0:
224,160,25514,1,8,0:0:0:0:
224,160,25615,1,0,0:0:0:0:
384,160,25666,1,0,0:0:0:0:
224,160,25717,1,8,0:0:0:0:
224,160,25818,1,0,0:0:0:0:
224,160,25919,1,8,0:0:0:0:
224,160,26021,1,0,0:0:0:0:
384,160,26071,1,0,0:0:0:0:
224,160,26122,1,8,0:0:0:0:
224,160,26223,1,0,0:0:0:0:
224,160,26325,1,8,0:0:0:0:
224,160,26426,1,8,0:0:0:0:
224,160,26527,1,4,0:0:0:0:
320,128,26730,1,8,0:0:0:0:
320,128,26832,1,0,0:0:0:0:
352,160,26882,1,0,0:0:0:0:
320,128,26933,1,8,0:0:0:0:
320,128,27034,1,8,0:0:0:0:
320,128,27136,1,0,0:0:0:0:
320,128,27237,1,0,0:0:0:0:
320,128,27338,1,8,0:0:0:0:
320,128,27440,1,8,0:0:0:0:
320,128,27541,1,0,0:0:0:0:
320,128,27642,1,8,0:0:0:0:
352,160,27693,1,8,0:0:0:0:
320,128,27744,1,8,0:0:0:0:
320,128,27845,1,0,0:0:0:0:
320,128,27946,1,8,0:0:0:0:
320,128,28149,1,8,0:0:0:0:
320,128,28250,1,8,0:0:0:0:
320,128,28352,1,0,0:0:0:0:
320,128,28453,1,0,0:0:0:0:
352,160,28504,1,0,0:0:0:0:
320,128,28554,1,8,0:0:0:0:
320,128,28656,1,8,0:0:0:0:
320,128,28757,1,0,0:0:0:0:
256,128,28859,1,8,0:0:0:0:
320,128,28909,1,8,0:0:0:0:
320,128,28960,1,0,0:0:0:0:
248,144,29011,1,0,0:0:0:0:
320,128,29061,1,8,0:0:0:0:
320,128,29163,1,0,0:0:0:0:
320,128,29264,1,0,0:0:0:0:
352,160,29315,1,0,0:0:0:0:
320,128,29365,1,8,0:0:0:0:
320,128,29467,1,0,0:0:0:0:
320,128,29568,1,8,0:0:0:0:
320,128,29771,1,8,0:0:0:0:
320,128,29872,1,0,0:0:0:0:
320,128,29973,1,0,0:0:0:0:
320,128,30075,1,0,0:0:0:0:
352,160,30125,1,0,0:0:0:0:
320,128,30176,1,8,0:0:0:0:
320,128,30277,1,8,0:0:0:0:
320,128,30379,1,0,0:0:0:0:
320,128,30480,1,8,0:0:0:0:
320,128,30582,1,0,0:0:0:0:
320,128,30683,1,8,0:0:0:0:
320,128,30784,1,8,0:0:0:0:
320,128,30886,1,0,0:0:0:0:
352,160,30936,1,0,0:0:0:0:
320,128,30987,1,8,0:0:0:0:
320,128,31088,1,0,0:0:0:0:
320,128,31190,1,0,0:0:0:0:
320,128,31291,1,0,0:0:0:0:
320,128,31392,1,12,0:0:0:0:
416,160,31595,1,12,0:0:0:0:
352,160,31798,1,4,0:0:0:0:
320,160,31899,1,12,0:0:0:0:
320,160,32203,1,12,0:0:0:0:
192,160,32609,1,12,0:0:0:0:
160,160,32913,1,0,0:0:0:0:
288,160,32963,1,0,0:0:0:0:
288,160,33014,1,8,0:0:0:0:
288,64,33115,1,0,0:0:0:0:
288,64,33217,1,8,0:0:0:0:
288,64,33318,1,8,0:0:0:0:
288,224,33521,1,0,0:0:0:0:
288,224,33622,1,8,0:0:0:0:
288,224,33723,1,8,0:0:0:0:
288,224,33825,1,0,0:0:0:0:
288,224,33926,1,0,0:0:0:0:
288,224,34027,1,0,0:0:0:0:
288,224,34129,1,8,0:0:0:0:
288,224,34331,1,0,0:0:0:0:
288,224,34433,1,8,0:0:0:0:
288,224,34534,1,8,0:0:0:0:
288,224,34636,1,0,0:0:0:0:
288,224,34838,1,0,0:0:0:0:
192,128,34940,1,8,0:0:0:0:
352,224,35142,1,8,0:0:0:0:
352,224,35244,1,0,0:0:0:0:
352,224,35345,1,8,0:0:0:0:
256,96,35396,1,8,0:0:0:0:
256,96,35446,1,0,0:0:0:0:
288,64,35548,1,0,0:0:0:0:
288,64,35649,1,8,0:0:0:0:
288,64,35700,1,8,0:0:0:0:
288,64,35750,1,8,0:0:0:0:
288,160,35852,1,0,0:0:0:0:
256,160,35953,1,8,0:0:0:0:
256,128,36054,1,8,0:0:0:0:
256,128,36105,1,8,0:0:0:0:
256,128,36156,1,8,0:0:0:0:
416,256,36257,1,0,0:0:0:0:
416,256,36460,1,0,0:0:0:0:
416,256,36561,1,8,0:0:0:0:
384,256,36764,1,0,0:0:0:0:
384,256,36865,1,8,0:0:0:0:
384,256,36967,1,8,0:0:0:0:
384,256,37068,1,0,0:0:0:0:
288,192,37169,1,8,0:0:0:0:
288,192,37271,1,0,0:0:0:0:
160,96,37338,1,0,0:0:0:0:
288,192,37406,1,0,0:0:0:0:
256,160,37473,1,8,0:0:0:0:
256,96,37575,1,8,0:0:0:0:
352,160,37676,1,0,0:0:0:0:
288,96,37744,1,8,0:0:0:0:
288,96,37811,1,8,0:0:0:0:
384,192,37879,1,4,0:0:0:0:
256,160,38014,1,4,0:0:0:0:
256,128,38149,1,12,0:0:0:0:
256,128,38284,1,12,0:0:0:0:
256,128,38419,1,4,0:0:0:0:
256,128,38554,1,12,0:0:0:0:
256,128,38690,1,4,0:0:0:0:
448,160,39095,1,0,0:0:0:0:
288,64,39163,1,0,0:0:0:0:
288,64,39230,1,0,0:0:0:0:
288,64,39298,1,8,0:0:0:0:
288,64,39365,1,8,0:0:0:0:
288,64,39433,1,8,0:0:0:0:
288,64,39500,1,4,0:0:0:0:
256,192,39703,1,0,0:0:0:0:
352,256,39804,1,8,0:0:0:0:
352,224,40007,1,8,0:0:0:0:
352,224,40109,1,0,0:0:0:0:
352,224,40210,1,8,0:0:0:0:
320,192,40413,1,0,0:0:0:0:
320,192,40514,1,8,0:0:0:0:
160,128,40581,1,0,0:0:0:0:
320,192,40649,1,0,0:0:0:0:
320,192,40717,1,8,0:0:0:0:
320,192,40818,1,0,0:0:0:0:
320,192,40919,1,8,0:0:0:0:
320,192,41021,1,8,0:0:0:0:
320,192,41122,1,0,0:0:0:0:
320,160,41325,1,8,0:0:0:0:
320,160,41426,1,0,0:0:0:0:
160,64,41629,1,8,0:0:0:0:
320,160,41730,1,0,0:0:0:0:
320,160,41831,1,0,0:0:0:0:
352,128,42034,1,8,0:0:0:0:
352,128,42136,1,0,0:0:0:0:
352,128,42338,1,8,0:0:0:0:
352,128,42406,1,0,0:0:0:0:
352,128,42473,1,0,0:0:0:0:
192,128,42541,1,8,0:0:0:0:
352,128,42642,1,0,0:0:0:0:
352,128,42744,1,8,0:0:0:0:
384,192,42946,1,0,0:0:0:0:
384,192,43048,1,8,0:0:0:0:
384,192,43250,1,0,0:0:0:0:
384,192,43352,1,8,0:0:0:0:
384,192,43453,1,8,0:0:0:0:
384,192,43656,1,0,0:0:0:0:
384,192,43757,1,8,0:0:0:0:
224,64,43825,1,0,0:0:0:0:
384,192,43892,1,0,0:0:0:0:
384,192,43960,1,8,0:0:0:0:
384,192,44061,1,0,0:0:0:0:
384,192,44163,1,8,0:0:0:0:
256,160,44230,1,8,0:0:0:0:
384,192,44298,1,8,0:0:0:0:
352,224,44365,1,0,0:0:0:0:
192,160,44771,1,12,0:0:0:0:
256,192,45041,1,8,0:0:0:0:
256,192,45109,1,8,0:0:0:0:
256,192,45176,1,0,0:0:0:0:
256,192,45581,1,12,0:0:0:0:
320,96,45886,1,8,0:0:0:0:
320,96,45936,1,8,0:0:0:0:
256,192,45987,1,0,0:0:0:0:
224,192,46190,1,0,0:0:0:0:
224,192,46291,1,8,0:0:0:0:
224,192,46494,1,8,0:0:0:0:
224,192,46595,1,0,0:0:0:0:
224,64,46696,1,0,0:0:0:0:
224,192,46899,1,0,0:0:0:0:
224,192,47000,1,8,0:0:0:0:
288,128,47068,1,8,0:0:0:0:
224,192,47136,1,0,0:0:0:0:
224,192,47203,1,8,0:0:0:0:
224,192,47304,1,0,0:0:0:0:
224,192,47406,1,8,0:0:0:0:
224,192,47507,1,8,0:0:0:0:
224,192,47609,1,0,0:0:0:0:
192,96,47811,1,8,0:0:0:0:
192,96,47913,1,0,0:0:0:0:
224,96,48115,1,8,0:0:0:0:
224,96,48217,1,0,0:0:0:0:
224,96,48318,1,0,0:0:0:0:
288,128,48521,1,8,0:0:0:0:
288,128,48622,1,0,0:0:0:0:
288,128,48825,1,8,0:0:0:0:
288,160,48892,1,8,0:0:0:0:
288,128,48960,1,0,0:0:0:0:
288,128,49027,1,8,0:0:0:0:
288,128,49129,1,0,0:0:0:0:
288,128,49230,1,8,0:0:0:0:
352,160,49433,1,0,0:0:0:0:
352,160,49534,1,8,0:0:0:0:
320,160,49636,1,8,0:0:0:0:
320,160,49838,5,0,0:0:0:0:
320,160,49940,1,0,0:0:0:0:
320,160,50041,1,8,0:0:0:0:
320,160,50244,1,0,0:0:0:0:
192,96,50345,1,8,0:0:0:0:
256,160,50379,1,8,0:0:0:0:
320,160,50413,1,8,0:0:0:0:
320,160,50446,1,0,0:0:0:0:
320,160,50649,1,0,0:0:0:0:
320,192,50750,1,0,0:0:0:0:
352,224,50852,5,12,0:0:0:0:
352,192,51054,1,8,0:0:0:0:
320,192,51257,1,0,0:0:0:0:
320,192,51359,1,8,0:0:0:0:
320,192,51561,1,0,0:0:0:0:
320,192,51663,1,8,0:0:0:0:
320,192,51865,1,8,0:0:0:0:
320,192,51967,1,0,0:0:0:0:
320,192,52169,1,0,0:0:0:0:
320,192,52271,1,0,0:0:0:0:
320,192,52372,1,0,0:0:0:0:
320,192,52473,1,12,0:0:0:0:
384,224,52676,1,4,0:0:0:0:
384,224,52879,1,4,0:0:0:0:
384,224,53284,1,12,0:0:0:0:
384,224,53487,1,0,0:0:0:0:
384,224,53588,1,12,0:0:0:0:
384,224,53791,1,0,0:0:0:0:
384,224,53892,1,0,0:0:0:0:
384,224,53994,1,0,0:0:0:0:
384,224,54095,1,12,0:0:0:0:
384,224,54298,1,4,0:0:0:0:
384,224,54500,1,4,0:0:0:0:
384,224,54906,1,12,0:0:0:0:
384,224,55109,1,0,0:0:0:0:
384,224,55210,1,12,0:0:0:0:
288,96,55413,1,8,0:0:0:0:
288,96,55463,1,8,0:0:0:0:
288,96,55514,1,8,0:0:0:0:
288,96,55565,1,8,0:0:0:0:
288,96,55615,1,8,0:0:0:0:
288,96,55666,1,8,0:0:0:0:
288,96,55717,1,0,0:0:0:0:
320,192,55818,1,0,0:0:0:0:
320,192,55919,1,0,0:0:0:0:
320,192,56021,1,0,0:0:0:0:
320,192,56122,1,8,0:0:0:0:
320,192,56223,1,0,0:0:0:0:
320,192,56325,1,0,0:0:0:0:
320,192,56426,1,0,0:0:0:0:
320,192,56527,1,8,0:0:0:0:
320,192,56629,1,8,0:0:0:0:
320,192,56730,1,0,0:0:0:0:
320,192,56831,1,0,0:0:0:0:
320,192,56933,1,8,0:0:0:0:
320,192,57034,1,0,0:0:0:0:
320,192,57136,1,8,0:0:0:0:
320,192,57237,1,8,0:0:0:0:
320,192,57338,1,0,0:0:0:0:
320,192,57440,1,0,0:0:0:0:
320,192,57541,1,0,0:0:0:0:
320,192,57642,1,0,0:0:0:0:
320,192,57744,1,8,0:0:0:0:
320,192,57845,1,8,0:0:0:0:
320,192,57946,1,0,0:0:0:0:
320,192,58048,1,0,0:0:0:0:
320,192,58149,1,8,0:0:0:0:
320,192,58250,1,8,0:0:0:0:
320,192,58352,1,0,0:0:0:0:
320,192,58453,1,8,0:0:0:0:
320,192,58554,1,0,0:0:0:0:
320,192,58656,1,0,0:0:0:0:
320,192,58757,1,8,0:0:0:0:
320,192,58859,1,0,0:0:0:0:
320,192,58960,1,8,0:0:0:0:
320,192,59061,1,8,0:0:0:0:
320,192,59163,1,8,0:0:0:0:
320,192,59264,1,8,0:0:0:0:
320,192,59365,1,0,0:0:0:0:
320,192,59467,1,0,0:0:0:0:
320,192,59568,1,8,0:0:0:0:
320,192,59669,1,0,0:0:0:0:
320,192,59771,1,8,0:0:0:0:
320,192,59872,1,8,0:0:0:0:
320,192,59973,1,0,0:0:0:0:
320,192,60075,1,0,0:0:0:0:
320,192,60176,1,8,0:0:0:0:
320,192,60277,1,0,0:0:0:0:
320,192,60379,1,8,0:0:0:0:
320,192,60480,1,0,0:0:0:0:
320,192,60581,1,8,0:0:0:0:
320,192,60683,1,8,0:0:0:0:
320,192,60784,1,8,0:0:0:0:
320,192,60886,1,8,0:0:0:0:
320,192,60987,1,0,0:0:0:0:
320,192,61088,1,0,0:0:0:0:
320,192,61190,1,8,0:0:0:0:
320,192,61291,1,8,0:0:0:0:
320,192,61392,1,8,0:0:0:0:
320,192,61494,1,8,0:0:0:0:
320,192,61595,1,0,0:0:0:0:
320,192,61696,1,0,0:0:0:0:
320,192,61798,1,8,0:0:0:0:
320,192,61899,1,0,0:0:0:0:
320,192,62000,1,0,0:0:0:0:
320,192,62102,1,0,0:0:0:0:
320,192,62203,1,8,0:0:0:0:
320,192,62304,1,8,0:0:0:0:
320,192,62406,1,0,0:0:0:0:
320,192,62507,1,8,0:0:0:0:
320,192,62609,1,0,0:0:0:0:
320,192,62710,1,0,0:0:0:0:
320,192,62811,1,0,0:0:0:0:
320,192,62913,1,8,0:0:0:0:
320,192,63014,1,0,0:0:0:0:
320,192,63115,1,8,0:0:0:0:
320,192,63217,1,0,0:0:0:0:
320,192,63318,1,0,0:0:0:0:
320,192,63419,1,8,0:0:0:0:
320,192,63521,1,8,0:0:0:0:
320,192,63622,1,0,0:0:0:0:
320,192,63723,1,8,0:0:0:0:
320,192,63825,1,0,0:0:0:0:
320,192,63926,1,0,0:0:0:0:
320,192,64027,1,0,0:0:0:0:
320,192,64129,1,0,0:0:0:0:
320,192,64230,1,8,0:0:0:0:
320,192,64331,1,8,0:0:0:0:
320,192,64433,1,0,0:0:0:0:
320,192,64534,1,0,0:0:0:0:
320,192,64636,1,8,0:0:0:0:
320,192,64737,1,0,0:0:0:0:
320,192,64838,1,0,0:0:0:0:
320,192,64940,1,8,0:0:0:0:
320,192,65041,1,0,0:0:0:0:
320,192,65142,1,0,0:0:0:0:
320,192,65244,1,8,0:0:0:0:
320,192,65345,1,0,0:0:0:0:
320,192,65446,1,8,0:0:0:0:
320,192,65548,1,8,0:0:0:0:
320,192,65649,1,0,0:0:0:0:
320,192,65750,1,8,0:0:0:0:
320,192,65852,1,8,0:0:0:0:
320,192,65953,1,8,0:0:0:0:
320,192,66054,1,0,0:0:0:0:
320,192,66156,1,0,0:0:0:0:
320,192,66257,1,8,0:0:0:0:
320,192,66359,1,0,0:0:0:0:
320,192,66460,1,0,0:0:0:0:
320,192,66561,1,8,0:0:0:0:
320,192,66663,1,0,0:0:0:0:
320,192,66764,1,8,0:0:0:0:
320,192,66865,1,0,0:0:0:0:
320,192,66967,1,0,0:0:0:0:
320,192,67068,1,8,0:0:0:0:
320,192,67169,1,8,0:0:0:0:
320,192,67271,1,8,0:0:0:0:
320,192,67372,1,8,0:0:0:0:
320,192,67473,1,0,0:0:0:0:
320,192,67575,1,0,0:0:0:0:
320,192,67676,1,0,0:0:0:0:
320,192,67777,1,0,0:0:0:0:
320,192,67879,1,8,0:0:0:0:
320,192,67980,1,8,0:0:0:0:
320,192,68081,1,0,0:0:0:0:
320,192,68183,1,0,0:0:0:0:
320,192,68284,1,8,0:0:0:0:
320,160,68352,1,8,0:0:0:0:
320,160,68419,1,8,0:0:0:0:
320,192,68487,1,8,0:0:0:0:
320,192,68554,1,8,0:0:0:0:
224,224,68622,1,8,0:0:0:0:
320,192,68690,1,0,0:0:0:0:
352,128,68892,1,0,0:0:0:0:
352,128,68994,1,8,0:0:0:0:
352,128,69196,1,8,0:0:0:0:
352,128,69399,1,0,0:0:0:0:
352,128,69602,1,8,0:0:0:0:
352,128,69703,1,0,0:0:0:0:
320,160,69771,1,0,0:0:0:0:
352,128,69838,1,0,0:0:0:0:
352,128,69906,1,8,0:0:0:0:
288,128,70007,1,0,0:0:0:0:
288,128,70109,1,8,0:0:0:0:
288,128,70210,1,8,0:0:0:0:
288,128,70311,1,0,0:0:0:0:
256,128,70413,1,0,0:0:0:0:
256,128,70514,1,8,0:0:0:0:
256,128,70615,1,8,0:0:0:0:
288,128,70818,1,0,0:0:0:0:
288,128,70919,1,8,0:0:0:0:
288,128,71021,1,8,0:0:0:0:
288,128,71223,1,8,0:0:0:0:
288,128,71325,1,0,0:0:0:0:
288,128,71426,1,0,0:0:0:0:
320,128,71527,1,8,0:0:0:0:
320,128,71595,1,8,0:0:0:0:
320,128,71663,1,0,0:0:0:0:
320,128,71730,1,8,0:0:0:0:
320,128,71798,1,0,0:0:0:0:
320,128,71865,1,0,0:0:0:0:
320,128,71933,1,8,0:0:0:0:
288,128,72136,1,0,0:0:0:0:
288,128,72237,1,8,0:0:0:0:
352,160,72440,1,0,0:0:0:0:
352,160,72541,1,8,0:0:0:0:
352,160,72744,1,0,0:0:0:0:
352,160,72845,1,8,0:0:0:0:
352,160,72946,1,8,0:0:0:0:
352,160,73048,1,0,0:0:0:0:
352,160,73149,1,8,0:0:0:0:
352,160,73250,1,0,0:0:0:0:
352,160,73352,1,0,0:0:0:0:
352,160,73453,1,0,0:0:0:0:
352,160,73554,1,8,0:0:0:0:
352,192,73656,1,0,0:0:0:0:
480,256,73757,1,8,0:0:0:0:
352,192,73859,1,0,0:0:0:0:
448,256,73960,1,8,0:0:0:0:
448,256,74061,1,0,0:0:0:0:
448,256,74163,1,8,0:0:0:0:
448,256,74264,1,0,0:0:0:0:
448,256,74365,1,8,0:0:0:0:
448,256,74467,1,8,0:0:0:0:
448,256,74568,1,0,0:0:0:0:
416,256,74669,1,8,0:0:0:0:
416,256,74872,1,8,0:0:0:0:
416,256,75075,1,8,0:0:0:0:
448,288,75176,1,0,0:0:0:0:
448,288,75277,1,8,0:0:0:0:
448,288,75379,1,8,0:0:0:0:
448,288,75480,1,0,0:0:0:0:
448,288,75581,1,8,0:0:0:0:
448,288,75683,1,8,0:0:0:0:
448,288,75784,1,0,0:0:0:0:
448,288,75886,1,8,0:0:0:0:
448,288,75987,1,8,0:0:0:0:
448,288,76088,1,0,0:0:0:0:
448,288,76190,1,8,0:0:0:0:
448,288,76291,1,8,0:0:0:0:
448,288,76392,1,0,0:0:0:0:
448,288,76494,1,0,0:0:0:0:
448,288,76595,1,8,0:0:0:0:
448,288,76696,1,0,0:0:0:0:
448,288,76798,1,0,0:0:0:0:
256,160,76865,1,0,0:0:0:0:
448,288,76933,1,0,0:0:0:0:
288,128,77000,1,8,0:0:0:0:
320,160,77102,1,8,0:0:0:0:
320,160,77304,1,0,0:0:0:0:
320,160,77406,1,8,0:0:0:0:
320,160,77507,1,8,0:0:0:0:
320,160,77609,1,0,0:0:0:0:
320,160,77811,1,0,0:0:0:0:
320,160,77913,1,8,0:0:0:0:
320,160,78115,1,0,0:0:0:0:
320,160,78217,1,8,0:0:0:0:
320,160,78318,1,8,0:0:0:0:
320,160,78419,1,0,0:0:0:0:
320,160,78521,1,8,0:0:0:0:
320,160,78622,1,0,0:0:0:0:
320,160,78723,1,0,0:0:0:0:
320,160,78825,1,8,0:0:0:0:
320,160,78926,1,0,0:0:0:0:
320,160,79027,1,0,0:0:0:0:
320,160,79129,1,8,0:0:0:0:
320,160,79230,1,0,0:0:0:0:
320,160,79331,1,0,0:0:0:0:
320,160,79433,1,8,0:0:0:0:
320,160,79534,1,0,0:0:0:0:
320,160,79636,1,8,0:0:0:0:
384,64,79703,1,8,0:0:0:0:
352,64,79771,1,8,0:0:0:0:
352,96,79838,1,0,0:0:0:0:
320,128,79940,1,8,0:0:0:0:
352,128,79990,1,8,0:0:0:0:
352,128,80041,1,0,0:0:0:0:
416,96,80176,1,8,0:0:0:0:
320,160,80345,1,8,0:0:0:0:
320,160,80446,1,0,0:0:0:0:
384,160,80581,1,0,0:0:0:0:
384,160,80649,1,8,0:0:0:0:
352,128,80750,1,0,0:0:0:0:
352,128,80852,1,0,0:0:0:0:
352,128,80953,1,8,0:0:0:0:
320,160,81054,1,8,0:0:0:0:
320,160,81122,1,8,0:0:0:0:
320,160,81190,1,0,0:0:0:0:
320,160,81257,1,8,0:0:0:0:
320,160,81325,1,0,0:0:0:0:
320,160,81392,1,0,0:0:0:0:
320,160,81460,1,8,0:0:0:0:
320,160,81527,1,8,0:0:0:0:
320,160,81595,1,8,0:0:0:0:
320,160,81663,1,0,0:0:0:0:
176,164,84703,1,0,0:0:0:0:
201,173,84906,1,12,0:0:0:0:
236,189,86527,1,4,0:0:0:0:
381,276,87136,1,0,0:0:0:0:
381,276,87237,1,0,0:0:0:0:
329,86,87338,1,8,0:0:0:0:
329,86,87440,1,8,0:0:0:0:
329,86,87541,1,0,0:0:0:0:
329,86,87642,1,0,0:0:0:0:
329,86,87744,1,8,0:0:0:0:
329,86,87845,1,8,0:0:0:0:
351,177,87946,1,0,0:0:0:0:
351,177,88014,1,0,0:0:0:0:
351,177,88081,1,0,0:0:0:0:
351,177,88149,1,8,0:0:0:0:
216,170,88352,1,8,0:0:0:0:
216,170,88453,1,8,0:0:0:0:
145,121,88554,1,0,0:0:0:0:
227,169,88656,1,8,0:0:0:0:
227,169,88859,1,8,0:0:0:0:
223,148,88960,1,0,0:0:0:0:
344,247,89163,1,8,0:0:0:0:
337,247,89365,1,0,0:0:0:0:
337,247,89467,1,8,0:0:0:0:
337,247,89568,1,0,0:0:0:0:
337,247,89669,1,8,0:0:0:0:
337,247,89771,1,0,0:0:0:0:
228,95,89973,5,8,0:0:0:0:
228,95,90075,1,8,0:0:0:0:
221,95,90176,1,0,0:0:0:0:
221,95,90277,1,8,0:0:0:0:
414,51,90480,1,8,0:0:0:0:
414,51,90531,1,8,0:0:0:0:
221,95,90581,1,0,0:0:0:0:
221,95,90784,1,8,0:0:0:0:
363,121,90886,1,8,0:0:0:0:
207,65,90987,1,0,0:0:0:0:
207,65,91088,1,0,0:0:0:0:
207,65,91190,1,8,0:0:0:0:
207,65,91291,1,0,0:0:0:0:
207,65,91392,1,0,0:0:0:0:
294,122,91595,1,8,0:0:0:0:
294,122,91696,1,8,0:0:0:0:
294,122,91798,1,0,0:0:0:0:
294,122,91899,1,8,0:0:0:0:
294,122,92102,1,8,0:0:0:0:
294,122,92203,1,0,0:0:0:0:
294,122,92406,1,8,0:0:0:0:
322,75,92473,1,8,0:0:0:0:
322,75,92541,1,8,0:0:0:0:
294,122,92609,1,0,0:0:0:0:
364,172,92676,1,0,0:0:0:0:
294,122,92744,1,0,0:0:0:0:
304,107,92811,1,8,0:0:0:0:
306,107,92913,1,8,0:0:0:0:
306,107,93014,1,0,0:0:0:0:
298,163,93217,1,4,0:0:0:0:
305,161,93318,1,12,0:0:0:0:
305,161,93521,1,12,0:0:0:0:
305,161,93723,1,12,0:0:0:0:
298,160,94027,1,4,0:0:0:0:
288,149,94129,1,12,0:0:0:0:
288,149,94331,1,12,0:0:0:0:
288,149,94534,1,12,0:0:0:0:
343,231,95041,1,8,0:0:0:0:
343,231,95446,1,8,0:0:0:0:
302,148,95548,1,0,0:0:0:0:
301,148,95649,1,0,0:0:0:0:
310,228,95750,1,8,0:0:0:0:
310,228,95801,1,8,0:0:0:0:
310,228,95852,1,8,0:0:0:0:
225,149,95953,1,8,0:0:0:0:
225,149,96054,1,0,0:0:0:0:
225,149,96156,1,8,0:0:0:0:
205,163,96257,1,4,0:0:0:0:
434,248,96663,1,8,0:0:0:0:
434,248,96865,1,0,0:0:0:0:
434,248,97068,1,0,0:0:0:0:
434,248,97169,1,0,0:0:0:0:
434,248,97372,1,8,0:0:0:0:
434,248,97473,1,8,0:0:0:0:
392,248,97575,1,0,0:0:0:0:
392,248,97777,1,0,0:0:0:0:
392,248,97879,1,0,0:0:0:0:
386,235,98081,1,0,0:0:0:0:
386,235,98284,1,8,0:0:0:0:
386,235,98386,1,8,0:0:0:0:
386,235,98487,1,0,0:0:0:0:
386,235,98588,1,8,0:0:0:0:
386,235,98690,1,0,0:0:0:0:
386,235,98892,1,8,0:0:0:0:
386,235,98994,1,0,0:0:0:0:
386,235,99095,1,8,0:0:0:0:
386,235,99196,1,8,0:0:0:0:
410,275,99399,1,8,0:0:0:0:
209,131,99500,1,0,0:0:0:0:
329,234,99602,1,0,0:0:0:0:
329,234,99703,1,8,0:0:0:0:
329,234,99906,1,8,0:0:0:0:
329,234,100109,1,0,0:0:0:0:
329,234,100311,1,0,0:0:0:0:
329,234,100413,1,0,0:0:0:0:
329,234,100615,1,8,0:0:0:0:
329,234,100717,1,8,0:0:0:0:
366,291,100818,1,0,0:0:0:0:
222,209,101021,1,0,0:0:0:0:
226,210,101122,1,0,0:0:0:0:
323,143,101325,1,0,0:0:0:0:
206,111,101527,1,8,0:0:0:0:
206,111,101730,1,0,0:0:0:0:
206,111,101831,1,8,0:0:0:0:
206,111,101933,1,8,0:0:0:0:
373,256,102136,1,8,0:0:0:0:
373,256,102237,1,0,0:0:0:0:
314,193,102338,1,8,0:0:0:0:
373,256,102440,1,0,0:0:0:0:
373,256,102642,1,0,0:0:0:0:
373,256,102744,1,12,0:0:0:0:
299,92,103014,1,0,0:0:0:0:
299,92,103081,1,0,0:0:0:0:
299,92,103149,1,8,0:0:0:0:
216,163,103250,1,8,0:0:0:0:
217,149,103352,1,0,0:0:0:0:
217,149,103453,1,8,0:0:0:0:
186,156,103554,1,0,0:0:0:0:
186,156,103656,1,0,0:0:0:0:
186,156,103757,1,8,0:0:0:0:
256,184,103859,1,8,0:0:0:0:
256,184,103960,1,8,0:0:0:0:
303,144,104163,1,8,0:0:0:0:
303,144,104264,1,0,0:0:0:0:
278,141,104365,1,0,0:0:0:0:
273,150,104568,1,0,0:0:0:0:
273,150,104669,1,8,0:0:0:0:
273,153,104771,1,8,0:0:0:0:
270,156,104973,1,0,0:0:0:0:
270,156,105075,1,8,0:0:0:0:
298,173,105176,1,0,0:0:0:0:
346,184,105379,1,0,0:0:0:0:
346,184,105480,1,8,0:0:0:0:
346,184,105581,1,8,0:0:0:0:
346,184,105683,1,8,0:0:0:0:
346,184,105784,1,0,0:0:0:0:
346,184,105886,1,8,0:0:0:0:
346,184,105987,1,0,0:0:0:0:
346,184,106088,1,8,0:0:0:0:
346,184,106190,1,8,0:0:0:0:
185,143,106392,1,8,0:0:0:0:
185,143,106595,1,0,0:0:0:0:
185,143,106696,1,8,0:0:0:0:
384,128,106798,1,0,0:0:0:0:
384,128,106899,1,0,0:0:0:0:
374,133,107000,1,8,0:0:0:0:
374,133,107102,1,8,0:0:0:0:
374,133,107203,1,8,0:0:0:0:
374,133,107304,1,0,0:0:0:0:
189,150,107507,1,0,0:0:0:0:
189,150,107609,1,0,0:0:0:0:
189,150,107710,1,8,0:0:0:0:
189,150,107811,1,0,0:0:0:0:
189,150,107913,1,0,0:0:0:0:
189,150,108014,1,8,0:0:0:0:
287,192,108217,5,0,0:0:0:0:
320,131,108419,1,0,0:0:0:0:
320,131,108521,1,8,0:0:0:0:
266,102,108622,1,0,0:0:0:0:
320,131,108723,1,8,0:0:0:0:
320,131,108825,1,8,0:0:0:0:
266,102,108926,1,8,0:0:0:0:
266,102,109027,1,0,0:0:0:0:
266,102,109129,1,8,0:0:0:0:
173,158,109230,5,4,0:0:0:0:
233,154,109636,1,8,0:0:0:0:
284,194,109838,1,0,0:0:0:0:
284,194,110041,1,0,0:0:0:0:
284,194,110142,1,0,0:0:0:0:
284,194,110244,1,8,0:0:0:0:
284,194,110345,1,8,0:0:0:0:
284,194,110446,1,8,0:0:0:0:
284,194,110548,1,0,0:0:0:0:
284,194,110649,1,8,0:0:0:0:
284,194,110750,1,0,0:0:0:0:
284,194,110852,1,0,0:0:0:0:
284,194,110953,1,8,0:0:0:0:
284,194,111054,1,0,0:0:0:0:
284,194,111257,1,8,0:0:0:0:
224,154,111460,1,0,0:0:0:0:
236,157,111663,1,0,0:0:0:0:
200,229,111764,1,8,0:0:0:0:
236,157,111967,1,8,0:0:0:0:
236,157,112068,1,8,0:0:0:0:
237,157,112169,1,0,0:0:0:0:
236,157,112271,1,0,0:0:0:0:
236,157,112372,1,8,0:0:0:0:
236,157,112473,1,0,0:0:0:0:
236,157,112575,1,8,0:0:0:0:
236,157,112676,1,8,0:0:0:0:
236,157,112777,1,0,0:0:0:0:
237,157,112879,1,8,0:0:0:0:
231,147,112980,1,8,0:0:0:0:
231,147,113081,1,0,0:0:0:0:
233,152,113284,1,0,0:0:0:0:
233,152,113386,1,0,0:0:0:0:
233,152,113588,1,8,0:0:0:0:
233,152,113690,1,8,0:0:0:0:
361,178,113892,1,0,0:0:0:0:
361,178,113960,1,0,0:0:0:0:
361,178,114027,1,0,0:0:0:0:
361,178,114095,1,8,0:0:0:0:
176,138,114196,1,8,0:0:0:0:
176,138,114298,1,0,0:0:0:0:
173,150,114399,1,8,0:0:0:0:
370,259,114500,1,8,0:0:0:0:
203,153,114602,1,8,0:0:0:0:
438,278,114804,1,8,0:0:0:0:
359,208,114906,1,0,0:0:0:0:
356,198,115109,1,8,0:0:0:0:
356,198,115210,1,8,0:0:0:0:
240,133,115311,1,8,0:0:0:0:
304,231,115413,1,8,0:0:0:0:
304,231,115514,1,0,0:0:0:0:
304,231,115615,1,0,0:0:0:0:
304,231,115717,1,12,0:0:0:0:
325,158,115919,1,8,0:0:0:0:
289,157,115987,1,0,0:0:0:0:
289,157,116054,1,0,0:0:0:0:
289,157,116122,1,8,0:0:0:0:
222,153,116223,1,8,0:0:0:0:
211,106,116325,1,0,0:0:0:0:
211,106,116426,1,8,0:0:0:0:
211,106,116527,1,0,0:0:0:0:
211,106,116629,1,0,0:0:0:0:
211,106,116730,1,8,0:0:0:0:
211,106,116831,1,8,0:0:0:0:
211,106,116933,1,8,0:0:0:0:
171,148,117136,1,8,0:0:0:0:
179,122,117237,1,0,0:0:0:0:
179,122,117338,1,0,0:0:0:0:
179,122,117541,1,0,0:0:0:0:
179,122,117642,1,0,0:0:0:0:
252,143,117744,1,8,0:0:0:0:
257,140,117845,1,8,0:0:0:0:
205,107,117946,1,0,0:0:0:0:
260,138,118048,1,8,0:0:0:0:
260,138,118149,1,0,0:0:0:0:
210,121,118250,1,8,0:0:0:0:
210,121,118352,1,8,0:0:0:0:
166,158,118554,1,8,0:0:0:0:
187,118,118757,1,0,0:0:0:0:
201,156,118960,1,0,0:0:0:0:
197,160,119061,1,8,0:0:0:0:
197,160,119163,1,8,0:0:0:0:
252,179,119365,1,8,0:0:0:0:
252,179,119568,1,0,0:0:0:0:
252,179,119669,1,8,0:0:0:0:
236,166,119771,1,0,0:0:0:0:
197,160,119872,1,0,0:0:0:0:
197,160,119973,1,8,0:0:0:0:
197,160,120075,1,8,0:0:0:0:
197,160,120176,1,8,0:0:0:0:
197,160,120277,1,0,0:0:0:0:
197,160,120480,1,0,0:0:0:0:
197,160,120581,1,8,0:0:0:0:
216,142,120683,1,8,0:0:0:0:
216,142,120784,1,0,0:0:0:0:
176,168,120886,1,8,0:0:0:0:
176,168,120987,1,8,0:0:0:0:
197,160,121190,5,0,0:0:0:0:
200,158,121392,1,8,0:0:0:0:
201,109,121595,1,8,0:0:0:0:
201,109,121696,1,8,0:0:0:0:
201,109,121798,1,8,0:0:0:0:
201,109,122000,1,0,0:0:0:0:
352,96,122203,5,8,0:0:0:0:
352,96,122254,1,8,0:0:0:0:
352,96,122304,1,8,0:0:0:0:
224,160,122406,5,0,0:0:0:0:
384,160,122507,5,12,0:0:0:0:
320,128,122811,1,8,0:0:0:0:
320,128,122862,1,8,0:0:0:0:
320,128,122913,1,0,0:0:0:0:
320,128,123014,1,0,0:0:0:0:
224,128,123115,1,12,0:0:0:0:
352,96,123419,5,8,0:0:0:0:
352,96,123470,1,8,0:0:0:0:
352,96,123520,1,8,0:0:0:0:
224,160,123622,5,0,0:0:0:0:
384,160,123723,5,12,0:0:0:0:
256,160,124230,1,0,0:0:0:0:
352,128,124636,1,0,0:0:0:0:
256,128,124737,1,0,0:0:0:0:
256,128,124838,1,8,0:0:0:0:
256,128,124940,1,8,0:0:0:0:
297,177,125041,1,0,0:0:0:0:
352,128,125109,1,0,0:0:0:0:
384,128,125176,1,0,0:0:0:0:
384,128,125244,1,8,0:0:0:0:
384,128,125311,1,8,0:0:0:0:
384,128,125379,1,8,0:0:0:0:
352,128,125446,1,0,0:0:0:0:
